osu file format v14

[General]
AudioFilename: audio.mp3
AudioLeadIn: 0
PreviewTime: 42396
Countdown: 0
SampleSet: Soft
StackLeniency: 0.7
Mode: 0
LetterboxInBreaks: 0
WidescreenStoryboard: 1

[Editor]
Bookmarks: 173246,185646,186846,186946,187046,198446
DistanceSpacing: 1.3
BeatDivisor: 8
GridSize: 32
TimelineZoom: 1.9

[Metadata]
Title:PHANTOM MINDS
TitleUnicode:PHANTOM MINDS
Artist:Mizuki Nana
ArtistUnicode:水樹奈々
Creator:Lasse
Version:Hard
Source:魔法少女リリカルなのは The MOVIE 1st
Tags:IMPACT EXCITER japanese pop owc o!wc osu world cup 2020 semifinals dt4 Magical Girl Lyrical Nanoha: The Movie 1st anime opening theme Eriko Yoshiki Jun Suyama
BeatmapID:2699267
BeatmapSetID:1301407

[Difficulty]
HPDrainRate:4
CircleSize:3.8
OverallDifficulty:6.8
ApproachRate:7.8
SliderMultiplier:1.4
SliderTickRate:1

[Events]
//Background and Video events
0,0,"b1.jpg",0,0
//Break Periods
2,156646,160867
//Storyboard Layer 0 (Background)
//Storyboard Layer 1 (Fail)
//Storyboard Layer 2 (Pass)
//Storyboard Layer 3 (Foreground)
//Storyboard Layer 4 (Overlay)
//Storyboard Sound Samples

[TimingPoints]
846,400,4,2,1,30,1,0
846,-153.846153846153,4,2,1,30,0,0
3246,-153.846153846153,4,2,1,32,0,0
3446,-153.846153846153,4,2,1,34,0,0
3646,-153.846153846153,4,2,1,36,0,0
4046,-133.333333333333,4,2,1,40,0,0
5646,-133.333333333333,4,2,1,45,0,0
6646,-66.6666666666667,4,2,1,50,0,0
6846,-62.5,4,2,2,60,0,0
6871,-66.6666666666667,4,2,1,40,0,0
7146,-66.6666666666667,4,2,2,5,0,0
7246,-100,4,2,1,55,0,0
13446,-100,4,2,1,45,0,0
13646,-125,4,2,1,40,0,0
18446,-117.647058823529,4,2,1,42,0,0
19246,-117.647058823529,4,2,1,44,0,0
19846,-117.647058823529,4,2,1,42,0,0
20046,-111.111111111111,4,2,1,45,0,0
24846,-111.111111111111,4,2,1,48,0,0
25846,-111.111111111111,4,2,1,46,0,0
26446,-133.333333333333,4,2,1,48,0,0
27246,-100,4,2,1,48,0,0
29446,-133.333333333333,4,2,1,48,0,0
30446,-100,4,2,1,48,0,0
32846,-100,4,2,1,52,0,0
35846,-100,4,2,1,54,0,0
38246,-100,4,2,1,56,0,0
39246,-90.9090909090909,4,2,1,60,0,0
40646,-90.9090909090909,4,2,1,52,0,0
40946,-90.9090909090909,4,2,1,40,0,0
41046,-90.9090909090909,4,2,1,52,0,0
41246,-71.4285714285714,4,2,2,60,0,0
41646,-71.4285714285714,4,2,2,30,0,0
41846,-200,4,2,1,40,0,0
41946,-83.3333333333333,4,2,1,42,0,0
42046,-83.3333333333333,4,2,1,44,0,0
42146,-83.3333333333333,4,2,1,46,0,0
42246,-83.3333333333333,4,2,1,48,0,0
42346,-83.3333333333333,4,2,1,50,0,0
42446,-83.3333333333333,4,2,1,65,0,1
54246,-83.3333333333333,4,2,2,65,0,1
54446,-83.3333333333333,4,2,1,65,0,1
54646,-83.3333333333333,4,2,1,60,0,0
55246,-83.3333333333333,4,2,1,65,0,1
66646,-100,4,2,1,65,0,0
67446,-166.666666666667,4,2,1,45,0,0
68046,-100,4,2,1,55,0,0
74246,-100,4,2,1,45,0,0
74446,-125,4,2,1,42,0,0
79246,-117.647058823529,4,2,1,44,0,0
80046,-117.647058823529,4,2,1,46,0,0
80646,-117.647058823529,4,2,1,42,0,0
80846,-111.111111111111,4,2,1,46,0,0
85646,-111.111111111111,4,2,1,48,0,0
86646,-111.111111111111,4,2,1,46,0,0
87246,-133.333333333333,4,2,1,48,0,0
88046,-100,4,2,1,48,0,0
90246,-133.333333333333,4,2,1,48,0,0
91246,-100,4,2,1,48,0,0
93646,-100,4,2,1,52,0,0
96646,-100,4,2,1,54,0,0
99046,-100,4,2,1,56,0,0
100046,-90.9090909090909,4,2,1,60,0,0
101446,-90.9090909090909,4,2,1,52,0,0
101746,-90.9090909090909,4,2,1,40,0,0
101846,-90.9090909090909,4,2,1,52,0,0
102046,-71.4285714285714,4,2,2,60,0,0
102446,-76.9230769230769,4,2,2,30,0,0
102646,-200,4,2,1,40,0,0
102746,-76.9230769230769,4,2,1,42,0,0
102846,-76.9230769230769,4,2,1,44,0,0
102946,-76.9230769230769,4,2,1,46,0,0
103046,-76.9230769230769,4,2,1,48,0,0
103146,-76.9230769230769,4,2,1,50,0,0
103246,-83.3333333333333,4,2,1,65,0,1
115046,-83.3333333333333,4,2,2,65,0,1
115246,-83.3333333333333,4,2,1,65,0,1
115446,-83.3333333333333,4,2,1,60,0,0
116046,-83.3333333333333,4,2,1,65,0,1
127446,-100,4,2,1,65,0,0
128046,-133.333333333333,4,2,1,45,0,0
128246,-133.333333333333,4,2,1,48,0,0
128446,-133.333333333333,4,2,1,50,0,0
128646,-133.333333333333,4,2,1,45,0,0
128846,-100,4,2,1,55,0,0
133446,-100,4,2,1,58,0,0
134246,-83.3333333333333,4,2,1,60,0,0
134646,-83.3333333333333,4,2,1,50,0,0
134846,-83.3333333333333,4,2,1,54,0,0
135246,-76.9230769230769,4,2,1,58,0,0
135546,-90.9090909090909,4,2,1,56,0,0
137046,-90.9090909090909,4,2,1,58,0,0
138246,-83.3333333333333,4,2,1,58,0,0
141046,-100,4,2,1,58,0,0
141846,-100,4,2,1,55,0,0
146246,-83.3333333333333,4,2,1,55,0,0
148246,-100,4,2,1,55,0,0
151246,-90.9090909090909,4,2,1,58,0,0
151846,-76.9230769230769,4,2,1,60,0,0
152246,-76.9230769230769,4,2,1,50,0,0
152446,-90.9090909090909,4,2,1,58,0,0
152846,-90.9090909090909,4,2,1,60,0,0
153046,-90.9090909090909,4,2,1,58,0,0
153246,-111.111111111111,4,2,1,56,0,0
153846,-83.3333333333333,4,2,1,50,0,0
154246,-90.9090909090909,4,2,1,45,0,0
154646,-83.3333333333333,4,2,1,40,0,0
155046,-83.3333333333333,4,2,1,35,0,0
155446,-83.3333333333333,4,2,1,30,0,0
155846,-83.3333333333333,4,2,1,25,0,0
156246,-133.333333333333,4,2,1,30,0,0
156346,-133.333333333333,4,2,1,32,0,0
156446,-133.333333333333,4,2,2,40,0,0
156846,400,4,2,1,55,1,0
156846,-142.857142857143,4,2,1,55,0,0
161646,-142.857142857143,4,2,1,30,0,0
162046,-142.857142857143,4,2,1,32,0,0
162446,-142.857142857143,4,2,1,34,0,0
162846,-142.857142857143,4,2,1,36,0,0
163246,-166.666666666667,4,2,1,38,0,0
166446,-142.857142857143,4,2,1,40,0,0
168046,-142.857142857143,4,2,1,42,0,0
169646,-142.857142857143,4,2,1,44,0,0
169946,-142.857142857143,4,2,1,5,0,0
170046,-125,4,2,1,46,0,0
170346,-125,4,2,1,5,0,0
170446,-125,4,2,1,48,0,0
170746,-111.111111111111,4,2,1,5,0,0
170846,-100,4,2,1,50,0,0
171146,-100,4,2,1,5,0,0
171246,-125,4,2,1,46,0,0
171646,-99.9999999999999,4,2,1,48,0,0
172046,-83.3333333333333,4,2,1,50,0,0
172446,-142.857142857143,4,2,1,50,0,0
173246,-83.3333333333333,4,2,1,68,0,1
176046,-71.4285714285714,4,2,1,68,0,1
176446,-83.3333333333333,4,2,1,68,0,1
177646,-76.9230769230769,4,2,1,68,0,1
177946,-76.9230769230769,4,2,1,48,0,1
178046,-71.4285714285714,4,2,1,70,0,1
178346,-71.4285714285714,4,2,1,48,0,1
178446,-66.6666666666667,4,2,1,72,0,1
178646,-66.6666666666667,4,2,1,62,0,1
178846,-66.6666666666667,4,2,1,56,0,1
179246,-83.3333333333333,4,2,1,68,0,1
183846,-83.3333333333333,4,2,2,68,0,1
183946,-76.9230769230769,4,2,1,68,0,1
185046,-100,4,2,1,60,0,0
185246,-90.9090909090909,4,2,1,62,0,0
185446,-83.3333333333333,4,2,1,64,0,0
185646,-76.9230769230769,4,2,1,68,0,1
190446,-66.6666666666667,4,2,1,70,0,1
190646,-66.6666666666667,4,2,1,68,0,1
191046,-66.6666666666667,4,2,1,70,0,1
191246,-66.6666666666667,4,2,1,68,0,1
191746,-66.6666666666667,4,2,1,65,0,1
192046,-76.9230769230769,4,2,1,68,0,1
197046,-100,4,2,1,68,0,0
197446,-133.333333333333,4,2,1,40,0,0
197846,-133.333333333333,4,2,1,45,0,0
198446,-100,4,2,1,55,0,0
211046,-100,4,2,1,40,0,0
211246,-100,4,2,1,50,0,0
211346,-100,4,2,1,40,0,0
212046,-100,4,2,1,30,0,0
212846,-100,4,2,1,20,0,0
213646,-100,4,2,1,10,0,0
214446,-100,4,2,1,5,0,0
217646,-100,4,2,1,8,0,0

[Colours]
Combo1 : 240,140,140
Combo2 : 200,180,220
Combo3 : 240,200,155
Combo4 : 150,185,220

[HitObjects]
5,356,846,6,0,L|106:341,1,90.9999958343508,2|0,0:2|0:2,0:2:0:0:
126,309,1446,2,0,P|109:279|118:216,1,90.9999958343508,0|0,0:2|0:2,0:2:0:0:
152,199,2046,1,0,0:2:0:0:
152,199,2246,2,0,L|242:185,1,90.9999958343508,0|0,0:2|0:2,0:2:0:0:
283,204,2846,2,0,L|373:190,1,90.9999958343508,0|0,0:2|0:2,0:2:0:0:
408,160,3446,2,0,P|410:138|403:110,1,45.4999979171754,0|0,0:2|0:2,0:0:0:0:
298,50,4046,6,0,B|238:56|258:23|197:28,1,105.000004005432,2|0,0:2|0:2,0:2:0:0:
150,88,4646,2,0,P|115:101|91:172,1,105.000004005432,0|0,0:2|0:2,0:2:0:0:
78,238,5246,2,0,L|137:228,1,52.5000020027161,0|0,0:2|0:2,0:2:0:0:
162,300,5646,2,0,P|223:306|273:275,1,105.000004005432,2|0,0:2|0:2,0:2:0:0:
313,231,6246,2,0,P|314:203|326:171,1,52.5000020027161,0|0,0:2|0:2,0:2:0:0:
416,111,6646,5,8,3:2:0:0:
465,193,6846,2,2,B|466:214|455:232|455:232|445:243|448:268|448:268|443:274|443:274|453:300|453:300|430:314|425:350,1,168,10|0,1:2|0:2,0:1:0:0:
411,363,7246,6,0,P|363:349|321:353,1,70,14|0,0:2|0:2,0:2:0:0:
323,359,7546,2,0,L|278:373,1,35,10|0,0:2|1:2,0:2:0:0:
226,314,7846,2,0,P|236:266|201:177,1,140,10|10,0:2|0:2,0:0:0:0:
119,129,8446,5,0,1:2:0:0:
119,129,8546,1,0,1:2:0:0:
119,129,8646,2,0,B|47:147|47:147|-16:100,1,140,8|8,3:2|0:2,0:2:0:0:
96,14,9246,1,0,1:2:0:0:
187,67,9446,1,10,0:2:0:0:
187,67,9546,1,0,1:2:0:0:
187,67,9646,2,0,P|228:67|264:50,1,70,8|0,0:2|0:0,0:0:0:0:
348,0,10046,1,2,1:2:0:0:
348,0,10246,1,0,3:2:0:0:
426,73,10446,6,0,P|444:108|442:159,1,70,14|0,0:2|1:2,0:2:0:0:
438,155,10746,2,0,L|390:165,1,35,8|8,0:3|0:3,0:0:0:0:
336,218,11046,2,0,L|243:202,1,70,14|0,3:2|3:2,0:2:0:0:
174,250,11446,5,2,3:2:0:0:
174,250,11546,1,0,3:2:0:0:
174,250,11646,1,0,1:2:0:0:
174,250,11746,1,0,1:2:0:0:
174,250,11846,2,0,L|162:152,1,70,6|0,3:2|0:0,0:2:0:0:
78,210,12246,2,0,L|90:308,1,70,10|0,0:2|1:2,0:2:0:0:
164,371,12646,5,10,3:2:0:0:
164,371,12746,1,0,1:2:0:0:
164,371,12846,1,8,3:2:0:0:
238,315,13046,2,8,P|279:300|322:303,2,70,8|2|4,0:2|1:2|0:3,0:2:0:0:
129,279,13646,6,0,P|109:232|119:168,1,112,14|8,0:2|0:2,0:2:0:0:
168,114,14246,1,2,0:2:0:0:
168,114,14446,2,0,B|224:122|224:122|281:85,1,112,8|8,0:2|0:2,0:2:0:0:
356,49,15046,5,0,0:2:0:0:
356,49,15146,1,0,0:2:0:0:
356,49,15246,2,0,L|348:113,1,56,10|0,0:2|0:2,0:2:0:0:
424,139,15646,2,0,L|432:75,1,56,8|0,0:2|0:2,0:2:0:0:
512,73,16046,2,0,L|495:205,1,112,8|8,0:2|0:2,0:2:0:0:
434,252,16646,5,8,0:3:0:0:
434,252,16746,1,4,0:3:0:0:
434,252,16846,2,0,P|386:232|309:241,1,112,8|8,0:2|0:2,0:2:0:0:
255,268,17446,1,0,0:2:0:0:
193,218,17646,2,0,L|201:147,1,56,8|0,0:2|0:2,0:2:0:0:
162,92,18046,2,0,P|136:83|106:85,1,56,8|0,0:2|0:2,0:2:0:0:
96,92,18346,1,0,0:2:0:0:
84,101,18446,6,0,L|69:228,1,119.000002269745,10|10,0:2|0:2,0:2:0:0:
60,299,19046,1,0,0:2:0:0:
122,348,19246,2,0,P|150:347|178:333,1,59.5000011348725,10|8,0:2|0:3,0:0:0:0:
189,326,19546,1,8,0:3:0:0:
202,318,19646,2,0,P|228:304|257:303,1,59.5000011348725,4|4,1:2|0:3,0:0:0:0:
345,359,20046,6,0,B|378:381|378:381|464:361,1,125.999996154785,14|8,0:2|0:2,0:2:0:0:
507,296,20646,1,2,0:2:0:0:
507,296,20746,1,0,0:2:0:0:
507,296,20846,2,0,L|513:219,1,62.9999980773926,10|2,0:2|0:2,0:0:0:0:
475,159,21246,1,2,1:2:0:0:
404,220,21446,5,0,0:2:0:0:
404,220,21546,1,0,0:2:0:0:
404,220,21646,2,0,B|373:229|373:229|327:207,1,62.9999980773926,10|0,0:2|0:2,0:2:0:0:
285,163,22046,2,0,L|276:98,1,62.9999980773926,8|0,0:2|0:2,0:2:0:0:
222,47,22446,1,8,0:2:0:0:
204,121,22646,1,0,0:2:0:0:
294,26,22846,1,0,1:2:0:0:
382,84,23046,5,8,0:3:0:0:
382,84,23146,1,4,0:3:0:0:
382,84,23246,2,0,L|399:225,1,125.999996154785,10|8,0:2|0:2,0:2:0:0:
352,277,23846,1,0,0:2:0:0:
273,252,24046,2,0,L|265:189,1,62.9999980773926,10|0,0:2|0:2,0:0:0:0:
197,283,24446,2,0,L|204:345,1,62.9999980773926,2|0,1:2|0:2,0:0:0:0:
115,288,24846,6,0,P|67:296|20:267,1,94.499997116089,10|8,0:2|3:3,0:2:0:0:
20,265,25246,1,8,3:2:0:0:
13,254,25346,1,0,1:2:0:0:
11,241,25446,2,0,L|29:160,1,62.9999980773926,2|0,3:2|0:2,0:2:0:0:
95,128,25846,5,2,0:2:0:0:
95,128,25946,1,8,0:2:0:0:
95,128,26046,2,0,P|125:129|169:113,1,62.9999980773926,0|0,1:2|0:2,0:2:0:0:
242,59,26446,6,0,L|232:163,1,105.000004005432,14|0,0:2|0:2,0:2:0:0:
232,163,27046,1,8,0:2:0:0:
316,148,27246,2,0,L|327:24,1,105.000004005432,2|0,1:2|0:2,0:2:0:0:
461,10,27846,5,0,0:2:0:0:
461,10,27946,1,0,0:2:0:0:
461,10,28046,2,0,P|480:51|462:109,1,105,8|8,2:2|0:2,0:0:0:0:
345,171,28646,1,8,0:2:0:0:
418,219,28846,2,0,B|457:194|505:215|505:215|480:239,1,105,2|0,1:2|0:2,0:2:0:0:
385,307,29446,5,0,0:2:0:0:
385,307,29546,1,0,0:2:0:0:
385,307,29646,2,0,L|275:291,1,105.000004005432,14|0,0:2|0:2,0:2:0:0:
235,366,30246,1,8,0:2:0:0:
235,366,30346,1,8,0:2:0:0:
235,366,30446,2,0,L|125:350,1,105.000004005432,2|0,1:2|0:2,0:2:0:0:
0,296,31046,5,8,0:2:0:0:
0,296,31146,1,8,0:2:0:0:
0,296,31246,2,0,P|-12:245|19:188,1,105,10|8,0:2|0:2,0:0:0:0:
104,121,31846,1,8,0:2:0:0:
104,121,31946,1,8,0:2:0:0:
104,121,32046,1,0,1:2:0:0:
158,175,32246,1,8,0:3:0:0:
229,147,32446,2,0,L|243:67,1,70,4|0,0:3|0:2,0:0:0:0:
337,19,32846,6,0,P|373:17|406:27,1,70,14|0,0:2|0:2,0:2:0:0:
405,26,33146,1,10,3:2:0:0:
405,26,33246,1,0,1:2:0:0:
475,95,33446,2,0,L|461:175,1,70,10|0,2:2|0:2,0:2:0:0:
388,224,33846,2,0,P|354:214|319:216,1,70,10|0,0:2|1:2,0:2:0:0:
247,292,34246,5,0,0:2:0:0:
308,344,34446,2,0,P|341:353|376:351,1,70,10|0,0:2|0:2,0:2:0:0:
376,351,34746,1,2,3:2:0:0:
376,351,34846,1,0,1:2:0:0:
465,320,35046,2,0,L|474:237,1,70,10|0,0:2|0:2,0:2:0:0:
405,182,35446,2,0,L|414:99,1,70,10|0,0:2|1:2,0:0:0:0:
346,32,35846,5,8,3:2:0:0:
346,32,35946,1,0,1:2:0:0:
346,32,36046,2,0,B|307:59|307:59|216:38,1,140,8|0,3:2|1:2,0:0:0:0:
142,17,36646,1,10,0:2:0:0:
161,91,36846,1,0,0:2:0:0:
216,38,37046,1,10,0:2:0:0:
87,70,37246,1,0,1:2:0:0:
181,121,37446,1,10,3:2:0:0:
181,121,37546,1,0,1:2:0:0:
181,121,37646,2,0,P|206:171|204:267,1,140,8|0,3:2|1:2,0:2:0:0:
160,354,38246,5,10,0:2:0:0:
81,307,38446,2,0,L|74:228,1,70,0|8,0:2|0:2,0:0:0:0:
8,174,38846,1,2,1:2:0:0:
71,108,39046,1,8,0:2:0:0:
137,171,39246,2,0,B|176:178|176:178|214:160,1,77.0000023498536,2|8,1:2|0:2,0:2:0:0:
296,102,39646,6,0,P|292:84|295:51,3,38.5000011749268,2|0|8|0,1:2|3:2|3:2|3:2,0:0:0:0:
318,36,40046,2,0,L|366:28,3,38.5000011749268,2|0|8|0,1:2|3:2|3:2|3:2,0:0:0:0:
391,14,40446,1,0,1:2:0:0:
478,63,40646,2,0,P|495:108|480:161,1,77.0000023498536,10|0,3:2|0:0,0:2:0:0:
408,219,41046,5,8,0:3:0:0:
408,219,41146,1,8,0:3:0:0:
408,219,41246,2,0,B|294:161|322:252|215:196,1,195.999994018555,10|0,1:2|0:2,0:2:0:0:
161,145,41846,6,0,L|157:114,5,17.5,0|0|0|0|0|0,3:2|3:2|3:2|3:2|3:2|3:2,0:0:0:0:
159,128,42446,6,0,B|147:162|147:162|175:197|159:256,1,125.999996154785,14|8,0:2|0:2,0:2:0:0:
154,267,42846,1,0,1:2:0:0:
209,353,43046,1,8,0:2:0:0:
209,353,43146,2,0,P|270:364|332:337,1,125.999996154785,0|10,1:2|0:2,0:2:0:0:
399,369,43646,1,2,1:2:0:0:
479,312,43846,5,0,3:2:0:0:
479,312,43946,1,0,3:2:0:0:
479,312,44046,2,0,B|490:272|490:272|451:210|481:152,1,167.999994873047,10|2,3:2|1:2,0:2:0:0:
439,50,44646,2,0,P|420:92|336:78,1,125.999996154785,10|0,0:2|3:3,0:0:0:0:
328,84,45046,1,10,0:2:0:0:
248,38,45246,1,0,1:2:0:0:
248,38,45346,1,0,3:2:0:0:
248,38,45446,1,0,3:2:0:0:
248,38,45546,1,0,3:2:0:0:
248,38,45646,2,0,B|226:77|226:77|246:168,1,125.999996154785,10|8,3:2|0:2,0:2:0:0:
248,176,46046,5,2,1:2:0:0:
187,257,46246,1,8,0:2:0:0:
187,257,46346,2,0,P|152:275|75:239,1,125.999996154785,0|8,1:2|0:2,0:2:0:0:
8,204,46846,1,2,1:2:0:0:
51,115,47046,5,0,3:2:0:0:
51,115,47146,1,0,3:2:0:0:
51,115,47246,2,0,L|226:90,1,167.999994873047,10|2,3:2|1:2,0:2:0:0:
300,54,47846,2,0,P|263:100|275:177,1,125.999996154785,10|0,0:2|3:2,0:0:0:0:
277,182,48246,1,10,0:2:0:0:
385,215,48446,1,0,1:2:0:0:
385,215,48546,1,0,3:2:0:0:
385,215,48646,1,0,3:2:0:0:
385,215,48746,1,0,1:2:0:0:
385,215,48846,6,0,P|463:239|489:325,1,167.999994873047,14|2,0:2|1:2,0:2:0:0:
412,376,49446,2,0,P|341:360|267:367,1,125.999996154785,8|0,0:2|0:2,0:0:0:0:
270,373,49846,1,8,0:2:0:0:
194,329,50046,1,0,1:2:0:0:
261,276,50246,1,2,3:2:0:0:
261,276,50346,1,0,3:2:0:0:
261,276,50446,1,8,3:2:0:0:
179,219,50646,2,0,L|130:211,2,41.9999987182618,0|8|0,3:2|3:2|1:2,0:0:0:0:
269,168,51046,6,0,B|302:142|302:142|311:69|247:31,1,167.999994873047,10|8,0:2|0:2,0:2:0:0:
170,1,51646,1,0,1:2:0:0:
170,1,51746,1,0,1:2:0:0:
170,1,51846,1,8,3:2:0:0:
89,78,52046,6,0,L|104:247,1,167.999994873047,10|0,0:2|1:2,0:2:0:0:
131,350,52646,1,10,0:2:0:0:
131,350,52746,1,8,0:2:0:0:
131,350,52846,2,0,L|32:338,1,83.9999974365235,0|8,1:2|0:2,0:0:0:0:
196,270,53246,1,0,1:2:0:0:
278,336,53446,5,0,3:2:0:0:
278,336,53546,1,0,3:2:0:0:
278,336,53646,2,0,L|373:321,1,83.9999974365235,10|8,3:2|0:2,0:0:0:0:
421,259,54046,1,2,1:2:0:0:
423,383,54246,1,10,1:2:0:0:
484,320,54446,1,8,0:3:0:0:
421,259,54646,1,0,1:2:0:0:
416,247,54746,1,0,1:2:0:0:
413,234,54846,2,0,L|399:168,3,41.9999987182618,8|8|4|4,3:3|3:3|3:3|3:3,0:0:0:0:
391,176,55246,6,0,B|355:189|355:189|325:159|272:165,1,125.999996154785,14|8,0:2|0:2,0:2:0:0:
253,172,55646,1,2,1:2:0:0:
180,242,55846,1,8,0:2:0:0:
180,242,55946,2,0,P|196:283|92:336,1,167.999994873047,0|0,1:2|0:0,0:2:0:0:
44,384,56446,1,2,1:2:0:0:
0,298,56646,5,0,3:2:0:0:
0,298,56746,1,0,3:2:0:0:
0,298,56846,2,0,B|24:213|-13:224|12:130,1,167.999994873047,10|2,3:2|1:2,0:2:0:0:
90,193,57446,2,0,P|142:200|213:151,1,125.999996154785,10|0,0:2|3:2,0:0:0:0:
217,149,57846,1,10,0:2:0:0:
295,231,58046,1,0,1:2:0:0:
295,231,58146,1,0,3:2:0:0:
295,231,58246,1,0,3:2:0:0:
295,231,58346,1,0,3:2:0:0:
295,231,58446,2,0,P|347:238|418:189,1,125.999996154785,10|8,3:2|0:2,0:2:0:0:
423,187,58846,5,2,1:2:0:0:
408,98,59046,1,8,0:2:0:0:
408,98,59146,2,0,B|364:90|364:90|340:103|340:103|274:91,1,125.999996154785,0|8,1:2|0:2,0:2:0:0:
236,32,59646,1,2,1:2:0:0:
199,139,59846,5,0,3:2:0:0:
199,139,59946,1,0,3:2:0:0:
199,139,60046,2,0,B|167:233|227:215|195:313,1,167.999994873047,14|2,3:2|1:2,0:2:0:0:
129,377,60646,2,0,L|36:360,1,83.9999974365235,14|0,0:2|1:2,0:2:0:0:
206,310,61046,1,10,0:2:0:0:
206,310,61146,1,0,0:0:0:0:
206,310,61246,2,0,L|299:293,1,83.9999974365235,0|0,1:2|0:0,0:0:0:0:
393,357,61646,6,0,P|451:367|482:263,1,167.999994873047,14|0,0:2|1:2,0:2:0:0:
438,197,62246,2,0,B|409:164|409:164|441:78,1,125.999996154785,10|0,0:2|0:2,0:0:0:0:
450,70,62646,1,8,0:2:0:0:
375,22,62846,1,0,1:2:0:0:
329,99,63046,1,2,3:2:0:0:
329,99,63146,1,0,1:2:0:0:
329,99,63246,1,8,3:2:0:0:
246,52,63446,2,0,L|236:-1,2,41.9999987182618,0|8|0,3:2|3:2|1:2,0:0:0:0:
185,132,63846,6,0,P|160:176|195:295,1,167.999994873047,10|8,0:2|0:2,0:2:0:0:
260,349,64446,1,0,1:2:0:0:
260,349,64546,1,0,1:2:0:0:
260,349,64646,1,8,3:2:0:0:
363,305,64846,6,0,L|371:185,1,83.9999974365235,14|0,0:2|0:2,0:2:0:0:
378,212,65146,1,8,0:2:0:0:
388,205,65246,2,0,L|396:85,1,83.9999974365235,0|8,1:2|0:2,0:0:0:0:
339,35,65646,1,0,1:2:0:0:
254,89,65846,1,8,0:2:0:0:
173,28,66046,1,0,1:2:0:0:
92,85,66246,1,8,3:2:0:0:
92,85,66346,1,0,1:2:0:0:
92,85,66446,2,0,B|47:91|47:91|-3:67,1,83.9999974365235,10|10,3:1|0:1,0:0:0:0:
0,293,67446,5,8,0:3:0:0:
0,293,67546,1,4,0:3:0:0:
0,293,67646,2,0,L|61:283,1,41.9999987182618,0|8,1:2|0:2,0:2:0:0:
89,346,68046,6,0,P|116:336|174:341,1,70,14|0,0:2|0:2,0:2:0:0:
177,345,68346,2,0,L|212:366,1,35,10|0,0:2|1:2,0:2:0:0:
282,323,68646,2,0,B|304:252|250:264|280:182,1,140,10|10,0:2|0:2,0:0:0:0:
376,140,69246,5,0,1:2:0:0:
376,140,69346,1,0,1:2:0:0:
376,140,69446,2,0,B|405:182|463:168|463:168|489:113,1,140,8|8,3:2|0:2,0:2:0:0:
512,38,70046,1,0,1:2:0:0:
412,12,70246,1,10,0:2:0:0:
412,12,70346,1,0,1:2:0:0:
412,12,70446,2,0,L|326:30,1,70,8|0,0:2|0:0,0:0:0:0:
251,5,70846,1,2,1:2:0:0:
251,5,71046,1,0,3:2:0:0:
189,102,71246,6,0,P|184:136|197:168,1,70,14|0,0:2|1:2,0:2:0:0:
210,181,71546,2,0,L|258:191,1,35,8|8,0:3|0:3,0:0:0:0:
315,259,71846,2,0,P|321:286|299:342,1,70,14|0,3:2|3:2,0:2:0:0:
213,366,72246,5,2,3:2:0:0:
213,366,72346,1,0,3:2:0:0:
213,366,72446,1,0,1:2:0:0:
213,366,72546,1,0,1:2:0:0:
213,366,72646,2,0,L|124:356,1,70,6|0,3:2|0:0,0:2:0:0:
71,285,73046,2,0,L|159:272,1,70,10|0,0:2|1:2,0:2:0:0:
217,198,73446,5,10,3:2:0:0:
217,198,73546,1,0,1:2:0:0:
217,198,73646,1,8,3:2:0:0:
140,135,73846,2,8,P|127:101|134:52,2,70,8|2|4,0:2|1:2|0:3,0:2:0:0:
226,209,74446,5,14,0:2:0:0:
298,175,74646,2,0,B|308:143|308:143|300:118|300:118|316:51,1,112,0|0,0:2|0:2,0:0:0:0:
390,27,75246,2,0,P|391:56|402:81,1,56,10|0,0:2|0:2,0:2:0:0:
409,91,75546,1,2,0:2:0:0:
418,101,75646,2,0,L|492:113,1,56,8|0,0:2|0:2,0:2:0:0:
392,186,76046,5,10,0:2:0:0:
460,229,76246,2,0,P|486:283|484:349,1,112,0|0,0:2|0:2,0:0:0:0:
413,384,76846,2,0,L|397:317,1,56,10|0,0:2|0:2,0:2:0:0:
345,273,77246,1,8,0:2:0:0:
263,333,77446,5,8,0:2:0:0:
263,333,77546,1,8,0:2:0:0:
263,333,77646,1,10,0:2:0:0:
198,378,77846,2,0,P|145:374|101:332,1,112,2|0,0:2|0:2,0:2:0:0:
29,305,78446,2,0,L|43:242,1,56,10|0,0:2|0:2,0:2:0:0:
37,236,78746,1,2,0:2:0:0:
30,223,78846,2,0,L|44:160,1,56,8|0,0:2|0:2,0:0:0:0:
115,94,79246,6,8,P|150:111|206:92,1,89.2500017023087,10|0,0:2|0:2,0:2:0:0:
213,86,79646,2,0,L|225:23,1,59.5000011348725,10|0,0:2|0:2,0:2:0:0:
297,118,80046,2,0,L|309:181,1,59.5000011348725,10|0,0:2|0:3,0:2:0:0:
311,190,80346,1,8,0:3:0:0:
317,203,80446,2,0,B|347:212|347:212|384:202,1,59.5000011348725,6|4,1:2|0:3,0:0:0:0:
461,161,80846,6,0,P|500:187|504:277,1,125.999996154785,14|8,0:2|0:2,0:2:0:0:
468,333,81446,1,2,0:2:0:0:
468,333,81546,1,2,0:2:0:0:
468,333,81646,2,0,L|392:323,1,62.9999980773926,10|2,0:2|0:2,0:0:0:0:
347,383,82046,1,2,1:2:0:0:
294,304,82246,5,0,0:2:0:0:
294,304,82346,1,0,0:2:0:0:
294,304,82446,2,0,L|306:224,1,62.9999980773926,10|0,0:2|0:2,0:2:0:0:
399,240,82846,2,0,L|389:177,1,62.9999980773926,8|0,0:2|0:2,0:2:0:0:
323,103,83246,2,0,P|285:118|209:75,1,125.999996154785,10|0,0:2|1:2,0:2:0:0:
134,5,83846,5,8,0:3:0:0:
134,5,83946,1,4,0:3:0:0:
134,5,84046,2,0,P|106:47|117:146,1,125.999996154785,10|8,0:2|0:2,0:2:0:0:
164,176,84646,1,0,0:2:0:0:
107,234,84846,2,0,L|44:242,1,62.9999980773926,10|0,0:2|0:2,0:0:0:0:
158,298,85246,2,0,L|232:308,1,62.9999980773926,2|0,1:2|0:2,0:0:0:0:
312,264,85646,6,0,P|301:222|333:160,1,94.499997116089,10|0,0:2|1:2,0:2:0:0:
327,167,86046,1,8,3:2:0:0:
338,161,86146,1,0,1:2:0:0:
349,156,86246,2,0,L|434:144,1,62.9999980773926,10|0,3:2|0:2,0:2:0:0:
503,216,86646,5,2,0:2:0:0:
503,216,86746,1,0,3:2:0:0:
503,216,86846,2,0,P|507:256|497:284,1,62.9999980773926,0|0,1:2|0:2,0:2:0:0:
414,346,87246,6,0,L|291:328,1,105.000004005432,14|0,0:2|0:2,0:2:0:0:
310,330,87846,1,8,0:2:0:0:
226,369,88046,2,0,L|244:246,1,105.000004005432,2|0,1:2|0:2,0:2:0:0:
357,189,88646,5,0,0:2:0:0:
357,189,88746,1,0,0:2:0:0:
357,189,88846,2,0,B|379:169|379:169|357:83,1,105,8|8,2:2|0:2,0:0:0:0:
253,3,89446,1,8,0:2:0:0:
186,59,89646,2,0,B|138:71|138:71|58:40,1,105,2|0,1:2|0:2,0:2:0:0:
213,148,90246,5,0,0:2:0:0:
213,148,90346,1,0,0:2:0:0:
213,148,90446,2,0,P|230:183|209:250,1,105.000004005432,14|0,0:2|0:2,0:2:0:0:
145,306,91046,1,8,0:2:0:0:
145,306,91146,1,8,0:2:0:0:
145,306,91246,2,0,L|19:297,1,105,2|0,1:2|0:2,0:2:0:0:
0,172,91846,5,8,0:2:0:0:
0,172,91946,1,8,0:2:0:0:
0,172,92046,2,0,B|11:136|11:136|7:117|7:117|19:64,1,105,10|8,0:2|0:2,0:0:0:0:
131,17,92646,1,8,0:2:0:0:
131,17,92746,1,8,0:2:0:0:
131,17,92846,1,0,1:2:0:0:
150,91,93046,1,8,0:3:0:0:
222,64,93246,2,0,L|296:42,1,70,4|0,0:3|0:2,0:0:0:0:
379,105,93646,6,0,P|390:146|377:188,1,70,14|0,0:2|0:2,0:2:0:0:
384,172,93946,1,10,3:2:0:0:
384,172,94046,1,0,1:2:0:0:
315,232,94246,2,0,L|234:219,1,70,10|0,2:2|0:2,0:2:0:0:
298,330,94646,2,0,L|379:343,1,70,10|0,0:2|1:2,0:2:0:0:
465,384,95046,5,0,0:2:0:0:
508,317,95246,2,0,P|518:282|500:236,1,70,10|0,0:2|0:2,0:2:0:0:
510,250,95546,1,2,3:2:0:0:
510,250,95646,1,0,1:2:0:0:
432,202,95846,2,0,L|351:209,1,70,10|0,0:2|0:2,0:2:0:0:
302,277,96246,2,0,L|221:284,1,70,10|0,0:2|1:2,0:0:0:0:
141,233,96646,5,8,3:2:0:0:
141,233,96746,1,0,1:2:0:0:
141,233,96846,2,0,P|160:172|126:91,1,140,8|0,3:2|1:2,0:0:0:0:
88,41,97446,1,10,0:2:0:0:
60,112,97646,1,0,0:2:0:0:
136,102,97846,1,10,0:2:0:0:
12,51,98046,1,0,1:2:0:0:
70,141,98246,1,10,3:2:0:0:
70,141,98346,1,0,1:2:0:0:
70,141,98446,2,0,L|222:125,1,140,8|0,3:2|1:2,0:2:0:0:
312,64,99046,5,10,0:2:0:0:
375,128,99246,2,0,B|387:164|387:164|374:209,1,70,0|8,0:2|0:2,0:0:0:0:
305,250,99646,1,2,1:2:0:0:
227,203,99846,1,8,0:2:0:0:
139,258,100046,2,0,B|131:296|131:296|144:335,1,77.0000023498536,2|8,1:2|0:2,0:2:0:0:
251,378,100446,6,0,L|318:366,3,38.5000011749268,2|0|8|0,1:2|3:2|3:2|3:2,0:0:0:0:
326,378,100846,2,0,L|393:366,3,38.5000011749268,2|0|8|0,1:2|3:2|3:2|3:2,0:0:0:0:
400,382,101246,1,0,1:2:0:0:
485,333,101446,2,0,P|489:301|474:254,1,77.0000023498536,10|0,3:2|0:0,0:2:0:0:
397,177,101846,5,8,0:3:0:0:
397,177,101946,1,8,0:3:0:0:
397,177,102046,2,0,B|323:157|323:157|287:177|287:177|204:154,1,195.999994018555,10|0,1:2|0:2,0:2:0:0:
126,98,102646,6,0,L|122:67,5,17.5,0|0|0|0|0|0,3:2|3:2|3:2|3:2|3:2|3:2,0:0:0:0:
126,98,103246,6,0,B|182:115|182:115|252:82,1,125.999996154785,14|8,0:2|0:2,0:2:0:0:
262,78,103646,1,0,1:2:0:0:
360,122,103846,1,8,0:2:0:0:
360,122,103946,2,0,B|400:162|382:205|382:205|345:227,1,125.999996154785,0|10,1:2|0:2,0:2:0:0:
324,298,104446,1,2,1:2:0:0:
240,232,104646,5,0,3:2:0:0:
240,232,104746,1,0,3:2:0:0:
240,232,104846,2,0,B|186:222|186:222|141:245|141:245|60:231,1,167.999994873047,10|2,3:2|1:2,0:2:0:0:
23,309,105446,2,0,P|-4:268|12:174,1,125.999996154785,10|0,0:2|3:3,0:0:0:0:
12,176,105846,1,10,0:2:0:0:
100,122,106046,1,0,1:2:0:0:
100,122,106146,1,0,3:2:0:0:
100,122,106246,1,0,3:2:0:0:
100,122,106346,1,0,3:2:0:0:
100,122,106446,2,0,B|157:137|157:137|224:97,1,125.999996154785,10|8,3:2|0:2,0:2:0:0:
232,91,106846,5,2,1:2:0:0:
288,176,107046,1,8,0:2:0:0:
288,176,107146,2,0,L|266:318,1,125.999996154785,0|8,1:2|0:2,0:2:0:0:
306,384,107646,1,2,1:2:0:0:
410,352,107846,5,0,3:2:0:0:
410,352,107946,1,0,3:2:0:0:
410,352,108046,2,0,B|420:291|420:291|411:260|411:260|424:184,1,167.999994873047,10|2,3:2|1:2,0:2:0:0:
500,122,108646,2,0,P|466:143|375:97,1,125.999996154785,10|0,0:2|3:2,0:0:0:0:
372,105,109046,1,10,0:2:0:0:
291,171,109246,1,0,1:2:0:0:
291,171,109346,1,0,3:2:0:0:
291,171,109446,1,0,3:2:0:0:
291,171,109546,1,0,1:2:0:0:
291,171,109646,6,0,B|266:208|285:257|316:243|321:288|286:334,1,167.999994873047,14|2,0:2|1:2,0:2:0:0:
195,377,110246,2,0,P|132:358|50:368,1,125.999996154785,8|0,0:2|0:2,0:0:0:0:
51,366,110646,1,8,0:2:0:0:
6,294,110846,1,0,1:2:0:0:
67,237,111046,1,2,3:2:0:0:
67,237,111146,1,0,3:2:0:0:
67,237,111246,1,8,3:2:0:0:
143,270,111446,2,0,L|147:327,2,41.9999987182618,0|8|0,3:2|3:2|1:2,0:0:0:0:
233,210,111846,6,0,B|261:177|249:128|223:143|206:95|234:53,1,167.999994873047,10|8,0:2|0:2,0:2:0:0:
310,3,112446,1,0,1:2:0:0:
310,3,112546,1,0,1:2:0:0:
310,3,112646,1,8,3:2:0:0:
403,53,112846,6,0,B|436:89|436:89|398:217,1,167.999994873047,10|0,0:2|1:2,0:2:0:0:
317,144,113446,1,10,0:2:0:0:
317,144,113546,1,8,0:2:0:0:
317,144,113646,2,0,P|277:131|222:140,1,83.9999974365235,0|8,1:2|0:2,0:0:0:0:
159,181,114046,1,0,1:2:0:0:
224,272,114246,5,0,3:2:0:0:
224,272,114346,1,0,3:2:0:0:
224,272,114446,2,0,L|319:257,1,83.9999974365235,10|8,3:2|0:2,0:0:0:0:
389,244,114846,1,2,1:2:0:0:
320,341,115046,1,10,1:2:0:0:
403,327,115246,1,8,0:3:0:0:
307,259,115446,1,0,1:2:0:0:
300,248,115546,1,0,1:2:0:0:
294,236,115646,2,0,P|286:212|290:172,3,41.9999987182618,8|8|4|4,3:3|3:3|3:3|3:3,0:0:0:0:
294,176,116046,6,0,B|317:155|317:155|301:41,1,125.999996154785,14|8,0:2|0:2,0:2:0:0:
298,40,116446,1,2,1:2:0:0:
204,7,116646,1,8,0:2:0:0:
204,7,116746,2,0,P|182:61|96:39,1,125.999996154785,0|8,1:2|0:2,0:2:0:0:
54,20,117246,1,2,1:2:0:0:
22,117,117446,5,0,3:2:0:0:
22,117,117546,1,0,3:2:0:0:
22,117,117646,2,0,P|22:181|40:284,1,167.999994873047,8|2,3:2|1:2,0:2:0:0:
107,359,118246,2,0,P|165:331|239:335,1,125.999996154785,10|0,0:2|3:2,0:0:0:0:
242,343,118646,1,10,0:2:0:0:
347,379,118846,1,0,1:2:0:0:
347,379,118946,1,0,3:2:0:0:
347,379,119046,1,0,3:2:0:0:
347,379,119146,1,0,3:2:0:0:
347,379,119246,2,0,B|369:344|369:344|377:297|329:248,1,125.999996154785,10|8,3:2|0:2,0:2:0:0:
330,248,119646,5,2,1:2:0:0:
261,174,119846,1,8,0:2:0:0:
261,174,119946,2,0,P|244:112|282:44,1,125.999996154785,0|8,1:2|0:2,0:0:0:0:
335,7,120446,1,2,1:2:0:0:
444,70,120646,5,0,3:2:0:0:
444,70,120746,1,0,3:2:0:0:
444,70,120846,2,0,P|467:137|424:237,1,167.999994873047,14|2,3:2|1:2,0:2:0:0:
342,187,121446,2,0,P|308:174|246:178,1,83.9999974365235,14|0,0:2|1:2,0:2:0:0:
221,256,121846,1,10,0:2:0:0:
221,256,121946,1,0,0:0:0:0:
221,256,122046,2,0,P|181:269|139:269,1,83.9999974365235,0|0,1:2|0:0,0:0:0:0:
64,186,122446,6,0,B|23:217|23:217|58:337,1,167.999994873047,14|0,0:2|1:2,0:2:0:0:
145,375,123046,2,0,B|192:366|192:366|209:374|209:374|279:363,1,125.999996154785,10|0,0:2|0:2,0:0:0:0:
280,348,123446,1,8,0:2:0:0:
357,379,123646,1,0,1:2:0:0:
415,320,123846,1,2,3:2:0:0:
415,320,123946,1,0,1:2:0:0:
415,320,124046,1,8,3:2:0:0:
495,344,124246,2,0,L|513:399,2,41.9999987182618,0|8|0,3:2|3:2|1:2,0:0:0:0:
458,245,124646,6,0,B|459:216|470:195|470:195|460:155|460:155|477:126|485:70,1,167.999994873047,10|8,0:2|0:2,0:2:0:0:
430,10,125246,1,0,1:2:0:0:
430,10,125346,1,0,1:2:0:0:
430,10,125446,1,8,3:2:0:0:
349,68,125646,6,0,L|231:74,1,83.9999974365235,14|0,0:2|0:2,0:2:0:0:
257,81,125946,1,8,0:2:0:0:
254,89,126046,2,0,L|136:95,1,83.9999974365235,0|8,1:2|0:2,0:0:0:0:
81,45,126446,1,0,1:2:0:0:
2,107,126646,1,8,0:2:0:0:
37,201,126846,1,0,1:2:0:0:
144,199,127046,1,8,3:2:0:0:
144,199,127146,1,0,1:2:0:0:
144,199,127246,2,0,B|175:192|175:192|186:198|186:198|235:185,1,83.9999974365235,10|10,3:1|0:1,0:0:0:0:
218,239,128046,6,0,L|225:181,1,52.5000020027161,8|4,0:3|0:3,0:0:0:0:
232,176,128346,1,4,0:3:0:0:
241,166,128446,2,0,L|248:108,1,52.5000020027161,2|8,1:2|0:2,0:2:0:0:
339,60,128846,6,0,B|394:61|411:14|411:14|468:8,1,140,14|0,2:2|1:2,0:1:0:0:
430,117,129446,1,8,0:2:0:0:
497,174,129646,2,0,P|514:227|496:266,1,70,2|8,0:2|0:2,0:1:0:0:
506,256,129946,2,0,L|456:273,1,35,2|0,0:2|1:2,0:2:0:0:
415,347,130246,1,8,3:2:0:0:
415,347,130346,1,0,1:2:0:0:
415,347,130446,2,0,P|344:357|273:328,1,140,8|0,3:2|1:2,0:2:0:0:
216,262,131046,5,10,0:2:0:0:
273,201,131246,2,0,P|285:170|272:122,1,70,2|8,3:2|0:2,0:0:0:0:
269,119,131546,1,2,3:2:0:0:
260,103,131646,2,0,L|185:86,1,70,0|2,1:2|1:2,0:2:0:0:
107,148,132046,6,0,P|38:152|14:225,1,140,10|0,0:2|1:2,0:1:0:0:
54,293,132646,1,10,0:2:0:0:
54,293,132746,1,2,0:2:0:0:
54,293,132846,2,0,L|144:276,1,70,2|8,1:2|2:2,0:0:0:0:
188,332,133246,1,0,1:2:0:0:
255,251,133446,5,2,3:2:0:0:
255,251,133546,1,2,1:2:0:0:
255,251,133646,2,0,B|258:224|258:224|255:212|255:212|259:171,1,70,14|2,2:2|0:2,0:0:0:0:
323,118,134046,1,2,1:2:0:0:
394,177,134246,2,2,B|419:216|419:216|390:349,1,167.999994873047,14|8,0:2|0:2,0:1:0:0:
303,358,134846,5,2,1:2:0:0:
292,356,134946,1,8,3:2:0:0:
282,354,135046,1,8,3:2:0:0:
271,352,135146,1,0,1:2:0:0:
261,350,135246,2,2,B|223:344|223:344|209:356|209:356|157:364,1,90.9999958343508,14|0,3:2|0:2,0:1:0:0:
156,367,135546,2,2,L|106:357,1,38.5000011749268,10|0,0:2|1:2,0:1:0:0:
26,293,135846,6,2,B|56:224|1:211|38:124,1,154.000004699707,10|8,0:2|2:2,0:1:0:0:
91,76,136446,1,0,1:2:0:0:
143,151,136646,2,0,L|134:209,2,38.5000011749268,0|0|8,3:2|1:2|3:2,0:0:0:0:
226,97,137046,5,2,0:1:0:0:
226,97,137146,1,8,0:2:0:0:
226,97,137246,2,2,B|234:75|234:75|233:64|233:64|250:14,1,77.0000023498536,0|0,1:2|0:2,0:1:0:0:
310,122,137646,2,2,B|318:144|318:144|317:155|317:155|334:205,1,77.0000023498536,2|8,0:2|0:2,0:1:0:0:
343,214,137946,2,2,L|399:216,1,38.5000011749268,10|0,2:2|1:2,0:1:0:0:
481,257,138246,5,10,0:1:0:0:
481,257,138346,1,8,0:2:0:0:
481,257,138446,2,2,B|506:206|506:206|470:95,1,167.999994873047,14|0,0:2|1:2,0:1:0:0:
393,42,139046,2,0,P|357:62|304:52,1,83.9999974365235,10|0,0:1|1:2,0:0:0:0:
258,130,139446,2,0,P|221:109|180:113,1,83.9999974365235,10|0,0:2|1:2,0:0:0:0:
96,187,139846,5,2,3:2:0:0:
96,187,139946,1,0,1:2:0:0:
96,187,140046,2,0,L|114:357,1,167.999994873047,0|0,1:2|0:0,0:0:0:0:
211,384,140646,2,0,L|219:300,1,83.9999974365235,2|4,1:2|3:3,0:0:0:0:
307,255,141046,1,8,0:3:0:0:
307,255,141146,1,8,0:3:0:0:
307,255,141246,2,0,P|344:288|437:262,1,140,10|14,1:2|0:2,0:2:0:0:
512,180,141846,6,0,L|502:102,1,70,2|0,0:2|1:2,0:0:0:0:
439,56,142246,1,8,0:2:0:0:
439,56,142346,2,0,B|388:77|388:77|325:45,1,105,0|8,1:2|0:2,0:2:0:0:
278,1,142846,1,2,1:2:0:0:
197,64,143046,5,8,3:2:0:0:
197,64,143146,1,0,1:2:0:0:
197,64,143246,2,0,P|179:121|199:206,1,140,10|2,3:2|1:2,0:2:0:0:
274,235,143846,2,0,L|391:217,1,105,8|0,0:2|1:2,0:2:0:0:
395,217,144246,1,8,0:2:0:0:
485,250,144446,1,2,1:2:0:0:
485,250,144546,1,0,1:2:0:0:
484,249,144646,2,0,P|499:283|497:318,1,70,0|8,3:2|0:2,0:0:0:0:
406,369,145046,6,0,L|324:356,1,70,2|0,0:2|1:2,0:0:0:0:
250,374,145446,1,8,0:2:0:0:
250,374,145546,2,0,L|269:263,1,105,0|8,1:2|0:2,0:2:0:0:
217,197,146046,1,2,1:2:0:0:
285,134,146246,5,0,3:2:0:0:
285,134,146346,1,0,1:2:0:0:
285,134,146446,2,0,B|318:99|318:99|320:56|285:21,1,125.999996154785,14|0,0:2|1:2,0:2:0:0:
273,17,146846,1,10,3:2:0:0:
198,78,147046,2,0,P|162:90|107:79,1,83.9999974365235,14|0,0:2|1:2,0:2:0:0:
45,35,147446,1,14,0:2:0:0:
0,119,147646,1,0,1:2:0:0:
0,119,147746,2,0,L|16:254,1,125.999996154785,8|12,2:2|2:2,0:0:0:0:
105,304,148246,6,0,L|115:221,1,70,2|0,0:2|1:2,0:0:0:0:
183,186,148646,1,8,0:2:0:0:
183,186,148746,2,0,B|231:198|231:198|279:170,1,105,0|10,1:2|0:2,0:2:0:0:
333,107,149246,1,2,1:2:0:0:
418,172,149446,5,8,3:2:0:0:
418,172,149546,1,0,1:2:0:0:
418,172,149646,2,0,P|440:225|416:311,1,140,10|0,3:2|1:2,0:2:0:0:
346,360,150246,2,0,P|308:347|268:345,1,70,10|0,0:2|0:2,0:2:0:0:
201,378,150646,1,10,0:2:0:0:
130,342,150846,1,0,1:2:0:0:
130,342,150946,1,0,1:2:0:0:
130,342,151046,1,8,3:2:0:0:
206,279,151246,6,0,B|217:242|217:242|206:213|206:213|225:132,1,115.50000352478,14|8,0:2|0:2,0:2:0:0:
223,150,151646,1,2,1:2:0:0:
302,225,151846,2,0,P|360:248|458:179,1,181.999991668702,14|8,0:2|0:2,0:2:0:0:
493,80,152446,5,2,1:2:0:0:
395,42,152646,1,8,3:2:0:0:
395,42,152746,1,0,1:2:0:0:
395,42,152846,2,0,B|365:40|365:40|351:51|351:51|312:45,1,77.0000023498536,14|8,3:2|0:2,0:2:0:0:
222,17,153246,5,0,1:2:0:0:
222,17,153346,1,0,1:2:0:0:
222,17,153446,2,0,B|362:63|384:257|242:371|242:371|214:200|90:280|92:106,1,755.999976928712,14|2,1:2|0:2,0:1:0:0:
92,105,156246,6,0,L|88:131,2,26.2500010013581,8|8|8,3:3|3:3|1:2,0:2:0:0:
19,347,161646,5,0,0:2:0:0:
23,336,162046,5,0,0:2:0:0:
27,325,162446,5,0,0:2:0:0:
31,314,162846,5,0,0:2:0:0:
94,266,163246,6,0,P|123:276|177:260,1,83.9999974365235,2|0,0:2|0:2,0:2:0:0:
207,238,163846,2,0,P|190:195|197:143,1,83.9999974365235,0|0,0:2|0:2,0:2:0:0:
221,128,164446,1,0,0:2:0:0:
221,128,164646,2,0,P|267:130|308:102,1,83.9999974365235,2|0,0:2|0:2,0:2:0:0:
339,135,165246,1,0,0:2:0:0:
339,135,165446,2,0,P|375:115|417:118,1,83.9999974365235,0|0,0:2|0:2,0:2:0:0:
451,140,166046,2,0,L|464:196,1,41.9999987182618,0|0,0:2|0:2,0:2:0:0:
416,254,166446,6,0,L|301:240,1,97.9999970092774,2|0,0:2|0:2,0:2:0:0:
258,285,167046,2,0,L|143:271,1,97.9999970092774,0|0,0:2|0:2,0:2:0:0:
87,285,167646,2,0,P|84:259|103:225,1,48.9999985046387,0|0,0:2|0:2,0:2:0:0:
165,187,168046,6,0,L|221:180,1,48.9999985046387,2|0,0:2|0:2,0:0:0:0:
267,248,168446,2,0,L|323:241,1,48.9999985046387,0|0,0:2|0:2,0:0:0:0:
334,144,168846,2,0,L|390:137,1,48.9999985046387,0|0,0:2|0:2,0:0:0:0:
444,188,169246,2,0,L|472:184,3,24.4999992523194,0|0|0|0,0:2|0:2|0:2|0:2,0:0:0:0:
496,201,169646,6,0,P|508:249|490:309,1,97.9999970092774,2|2,0:2|0:2,0:2:0:0:
295,384,170446,6,0,P|283:336|295:266,1,112,2|2,0:2|0:2,0:2:0:0:
401,131,171246,6,0,L|456:122,1,56,2|0,0:2|0:2,0:2:0:0:
332,87,171646,2,0,L|321:16,1,70,2|0,0:2|0:2,0:2:0:0:
261,126,172046,2,0,L|153:142,1,83.9999974365235,2|0,0:2|0:2,0:2:0:0:
96,96,172446,6,0,L|99:59,3,24.4999992523194,0|0|0|0,3:2|3:2|3:2|3:2,0:0:0:0:
96,96,173246,6,0,B|74:124|74:124|98:196,1,83.9999974365235,14|8,1:2|0:2,0:0:0:0:
100,187,173546,2,0,P|185:192|213:236,1,125.999996154785,0|8,1:2|0:2,0:2:0:0:
183,314,174046,1,2,1:2:0:0:
183,314,174146,1,0,3:2:0:0:
183,314,174246,1,0,3:2:0:0:
254,372,174446,2,0,L|344:357,1,83.9999974365235,10|0,3:2|1:2,0:0:0:0:
443,384,174846,5,8,3:3:0:0:
443,384,174946,1,8,3:3:0:0:
443,384,175046,2,0,B|450:339|450:339|439:317|439:317|452:235,1,125.999996154785,14|8,3:2|0:3,0:2:0:0:
457,243,175446,1,4,0:3:0:0:
390,178,175646,2,0,L|344:174,2,41.9999987182618,0|0|10,1:2|1:2|3:2,0:0:0:0:
465,129,176046,2,0,B|491:99|491:99|481:38|422:20,1,146.999995513916,14|8,0:2|0:2,0:1:0:0:
405,17,176446,5,2,1:2:0:0:
322,69,176646,1,8,0:2:0:0:
322,69,176746,2,0,B|260:86|260:86|192:58,1,125.999996154785,0|8,1:2|0:2,0:2:0:0:
134,14,177246,1,2,1:2:0:0:
70,85,177446,5,8,3:2:0:0:
70,85,177546,1,0,1:2:0:0:
70,85,177646,2,2,P|50:141|83:224,1,136.499993751526,14|0,0:2|0:2,0:1:0:0:
91,234,178046,6,2,L|241:214,1,146.999995513916,14|0,0:2|0:2,0:1:0:0:
253,241,178446,6,2,L|374:248,1,105.000004005432,14|8,0:2|0:2,0:1:0:0:
474,206,178846,5,12,3:2:0:0:
474,206,178946,1,8,3:2:0:0:
474,206,179046,1,8,3:2:0:0:
474,206,179146,1,8,3:2:0:0:
474,206,179246,6,0,B|506:243|506:243|507:314|461:371,1,167.999994873047,14|2,2:2|1:2,0:2:0:0:
383,309,179846,1,8,0:2:0:0:
383,309,179946,2,0,P|334:290|240:304,1,125.999996154785,0|8,1:2|0:2,0:2:0:0:
182,343,180446,1,0,1:2:0:0:
133,277,180646,1,10,3:2:0:0:
133,277,180746,1,0,1:2:0:0:
133,277,180846,1,8,3:2:0:0:
205,219,181046,2,0,L|216:169,2,41.9999987182618,0|8|0,3:2|3:2|1:2,0:0:0:0:
261,294,181446,6,0,P|337:323|412:290,1,167.999994873047,10|0,0:2|3:2,0:2:0:0:
485,228,182046,1,0,1:2:0:0:
485,228,182146,1,0,1:2:0:0:
485,228,182246,1,8,3:2:0:0:
416,155,182446,2,0,P|339:125|264:158,1,167.999994873047,10|0,0:2|1:2,0:2:0:0:
200,228,183046,2,0,L|176:139,1,83.9999974365235,10|0,0:2|1:2,0:0:0:0:
170,127,183346,1,0,1:2:0:0:
160,108,183446,2,0,P|137:89|75:84,1,83.9999974365235,8|8,3:2|0:2,0:0:0:0:
7,154,183846,5,10,1:2:0:0:
7,154,183946,1,8,3:2:0:0:
7,154,184046,2,0,L|31:249,1,90.9999958343508,8|8,0:2|3:2,0:0:0:0:
101,298,184446,1,0,1:2:0:0:
174,243,184646,1,8,3:2:0:0:
174,243,184746,1,8,3:2:0:0:
174,243,184846,2,0,L|186:141,1,90.9999958343508,0|10,1:2|3:2,0:0:0:0:
260,97,185246,2,8,L|251:44,3,38.5000011749268,10|8|10|8,3:2|3:2|1:2|3:2,0:2:0:0:
268,41,185646,6,0,P|326:63|397:16,1,136.499993751526,14|8,0:2|0:2,0:2:0:0:
406,16,186046,1,2,1:2:0:0:
490,80,186246,1,8,0:2:0:0:
490,80,186346,2,0,B|482:124|482:124|496:156|496:156|481:226,1,136.499993751526,0|8,1:2|0:2,0:2:0:0:
454,298,186846,1,2,1:2:0:0:
350,241,187046,5,8,3:2:0:0:
350,241,187146,1,0,1:2:0:0:
350,241,187246,2,0,B|329:180|329:180|338:136|338:136|315:64,1,181.999991668702,10|2,3:2|1:2,0:2:0:0:
225,27,187846,2,0,P|170:65|103:62,1,136.499993751526,10|0,0:2|3:2,0:0:0:0:
82,54,188246,1,10,2:2:0:0:
25,144,188446,1,0,1:2:0:0:
25,144,188546,1,0,3:2:0:0:
25,144,188646,1,0,3:2:0:0:
25,144,188746,1,0,3:2:0:0:
25,144,188846,2,0,P|19:198|46:274,1,136.499993751526,10|8,3:2|0:2,0:2:0:0:
61,291,189246,5,2,1:2:0:0:
163,290,189446,1,8,0:2:0:0:
163,290,189546,2,0,B|178:245|178:245|167:217|167:217|186:151,1,136.499993751526,0|8,1:2|0:2,0:2:0:0:
258,95,190046,1,2,1:2:0:0:
361,151,190246,5,8,3:2:0:0:
361,151,190346,1,0,1:2:0:0:
361,151,190446,2,0,P|392:205|375:320,1,157.500006008148,14|10,3:2|3:2,0:2:0:0:
377,322,190846,1,0,1:2:0:0:
283,368,191046,2,0,L|153:355,1,105.000004005432,14|0,0:2|1:2,0:2:0:0:
74,379,191446,1,10,0:2:0:0:
74,379,191546,1,0,0:0:0:0:
74,379,191646,2,0,L|92:270,1,105.000004005432,0|0,1:2|3:2,0:0:0:0:
165,206,192046,6,0,B|201:251|201:251|344:231,1,181.999991668702,14|2,0:2|1:2,0:2:0:0:
417,178,192646,2,0,P|434:110|394:46,1,136.499993751526,8|0,0:2|0:2,0:0:0:0:
384,42,193046,1,8,0:2:0:0:
295,89,193246,1,0,1:2:0:0:
219,40,193446,1,10,3:2:0:0:
219,40,193546,1,0,1:2:0:0:
219,40,193646,1,8,3:2:0:0:
126,77,193846,2,0,L|43:59,2,45.4999979171754,0|0|0,3:2|3:2|1:2,0:0:0:0:
206,152,194246,6,0,P|236:190|210:322,1,181.999991668702,10|8,0:2|0:2,0:2:0:0:
137,384,194846,1,0,1:2:0:0:
137,384,194946,1,0,1:2:0:0:
137,384,195046,1,8,3:2:0:0:
34,316,195246,6,0,L|40:215,1,90.9999958343508,14|0,0:2|0:2,0:2:0:0:
28,204,195546,1,8,0:2:0:0:
18,183,195646,2,0,L|24:82,1,90.9999958343508,0|8,1:2|0:2,0:0:0:0:
97,24,196046,1,0,1:2:0:0:
178,82,196246,1,8,0:2:0:0:
261,27,196446,1,0,1:2:0:0:
348,94,196646,1,8,3:2:0:0:
348,94,196746,1,0,1:2:0:0:
348,94,196846,2,0,B|392:105|392:105|439:80,1,90.9999958343508,10|10,3:1|0:1,0:0:0:0:
446,71,197446,5,8,0:3:0:0:
512,258,197846,5,8,0:3:0:0:
512,258,197946,1,4,0:3:0:0:
512,258,198046,2,0,L|455:247,1,52.5000020027161,0|8,1:2|0:2,0:2:0:0:
379,183,198446,6,0,B|371:164|371:164|373:147|373:147|360:111,1,70,14|0,0:2|0:2,0:2:0:0:
346,106,198746,2,0,L|330:72,1,35,10|0,0:2|1:2,0:2:0:0:
240,25,199046,2,0,P|179:22|139:90,1,140,10|10,0:2|0:2,0:0:0:0:
194,179,199646,5,0,1:2:0:0:
194,179,199746,1,0,1:2:0:0:
194,179,199846,2,0,P|237:213|228:303,1,140,8|8,3:2|0:2,0:2:0:0:
173,367,200446,1,0,1:2:0:0:
93,335,200646,1,10,0:2:0:0:
93,335,200746,1,0,1:2:0:0:
93,335,200846,2,0,L|102:250,1,70,8|0,0:2|0:0,0:0:0:0:
26,209,201246,2,0,L|35:124,1,70,2|0,1:2|3:2,0:0:0:0:
104,82,201646,6,0,P|152:82|184:65,1,70,14|0,3:2|0:2,0:2:0:0:
188,65,201946,2,0,L|203:21,1,35,10|0,0:2|1:2,0:2:0:0:
276,100,202246,2,0,P|294:120|305:172,1,70,10|0,0:2|0:0,0:0:0:0:
286,242,202646,1,10,0:2:0:0:
359,330,202846,5,0,1:2:0:0:
359,330,202946,1,0,1:2:0:0:
359,330,203046,2,0,B|428:350|428:350|479:306,1,140,8|8,3:2|0:2,0:2:0:0:
499,224,203646,1,0,1:2:0:0:
437,160,203846,1,8,3:2:0:0:
437,160,203946,1,0,1:2:0:0:
437,160,204046,2,0,L|355:151,1,70,10|10,3:2|0:2,0:2:0:0:
306,219,204446,2,0,L|224:228,1,70,2|8,1:2|3:2,0:2:0:0:
154,154,204846,6,0,P|160:106|151:81,1,70,14|0,3:2|0:2,0:2:0:0:
141,69,205146,2,0,L|104:62,1,35,10|0,0:2|1:2,0:2:0:0:
26,112,205446,2,0,P|11:164|37:254,1,140,10|10,0:2|0:2,0:0:0:0:
122,295,206046,5,0,1:2:0:0:
122,295,206146,1,0,1:2:0:0:
122,295,206246,2,0,L|269:275,1,140,8|8,3:2|0:2,0:2:0:0:
331,332,206846,1,0,1:2:0:0:
392,257,207046,1,10,0:2:0:0:
392,257,207146,1,0,1:2:0:0:
392,257,207246,2,0,B|398:231|398:231|394:218|394:218|400:181,1,70,8|0,0:2|0:0,0:0:0:0:
466,122,207646,1,2,1:2:0:0:
466,122,207846,1,0,3:2:0:0:
385,42,208046,6,0,P|352:27|301:31,1,70,14|0,0:2|1:2,0:2:0:0:
296,37,208346,2,0,L|289:73,1,35,8|8,0:3|0:3,0:0:0:0:
239,161,208646,2,0,L|252:246,1,70,14|0,3:2|3:2,0:2:0:0:
192,323,209046,5,2,3:2:0:0:
192,323,209146,1,0,3:2:0:0:
192,323,209246,1,0,1:2:0:0:
192,323,209346,1,0,1:2:0:0:
192,323,209446,2,0,B|157:332|157:332|103:313,1,70,6|0,3:2|0:0,0:2:0:0:
57,268,209846,2,0,L|81:185,1,70,10|0,0:2|1:2,0:2:0:0:
169,126,210246,5,10,3:2:0:0:
169,126,210346,1,0,1:2:0:0:
169,126,210446,1,8,3:2:0:0:
248,176,210646,2,8,B|278:190|278:190|322:180,2,70,8|2|4,0:2|1:2|0:3,0:2:0:0:
155,92,211246,5,14,0:2:0:0:
256,192,211346,12,4,217646,0:1:0:0:
