osu file format v14

[General]
AudioFilename: audio.mp3
AudioLeadIn: 0
PreviewTime: 35333
Countdown: 1
SampleSet: Normal
StackLeniency: 0.7
Mode: 1
LetterboxInBreaks: 0
WidescreenStoryboard: 0

[Editor]
DistanceSpacing: 0.7
BeatDivisor: 4
GridSize: 8
TimelineZoom: 3.099999

[Metadata]
Title:Nageki no Hana (Slax Remix)
TitleUnicode:Nageki no Hana (Slax Remix)
Artist:Mizuki Nana
ArtistUnicode:水樹奈々
Creator:Shirai-
Version:Netherbloom
Source:軒轅剣・蒼き曜
Tags:
BeatmapID:2072596
BeatmapSetID:990930

[Difficulty]
HPDrainRate:6
CircleSize:5
OverallDifficulty:7
ApproachRate:5
SliderMultiplier:1.4
SliderTickRate:1

[Events]
//Background and Video events
0,0,"693687e0-2f26-4b86-9e32-1dc28836e01c.png",0,0
//Break Periods
//Storyboard Layer 0 (Background)
//Storyboard Layer 1 (Fail)
//Storyboard Layer 2 (Pass)
//Storyboard Layer 3 (Foreground)
//Storyboard Sound Samples

[TimingPoints]
222,222.222222222222,4,1,0,100,1,0
14444,-100,4,1,0,100,0,0
21555,-100,4,1,0,100,0,0
28666,-100,4,1,0,100,0,0
35777,-100,4,1,0,100,0,1
49998,-100,4,1,0,100,0,0
49999,-100,4,1,0,100,0,1
57110,-100,4,1,0,100,0,0
57333,-125,4,1,0,100,0,0
63110,-117.647058823529,4,1,0,100,0,0
63221,-111.111111111111,4,1,0,100,0,0
63333,-100,4,1,0,100,0,0
64221,-100,4,1,0,100,0,0
71333,-100,4,1,0,100,0,0
78444,-100,4,1,0,100,0,1
92665,-100,4,1,0,100,0,0
92666,-100,4,1,0,100,0,1
106888,-100,4,1,0,100,0,0
107333,-142.857142857143,4,1,0,100,0,0
113999,-125,4,1,0,100,0,0
117555,-111.111111111111,4,1,0,100,0,0
118444,-100,4,1,0,100,0,0
119333,-90.9090909090909,4,1,0,100,0,0
119888,-89.2857142857143,4,1,0,100,0,0
119944,-86.9565217391304,4,1,0,100,0,0
119999,-84.0336134453781,4,1,0,100,0,0
120055,-80.6451612903226,4,1,0,100,0,0
120110,-76.9230769230769,4,1,0,100,0,0
120166,-72.992700729927,4,1,0,100,0,0
120221,-68.9655172413793,4,1,0,100,0,0
121110,-117.647058823529,4,1,0,100,0,0
126444,-111.111111111111,4,1,0,100,0,0
127333,-100,4,1,0,100,0,0
127777,-90.9090909090909,4,1,0,100,0,0
127833,-87.719298245614,4,1,0,100,0,0
127888,-84.0336134453781,4,1,0,100,0,0
127944,-80,4,1,0,100,0,0
127999,-75.7575757575758,4,1,0,100,0,0
128110,-66.6666666666667,4,1,0,100,0,0
128221,-40,4,1,0,100,0,1
128444,-100,4,1,0,100,0,1
135333,-100,4,1,0,100,0,1
149555,-100,4,1,0,100,0,0

[HitObjects]
231,192,222,5,8,0:0:0:0:
231,192,333,1,8,0:0:0:0:
231,192,444,1,0,0:0:0:0:
236,193,555,1,0,0:0:0:0:
236,193,666,1,8,0:0:0:0:
236,193,721,1,8,0:0:0:0:
236,193,777,1,8,0:0:0:0:
209,217,888,1,0,0:0:0:0:
228,183,999,1,0,0:0:0:0:
228,184,1110,1,8,0:0:0:0:
346,270,1333,1,0,0:0:0:0:
346,270,1444,1,0,0:0:0:0:
346,270,1555,1,8,0:0:0:0:
298,262,1666,1,8,0:0:0:0:
298,262,1721,1,8,0:0:0:0:
298,262,1777,1,0,0:0:0:0:
206,158,1888,1,0,0:0:0:0:
326,235,1999,1,0,0:0:0:0:
336,109,2110,1,8,0:0:0:0:
336,109,2221,1,8,0:0:0:0:
336,109,2333,1,0,0:0:0:0:
336,109,2444,1,0,0:0:0:0:
196,79,2555,1,0,0:0:0:0:
196,79,2666,1,8,0:0:0:0:
196,79,2721,1,8,0:0:0:0:
196,79,2777,1,8,0:0:0:0:
196,79,2888,1,0,0:0:0:0:
196,79,2999,1,8,0:0:0:0:
196,79,3110,1,8,0:0:0:0:
196,79,3166,1,8,0:0:0:0:
203,54,3221,1,0,0:0:0:0:
357,213,3333,1,0,0:0:0:0:
193,215,3444,1,0,0:0:0:0:
207,211,3555,1,8,0:0:0:0:
266,222,3610,1,8,0:0:0:0:
259,215,3666,1,8,0:0:0:0:
254,217,3721,1,0,0:0:0:0:
247,214,3777,1,0,0:0:0:0:
256,114,3888,1,0,0:0:0:0:
265,103,3999,1,8,0:0:0:0:
258,100,4110,1,8,0:0:0:0:
258,100,4166,1,8,0:0:0:0:
258,100,4221,1,0,0:0:0:0:
258,100,4333,1,0,0:0:0:0:
258,100,4444,1,8,0:0:0:0:
302,47,4499,1,8,0:0:0:0:
302,47,4555,1,0,0:0:0:0:
302,47,4610,1,0,0:0:0:0:
302,47,4666,1,8,0:0:0:0:
292,47,4777,1,0,0:0:0:0:
281,58,4888,1,0,0:0:0:0:
260,107,4944,1,0,0:0:0:0:
261,97,4999,1,0,0:0:0:0:
265,100,5055,1,0,0:0:0:0:
258,100,5110,1,8,0:0:0:0:
178,151,5221,1,8,0:0:0:0:
180,148,5333,1,0,0:0:0:0:
298,171,5444,1,0,0:0:0:0:
296,163,5555,1,0,0:0:0:0:
326,160,5666,1,0,0:0:0:0:
326,160,5721,1,0,0:0:0:0:
330,153,5777,1,8,0:0:0:0:
333,143,5888,1,0,0:0:0:0:
333,142,5999,1,8,0:0:0:0:
334,140,6110,1,8,0:0:0:0:
334,140,6166,1,8,0:0:0:0:
336,129,6221,1,0,0:0:0:0:
361,181,6333,1,0,0:0:0:0:
365,199,6444,1,8,0:0:0:0:
358,196,6499,1,8,0:0:0:0:
356,195,6555,1,8,0:0:0:0:
354,195,6610,1,8,0:0:0:0:
352,194,6666,1,0,0:0:0:0:
327,205,6777,1,0,0:0:0:0:
264,44,6833,1,0,0:0:0:0:
322,192,6888,1,8,0:0:0:0:
244,67,6944,1,0,0:0:0:0:
322,192,6999,1,8,0:0:0:0:
322,192,7055,1,8,0:0:0:0:
322,188,7110,1,0,0:0:0:0:
379,155,7333,1,4,0:0:0:0:
192,174,7444,1,0,0:0:0:0:
223,164,7555,1,8,0:0:0:0:
269,179,7666,1,0,0:0:0:0:
207,72,7721,1,0,0:0:0:0:
265,167,7777,1,0,0:0:0:0:
296,144,7888,1,0,0:0:0:0:
318,220,7999,1,8,0:0:0:0:
316,215,8055,1,0,0:0:0:0:
316,215,8110,1,8,0:0:0:0:
311,215,8166,1,8,0:0:0:0:
306,217,8221,1,0,0:0:0:0:
343,229,8333,1,0,0:0:0:0:
343,229,8444,1,8,0:0:0:0:
343,229,8555,1,0,0:0:0:0:
343,229,8610,1,0,0:0:0:0:
343,229,8666,1,8,0:0:0:0:
338,225,8777,1,0,0:0:0:0:
338,220,8888,1,8,0:0:0:0:
336,215,8944,1,8,0:0:0:0:
330,210,8999,1,8,0:0:0:0:
326,210,9055,1,8,0:0:0:0:
325,217,9110,1,0,0:0:0:0:
164,119,9221,1,0,0:0:0:0:
164,119,9333,1,8,0:0:0:0:
164,119,9444,1,0,0:0:0:0:
164,119,9499,1,0,0:0:0:0:
160,121,9555,1,0,0:0:0:0:
156,121,9666,1,0,0:0:0:0:
156,121,9777,1,8,0:0:0:0:
290,174,9833,1,8,0:0:0:0:
290,174,9888,1,0,0:0:0:0:
290,174,9944,1,0,0:0:0:0:
289,164,9999,1,8,0:0:0:0:
346,241,10110,1,0,0:0:0:0:
346,199,10221,1,8,0:0:0:0:
346,199,10277,1,0,0:0:0:0:
346,199,10333,1,8,0:0:0:0:
346,199,10388,1,0,0:0:0:0:
346,199,10444,1,0,0:0:0:0:
346,199,10499,1,8,0:0:0:0:
346,199,10555,1,0,0:0:0:0:
269,139,10610,1,0,0:0:0:0:
278,121,10666,1,8,0:0:0:0:
239,190,10777,1,8,0:0:0:0:
305,168,10888,1,4,0:0:0:0:
416,147,10999,1,0,0:0:0:0:
411,152,11055,1,0,0:0:0:0:
411,152,11110,1,8,0:0:0:0:
406,152,11221,1,0,0:0:0:0:
406,152,11333,1,8,0:0:0:0:
441,182,11388,1,0,0:0:0:0:
441,174,11444,1,0,0:0:0:0:
441,174,11499,1,0,0:0:0:0:
441,174,11555,1,8,0:0:0:0:
441,174,11666,1,0,0:0:0:0:
441,174,11777,1,8,0:0:0:0:
396,195,11833,1,8,0:0:0:0:
396,195,11888,1,0,0:0:0:0:
396,195,11944,1,0,0:0:0:0:
401,195,11999,1,8,0:0:0:0:
250,74,12110,1,8,0:0:0:0:
250,74,12166,1,0,0:0:0:0:
313,201,12221,1,8,0:0:0:0:
216,130,12277,1,8,0:0:0:0:
216,130,12333,1,0,0:0:0:0:
216,130,12388,1,0,0:0:0:0:
322,145,12444,1,8,0:0:0:0:
202,178,12499,1,0,0:0:0:0:
202,178,12555,1,8,0:0:0:0:
309,193,12666,1,4,0:0:0:0:
229,167,12777,1,0,0:0:0:0:
229,167,12833,1,0,0:0:0:0:
228,173,12888,1,8,0:0:0:0:
228,173,12999,1,0,0:0:0:0:
225,161,13110,1,8,0:0:0:0:
227,161,13166,1,8,0:0:0:0:
227,161,13221,1,0,0:0:0:0:
227,161,13277,1,0,0:0:0:0:
228,162,13333,1,0,0:0:0:0:
276,204,13444,1,0,0:0:0:0:
239,102,13555,1,8,0:0:0:0:
159,77,13610,1,8,0:0:0:0:
245,115,13666,1,0,0:0:0:0:
181,48,13721,1,8,0:0:0:0:
243,115,13777,1,0,0:0:0:0:
231,130,13833,1,0,0:0:0:0:
270,168,13888,1,8,0:0:0:0:
270,168,13944,1,8,0:0:0:0:
270,168,13999,1,0,0:0:0:0:
277,86,14055,1,8,0:0:0:0:
270,168,14110,1,0,0:0:0:0:
277,86,14166,1,0,0:0:0:0:
301,150,14221,1,8,0:0:0:0:
301,150,14277,1,8,0:0:0:0:
232,199,14333,1,0,0:0:0:0:
369,141,14444,1,4,0:0:0:0:
293,142,14666,1,8,0:0:0:0:
301,135,14888,1,0,0:0:0:0:
269,173,15110,1,8,0:0:0:0:
269,167,15221,1,0,0:0:0:0:
263,156,15333,1,0,0:0:0:0:
231,22,15555,1,0,0:0:0:0:
241,124,15666,1,0,0:0:0:0:
241,124,15777,1,8,0:0:0:0:
246,147,15999,1,0,0:0:0:0:
184,147,16221,1,0,0:0:0:0:
205,123,16333,1,8,0:0:0:0:
205,123,16444,1,8,0:0:0:0:
205,123,16555,1,0,0:0:0:0:
205,123,16666,1,8,0:0:0:0:
226,158,16888,1,8,0:0:0:0:
226,158,16999,1,8,0:0:0:0:
226,158,17110,1,0,0:0:0:0:
226,158,17221,1,8,0:0:0:0:
226,158,17333,1,0,0:0:0:0:
226,158,17444,1,0,0:0:0:0:
226,158,17555,1,8,0:0:0:0:
266,116,17777,1,8,0:0:0:0:
266,116,17888,1,8,0:0:0:0:
266,116,17999,1,0,0:0:0:0:
273,180,18221,1,8,0:0:0:0:
251,37,18333,1,0,0:0:0:0:
272,163,18444,1,8,0:0:0:0:
272,163,18666,1,8,0:0:0:0:
272,163,18777,1,0,0:0:0:0:
272,163,18888,1,0,0:0:0:0:
266,157,19110,1,8,0:0:0:0:
201,94,19221,1,0,0:0:0:0:
264,152,19333,1,8,0:0:0:0:
191,73,19444,1,8,0:0:0:0:
208,116,19555,1,0,0:0:0:0:
217,116,19666,1,8,0:0:0:0:
217,116,19777,1,0,0:0:0:0:
157,103,19999,1,0,0:0:0:0:
157,103,20110,1,0,0:0:0:0:
157,103,20221,1,8,0:0:0:0:
301,178,20333,1,0,0:0:0:0:
292,160,20444,1,0,0:0:0:0:
286,156,20555,1,8,0:0:0:0:
275,148,20666,1,8,0:0:0:0:
281,166,20888,1,8,0:0:0:0:
276,163,20999,1,0,0:0:0:0:
218,112,21055,1,0,0:0:0:0:
218,112,21110,1,8,0:0:0:0:
263,145,21221,1,0,0:0:0:0:
263,146,21277,1,0,0:0:0:0:
259,147,21333,1,8,0:0:0:0:
259,147,21388,1,8,0:0:0:0:
259,147,21444,1,0,0:0:0:0:
252,142,21555,1,4,0:0:0:0:
216,53,21666,1,0,0:0:0:0:
216,53,21777,1,8,0:0:0:0:
209,53,21888,1,0,0:0:0:0:
208,53,21944,1,0,0:0:0:0:
208,53,21999,1,0,0:0:0:0:
208,53,22110,1,0,0:0:0:0:
208,53,22221,1,8,0:0:0:0:
208,49,22333,1,8,0:0:0:0:
208,49,22388,1,8,0:0:0:0:
208,47,22444,1,0,0:0:0:0:
208,47,22555,1,0,0:0:0:0:
208,47,22666,1,8,0:0:0:0:
207,37,22777,1,0,0:0:0:0:
264,220,22833,1,8,0:0:0:0:
245,205,22888,1,0,0:0:0:0:
238,203,22999,1,0,0:0:0:0:
233,194,23110,1,8,0:0:0:0:
231,192,23221,1,0,0:0:0:0:
224,181,23277,1,0,0:0:0:0:
224,181,23333,1,8,0:0:0:0:
224,181,23444,1,0,0:0:0:0:
224,181,23555,1,8,0:0:0:0:
224,181,23666,1,8,0:0:0:0:
223,178,23721,1,8,0:0:0:0:
223,178,23777,1,0,0:0:0:0:
220,225,23888,1,0,0:0:0:0:
223,178,23999,1,8,0:0:0:0:
220,172,24110,1,8,0:0:0:0:
220,172,24166,1,0,0:0:0:0:
220,172,24221,1,0,0:0:0:0:
114,122,24333,1,0,0:0:0:0:
114,122,24388,1,8,0:0:0:0:
114,122,24444,1,8,0:0:0:0:
202,138,24555,1,0,0:0:0:0:
202,138,24666,1,0,0:0:0:0:
222,113,24777,1,0,0:0:0:0:
222,113,24833,1,0,0:0:0:0:
222,113,24888,1,8,0:0:0:0:
226,100,24999,1,8,0:0:0:0:
226,100,25110,1,0,0:0:0:0:
280,117,25277,1,0,0:0:0:0:
267,179,25333,1,8,0:0:0:0:
266,170,25444,1,0,0:0:0:0:
212,33,25499,1,0,0:0:0:0:
263,160,25555,1,0,0:0:0:0:
86,115,25666,1,8,0:0:0:0:
265,153,25777,1,0,0:0:0:0:
266,148,25888,1,0,0:0:0:0:
266,148,25999,1,8,0:0:0:0:
207,38,26110,1,0,0:0:0:0:
207,38,26166,1,0,0:0:0:0:
266,119,26221,1,8,0:0:0:0:
266,119,26333,1,0,0:0:0:0:
266,112,26444,1,8,0:0:0:0:
271,87,26555,1,8,0:0:0:0:
215,46,26610,1,8,0:0:0:0:
271,87,26666,1,0,0:0:0:0:
266,205,26777,1,8,0:0:0:0:
266,183,26888,1,0,0:0:0:0:
343,117,26999,1,0,0:0:0:0:
343,117,27055,1,0,0:0:0:0:
343,117,27110,1,8,0:0:0:0:
280,166,27221,1,0,0:0:0:0:
280,166,27333,1,0,0:0:0:0:
291,82,27388,1,0,0:0:0:0:
291,82,27444,1,0,0:0:0:0:
291,82,27499,1,0,0:0:0:0:
291,82,27555,1,8,0:0:0:0:
296,168,27666,1,0,0:0:0:0:
294,165,27777,1,4,0:0:0:0:
226,150,27888,1,0,0:0:0:0:
205,166,27999,1,8,0:0:0:0:
201,166,28055,1,8,0:0:0:0:
201,166,28110,1,0,0:0:0:0:
201,166,28166,1,0,0:0:0:0:
254,127,28221,1,8,0:0:0:0:
241,129,28277,1,0,0:0:0:0:
238,127,28333,1,8,0:0:0:0:
238,127,28388,1,8,0:0:0:0:
238,127,28444,1,0,0:0:0:0:
234,97,28499,1,0,0:0:0:0:
234,97,28555,1,8,0:0:0:0:
82,153,28666,1,0,0:0:0:0:
94,148,28721,1,0,0:0:0:0:
218,114,28777,1,0,0:0:0:0:
228,113,28888,1,0,0:0:0:0:
215,92,28999,1,0,0:0:0:0:
249,98,29110,1,8,0:0:0:0:
386,168,29221,1,0,0:0:0:0:
231,114,29333,1,0,0:0:0:0:
185,109,29388,1,0,0:0:0:0:
231,114,29444,1,0,0:0:0:0:
231,114,29555,1,8,0:0:0:0:
231,114,29610,1,0,0:0:0:0:
231,114,29666,1,8,0:0:0:0:
231,114,29777,1,0,0:0:0:0:
231,114,29888,1,0,0:0:0:0:
236,66,29999,1,8,0:0:0:0:
88,122,30055,1,0,0:0:0:0:
163,126,30110,1,8,0:0:0:0:
171,123,30166,1,8,0:0:0:0:
171,123,30221,1,0,0:0:0:0:
168,123,30333,1,0,0:0:0:0:
336,116,30444,1,4,0:0:0:0:
253,111,30555,1,0,0:0:0:0:
261,142,30666,1,8,0:0:0:0:
306,165,30777,1,0,0:0:0:0:
301,165,30888,1,0,0:0:0:0:
301,165,30999,1,0,0:0:0:0:
301,165,31055,1,0,0:0:0:0:
301,165,31110,1,8,0:0:0:0:
251,178,31221,1,0,0:0:0:0:
251,168,31333,1,8,0:0:0:0:
245,155,31388,1,8,0:0:0:0:
245,155,31444,1,0,0:0:0:0:
245,155,31499,1,0,0:0:0:0:
245,155,31555,1,8,0:0:0:0:
369,183,31666,1,0,0:0:0:0:
374,176,31777,1,0,0:0:0:0:
325,97,31888,1,0,0:0:0:0:
325,97,31944,1,0,0:0:0:0:
325,97,31999,1,8,0:0:0:0:
330,89,32110,1,0,0:0:0:0:
341,101,32221,1,4,0:0:0:0:
334,117,32333,1,0,0:0:0:0:
334,117,32444,1,8,0:0:0:0:
332,123,32555,1,0,0:0:0:0:
331,122,32610,1,0,0:0:0:0:
331,122,32666,1,8,0:0:0:0:
352,143,32777,1,0,0:0:0:0:
352,143,32888,1,8,0:0:0:0:
352,143,32944,1,8,0:0:0:0:
352,143,32999,1,0,0:0:0:0:
352,143,33055,1,0,0:0:0:0:
352,143,33110,1,8,0:0:0:0:
231,57,33221,1,0,0:0:0:0:
231,57,33277,1,0,0:0:0:0:
231,57,33333,1,8,0:0:0:0:
286,184,33388,1,8,0:0:0:0:
286,184,33444,1,0,0:0:0:0:
286,184,33499,1,0,0:0:0:0:
286,184,33555,1,8,0:0:0:0:
245,184,33666,1,8,0:0:0:0:
245,184,33777,1,0,0:0:0:0:
167,124,33833,1,0,0:0:0:0:
257,168,33888,1,0,0:0:0:0:
244,178,33944,1,0,0:0:0:0:
259,155,33999,1,8,0:0:0:0:
141,119,34055,1,8,0:0:0:0:
298,107,34110,1,0,0:0:0:0:
298,107,34166,1,0,0:0:0:0:
293,104,34221,1,8,0:0:0:0:
243,34,34277,1,0,0:0:0:0:
250,100,34333,1,8,0:0:0:0:
251,92,34388,1,8,0:0:0:0:
251,91,34444,1,0,0:0:0:0:
244,22,34499,1,8,0:0:0:0:
246,61,34555,1,0,0:0:0:0:
244,22,34610,1,0,0:0:0:0:
276,143,34666,1,8,0:0:0:0:
267,138,34721,1,8,0:0:0:0:
262,138,34777,1,0,0:0:0:0:
310,113,34833,1,8,0:0:0:0:
310,113,34888,1,0,0:0:0:0:
268,197,35777,1,4,0:0:0:0:
399,249,35999,1,8,0:0:0:0:
296,162,36110,1,0,0:0:0:0:
296,162,36166,1,0,0:0:0:0:
296,162,36221,1,0,0:0:0:0:
296,162,36333,1,0,0:0:0:0:
296,162,36444,1,8,0:0:0:0:
296,162,36499,1,8,0:0:0:0:
296,162,36555,1,0,0:0:0:0:
296,162,36610,1,0,0:0:0:0:
296,162,36666,1,8,0:0:0:0:
335,177,36777,1,0,0:0:0:0:
335,177,36888,1,8,0:0:0:0:
335,177,36944,1,8,0:0:0:0:
335,177,36999,1,0,0:0:0:0:
326,171,37055,1,8,0:0:0:0:
326,171,37110,1,8,0:0:0:0:
285,155,37166,1,8,0:0:0:0:
285,155,37221,1,0,0:0:0:0:
285,155,37277,1,0,0:0:0:0:
292,156,37333,1,8,0:0:0:0:
303,161,37444,1,8,0:0:0:0:
296,158,37555,1,0,0:0:0:0:
271,112,37666,1,0,0:0:0:0:
271,112,37721,1,0,0:0:0:0:
264,112,37777,1,8,0:0:0:0:
261,112,37888,1,0,0:0:0:0:
262,105,37944,1,0,0:0:0:0:
261,112,37999,1,8,0:0:0:0:
216,198,38055,1,8,0:0:0:0:
216,198,38110,1,0,0:0:0:0:
216,198,38221,1,8,0:0:0:0:
266,137,38333,1,8,0:0:0:0:
266,137,38388,1,8,0:0:0:0:
267,129,38444,1,0,0:0:0:0:
239,116,38555,1,0,0:0:0:0:
239,116,38666,1,8,0:0:0:0:
239,116,38721,1,0,0:0:0:0:
239,116,38777,1,8,0:0:0:0:
239,116,38833,1,8,0:0:0:0:
239,116,38888,1,0,0:0:0:0:
239,116,38944,1,0,0:0:0:0:
239,116,38999,1,8,0:0:0:0:
239,116,39055,1,8,0:0:0:0:
239,116,39110,1,0,0:0:0:0:
89,92,39166,1,0,0:0:0:0:
238,98,39221,1,8,0:0:0:0:
238,98,39333,1,0,0:0:0:0:
214,160,39444,1,0,0:0:0:0:
214,160,39499,1,0,0:0:0:0:
224,153,39555,1,8,0:0:0:0:
265,194,39666,1,0,0:0:0:0:
265,194,39777,1,0,0:0:0:0:
260,181,39833,1,0,0:0:0:0:
260,181,39888,1,8,0:0:0:0:
260,181,39944,1,8,0:0:0:0:
260,181,39999,1,0,0:0:0:0:
241,185,40110,1,8,0:0:0:0:
236,175,40221,1,0,0:0:0:0:
266,203,40333,1,0,0:0:0:0:
288,199,40388,1,0,0:0:0:0:
288,199,40444,1,8,0:0:0:0:
288,199,40555,1,0,0:0:0:0:
288,199,40610,1,0,0:0:0:0:
288,199,40666,1,8,0:0:0:0:
288,199,40721,1,8,0:0:0:0:
288,199,40777,1,0,0:0:0:0:
288,199,40833,1,0,0:0:0:0:
292,186,40888,1,8,0:0:0:0:
288,182,40999,1,8,0:0:0:0:
285,178,41110,1,0,0:0:0:0:
241,141,41221,1,0,0:0:0:0:
236,135,41277,1,8,0:0:0:0:
236,135,41333,1,8,0:0:0:0:
220,148,41444,1,8,0:0:0:0:
226,139,41555,1,0,0:0:0:0:
224,140,41610,1,0,0:0:0:0:
272,121,41666,1,0,0:0:0:0:
272,121,41721,1,0,0:0:0:0:
272,121,41777,1,8,0:0:0:0:
311,166,41833,1,0,0:0:0:0:
311,166,41888,1,8,0:0:0:0:
311,166,41944,1,8,0:0:0:0:
311,166,41999,1,0,0:0:0:0:
311,166,42110,1,0,0:0:0:0:
312,158,42166,1,0,0:0:0:0:
312,158,42221,1,8,0:0:0:0:
348,186,42333,1,8,0:0:0:0:
322,153,42388,1,8,0:0:0:0:
348,178,42444,1,0,0:0:0:0:
301,158,42499,1,8,0:0:0:0:
301,158,42555,1,0,0:0:0:0:
301,158,42610,1,0,0:0:0:0:
301,158,42666,1,8,0:0:0:0:
301,158,42721,1,0,0:0:0:0:
301,158,42777,1,8,0:0:0:0:
301,158,42888,1,4,0:0:0:0:
186,149,43110,1,8,0:0:0:0:
86,137,43221,1,0,0:0:0:0:
86,137,43277,1,0,0:0:0:0:
86,137,43333,1,0,0:0:0:0:
201,89,43444,1,0,0:0:0:0:
201,89,43555,1,8,0:0:0:0:
244,120,43610,1,8,0:0:0:0:
244,120,43666,1,0,0:0:0:0:
244,120,43721,1,0,0:0:0:0:
246,125,43777,1,8,0:0:0:0:
244,120,43888,1,0,0:0:0:0:
244,120,43944,1,0,0:0:0:0:
244,120,43999,1,8,0:0:0:0:
244,120,44110,1,8,0:0:0:0:
244,120,44221,1,0,0:0:0:0:
286,114,44277,1,0,0:0:0:0:
286,114,44333,1,0,0:0:0:0:
286,114,44388,1,0,0:0:0:0:
286,114,44444,1,8,0:0:0:0:
286,114,44555,1,8,0:0:0:0:
286,114,44666,1,0,0:0:0:0:
231,104,44777,1,0,0:0:0:0:
231,104,44833,1,0,0:0:0:0:
231,104,44888,1,8,0:0:0:0:
231,104,44999,1,0,0:0:0:0:
325,72,45055,1,0,0:0:0:0:
231,104,45110,1,8,0:0:0:0:
328,72,45166,1,8,0:0:0:0:
329,72,45221,1,0,0:0:0:0:
329,72,45333,1,8,0:0:0:0:
209,164,45444,1,0,0:0:0:0:
270,144,45555,1,0,0:0:0:0:
337,68,45610,1,0,0:0:0:0:
267,95,45666,1,0,0:0:0:0:
337,68,45721,1,0,0:0:0:0:
267,95,45777,1,8,0:0:0:0:
337,68,45833,1,0,0:0:0:0:
267,95,45888,1,8,0:0:0:0:
341,48,45944,1,8,0:0:0:0:
267,95,45999,1,0,0:0:0:0:
341,48,46055,1,0,0:0:0:0:
267,95,46110,1,8,0:0:0:0:
341,48,46166,1,0,0:0:0:0:
267,95,46221,1,8,0:0:0:0:
341,48,46277,1,8,0:0:0:0:
325,143,46333,1,0,0:0:0:0:
277,129,46444,1,0,0:0:0:0:
207,217,46555,1,8,0:0:0:0:
207,217,46610,1,0,0:0:0:0:
207,217,46666,1,0,0:0:0:0:
207,217,46777,1,0,0:0:0:0:
341,208,46888,1,8,0:0:0:0:
341,208,46944,1,0,0:0:0:0:
341,208,46999,1,8,0:0:0:0:
341,208,47055,1,8,0:0:0:0:
341,208,47110,1,0,0:0:0:0:
341,208,47166,1,0,0:0:0:0:
341,208,47222,1,8,0:0:0:0:
219,77,47333,1,0,0:0:0:0:
63,125,47388,1,0,0:0:0:0:
219,77,47444,1,0,0:0:0:0:
219,77,47499,1,0,0:0:0:0:
219,77,47555,1,8,0:0:0:0:
229,116,47666,1,8,0:0:0:0:
236,116,47777,1,0,0:0:0:0:
341,106,47888,1,0,0:0:0:0:
334,107,47944,1,0,0:0:0:0:
331,108,47999,1,8,0:0:0:0:
331,108,48110,1,0,0:0:0:0:
328,107,48221,1,0,0:0:0:0:
350,92,48333,1,0,0:0:0:0:
280,166,48444,1,8,0:0:0:0:
367,108,48666,1,0,0:0:0:0:
293,109,48888,1,8,0:0:0:0:
363,153,48999,1,0,0:0:0:0:
377,97,49110,1,0,0:0:0:0:
377,97,49221,1,0,0:0:0:0:
377,97,49333,1,8,0:0:0:0:
377,97,49444,1,0,0:0:0:0:
377,97,49499,1,0,0:0:0:0:
377,97,49555,1,8,0:0:0:0:
395,137,49666,1,0,0:0:0:0:
444,132,49777,1,0,0:0:0:0:
486,19,49833,1,0,0:0:0:0:
391,78,49888,1,0,0:0:0:0:
153,129,49999,1,4,0:0:0:0:
156,117,50110,1,0,0:0:0:0:
331,121,50221,1,8,0:0:0:0:
331,121,50333,1,0,0:0:0:0:
331,121,50388,1,0,0:0:0:0:
331,121,50444,1,8,0:0:0:0:
326,108,50555,1,0,0:0:0:0:
326,104,50666,1,8,0:0:0:0:
331,94,50777,1,8,0:0:0:0:
333,93,50833,1,8,0:0:0:0:
333,93,50888,1,0,0:0:0:0:
320,131,50999,1,0,0:0:0:0:
239,75,51055,1,0,0:0:0:0:
330,126,51110,1,8,0:0:0:0:
332,138,51221,1,0,0:0:0:0:
333,133,51333,1,8,0:0:0:0:
333,133,51444,1,8,0:0:0:0:
333,133,51499,1,8,0:0:0:0:
333,133,51555,1,0,0:0:0:0:
391,177,51666,1,0,0:0:0:0:
389,173,51777,1,0,0:0:0:0:
342,110,51833,1,0,0:0:0:0:
342,110,51888,1,0,0:0:0:0:
346,110,51944,1,0,0:0:0:0:
347,104,51999,1,8,0:0:0:0:
347,104,52110,1,0,0:0:0:0:
347,104,52221,1,8,0:0:0:0:
371,143,52333,1,0,0:0:0:0:
371,143,52388,1,0,0:0:0:0:
365,145,52444,1,8,0:0:0:0:
361,138,52555,1,0,0:0:0:0:
243,17,52610,1,0,0:0:0:0:
361,138,52666,1,0,0:0:0:0:
412,158,52777,1,0,0:0:0:0:
405,157,52833,1,0,0:0:0:0:
403,158,52888,1,8,0:0:0:0:
403,158,52944,1,0,0:0:0:0:
403,158,52999,1,8,0:0:0:0:
401,158,53055,1,8,0:0:0:0:
401,158,53110,1,0,0:0:0:0:
263,156,53221,1,0,0:0:0:0:
263,156,53333,1,8,0:0:0:0:
261,151,53444,1,8,0:0:0:0:
261,151,53555,1,4,0:0:0:0:
181,112,53666,1,0,0:0:0:0:
181,112,53777,1,8,0:0:0:0:
181,112,53833,1,8,0:0:0:0:
181,112,53888,1,0,0:0:0:0:
181,112,53944,1,0,0:0:0:0:
181,112,53999,1,8,0:0:0:0:
313,108,54110,1,0,0:0:0:0:
224,112,54166,1,0,0:0:0:0:
316,108,54221,1,8,0:0:0:0:
317,80,54333,1,8,0:0:0:0:
317,80,54444,1,0,0:0:0:0:
321,73,54555,1,0,0:0:0:0:
321,73,54610,1,0,0:0:0:0:
321,73,54666,1,8,0:0:0:0:
290,100,54777,1,0,0:0:0:0:
292,97,54888,1,8,0:0:0:0:
294,92,54944,1,8,0:0:0:0:
294,92,54999,1,0,0:0:0:0:
294,92,55110,1,8,0:0:0:0:
294,92,55221,1,0,0:0:0:0:
293,96,55333,1,0,0:0:0:0:
279,56,55388,1,0,0:0:0:0:
293,96,55444,1,0,0:0:0:0:
293,96,55499,1,0,0:0:0:0:
293,96,55555,1,8,0:0:0:0:
269,81,55666,1,0,0:0:0:0:
269,81,55777,1,8,0:0:0:0:
276,78,55833,1,8,0:0:0:0:
276,78,55888,1,0,0:0:0:0:
276,78,55944,1,0,0:0:0:0:
276,78,55999,1,8,0:0:0:0:
276,78,56110,1,8,0:0:0:0:
276,78,56166,1,8,0:0:0:0:
276,78,56221,1,0,0:0:0:0:
273,160,56277,1,0,0:0:0:0:
158,93,56333,1,0,0:0:0:0:
162,92,56444,1,8,0:0:0:0:
241,117,56499,1,0,0:0:0:0:
72,109,56555,1,0,0:0:0:0:
81,109,56610,1,0,0:0:0:0:
175,102,56666,1,0,0:0:0:0:
183,74,56721,1,0,0:0:0:0:
175,102,56777,1,8,0:0:0:0:
202,84,56833,1,0,0:0:0:0:
175,102,56888,1,8,0:0:0:0:
190,85,56944,1,8,0:0:0:0:
106,138,56999,1,0,0:0:0:0:
116,132,57110,1,4,0:0:0:0:
47,150,57333,1,0,0:0:0:0:
301,161,57555,1,0,0:0:0:0:
301,161,57666,1,8,0:0:0:0:
301,161,57777,1,8,0:0:0:0:
293,157,57888,1,0,0:0:0:0:
293,147,57999,1,0,0:0:0:0:
278,133,58221,1,8,0:0:0:0:
284,129,58333,1,0,0:0:0:0:
284,129,58444,1,8,0:0:0:0:
285,122,58666,1,8,0:0:0:0:
287,120,58888,1,0,0:0:0:0:
371,113,59110,1,0,0:0:0:0:
378,112,59221,1,0,0:0:0:0:
381,112,59333,1,8,0:0:0:0:
381,112,59555,1,8,0:0:0:0:
381,112,59777,1,0,0:0:0:0:
381,112,59888,1,0,0:0:0:0:
381,112,59999,1,8,0:0:0:0:
381,112,60110,1,0,0:0:0:0:
381,112,60221,1,8,0:0:0:0:
386,77,60444,1,8,0:0:0:0:
386,77,60555,1,8,0:0:0:0:
386,77,60666,1,0,0:0:0:0:
331,102,60833,1,0,0:0:0:0:
341,99,60999,1,0,0:0:0:0:
341,99,61110,1,8,0:0:0:0:
318,150,61333,1,8,0:0:0:0:
318,150,61444,1,8,0:0:0:0:
318,150,61555,1,0,0:0:0:0:
318,150,61721,1,0,0:0:0:0:
318,150,61888,1,0,0:0:0:0:
321,143,61999,1,8,0:0:0:0:
310,161,62110,1,0,0:0:0:0:
310,161,62221,1,8,0:0:0:0:
310,161,62333,1,8,0:0:0:0:
310,152,62444,1,0,0:0:0:0:
293,124,62666,1,0,0:0:0:0:
303,125,62888,1,8,0:0:0:0:
305,125,63110,1,0,0:0:0:0:
308,124,63221,1,0,0:0:0:0:
308,124,63333,1,8,0:0:0:0:
341,162,63388,1,8,0:0:0:0:
296,153,63444,1,0,0:0:0:0:
312,95,63499,1,0,0:0:0:0:
272,93,63555,1,8,0:0:0:0:
385,66,63629,1,8,0:0:0:0:
385,66,63703,1,8,0:0:0:0:
385,66,63777,1,0,0:0:0:0:
326,150,63888,1,0,0:0:0:0:
334,133,63999,1,0,0:0:0:0:
391,182,64110,1,8,0:0:0:0:
388,152,64221,1,4,0:0:0:0:
291,261,64333,1,8,0:0:0:0:
215,157,64444,1,0,0:0:0:0:
246,41,64499,1,0,0:0:0:0:
215,157,64555,1,0,0:0:0:0:
208,155,64666,1,8,0:0:0:0:
206,154,64777,1,0,0:0:0:0:
261,82,64833,1,8,0:0:0:0:
206,154,64888,1,8,0:0:0:0:
206,154,64999,1,8,0:0:0:0:
201,154,65110,1,0,0:0:0:0:
256,77,65221,1,0,0:0:0:0:
79,120,65277,1,0,0:0:0:0:
256,77,65333,1,8,0:0:0:0:
255,77,65444,1,8,0:0:0:0:
255,77,65555,1,0,0:0:0:0:
268,107,65666,1,0,0:0:0:0:
231,97,65777,1,8,0:0:0:0:
268,107,65833,1,0,0:0:0:0:
163,107,65888,1,8,0:0:0:0:
163,107,65999,1,0,0:0:0:0:
159,107,66110,1,0,0:0:0:0:
159,107,66166,1,0,0:0:0:0:
156,107,66221,1,8,0:0:0:0:
156,107,66333,1,0,0:0:0:0:
156,107,66444,1,8,0:0:0:0:
150,106,66555,1,0,0:0:0:0:
150,106,66610,1,0,0:0:0:0:
150,106,66666,1,8,0:0:0:0:
150,106,66777,1,8,0:0:0:0:
150,106,66888,1,0,0:0:0:0:
26,145,66999,1,0,0:0:0:0:
84,137,67055,1,0,0:0:0:0:
84,137,67110,1,8,0:0:0:0:
209,120,67221,1,8,0:0:0:0:
205,119,67333,1,8,0:0:0:0:
107,87,67388,1,8,0:0:0:0:
205,119,67444,1,0,0:0:0:0:
205,119,67499,1,0,0:0:0:0:
205,119,67555,1,8,0:0:0:0:
256,121,67666,1,8,0:0:0:0:
291,87,67777,1,8,0:0:0:0:
126,136,67888,1,0,0:0:0:0:
131,131,67944,1,8,0:0:0:0:
121,118,67999,1,0,0:0:0:0:
191,110,68110,1,0,0:0:0:0:
184,108,68221,1,8,0:0:0:0:
184,108,68333,1,0,0:0:0:0:
184,108,68388,1,0,0:0:0:0:
181,108,68444,1,8,0:0:0:0:
217,114,68555,1,8,0:0:0:0:
216,103,68666,1,0,0:0:0:0:
216,103,68777,1,0,0:0:0:0:
216,103,68833,1,0,0:0:0:0:
217,102,68888,1,8,0:0:0:0:
188,67,68999,1,8,0:0:0:0:
193,77,69055,1,8,0:0:0:0:
191,77,69110,1,0,0:0:0:0:
182,77,69221,1,0,0:0:0:0:
182,77,69277,1,0,0:0:0:0:
189,77,69333,1,8,0:0:0:0:
217,127,69444,1,8,0:0:0:0:
210,111,69555,1,0,0:0:0:0:
274,101,69666,1,8,0:0:0:0:
270,101,69777,1,0,0:0:0:0:
266,104,69888,1,0,0:0:0:0:
246,96,69999,1,8,0:0:0:0:
316,125,70221,1,8,0:0:0:0:
310,118,70333,1,8,0:0:0:0:
310,118,70444,1,0,0:0:0:0:
186,125,70499,1,8,0:0:0:0:
253,120,70555,1,0,0:0:0:0:
253,120,70610,1,0,0:0:0:0:
253,120,70666,1,8,0:0:0:0:
69,106,70721,1,8,0:0:0:0:
253,120,70777,1,0,0:0:0:0:
244,132,70888,1,8,0:0:0:0:
274,57,70944,1,0,0:0:0:0:
248,138,70999,1,8,0:0:0:0:
252,138,71055,1,8,0:0:0:0:
252,138,71110,1,0,0:0:0:0:
252,138,71166,1,0,0:0:0:0:
252,138,71221,1,8,0:0:0:0:
234,164,71333,1,4,0:0:0:0:
296,155,71444,1,4,0:0:0:0:
156,150,71555,1,8,0:0:0:0:
236,158,71721,1,0,0:0:0:0:
236,158,71777,1,8,0:0:0:0:
181,130,71888,1,8,0:0:0:0:
181,130,71944,1,8,0:0:0:0:
181,130,71999,1,0,0:0:0:0:
181,130,72110,1,0,0:0:0:0:
181,130,72221,1,8,0:0:0:0:
256,125,72333,1,0,0:0:0:0:
261,123,72388,1,0,0:0:0:0:
261,123,72444,1,8,0:0:0:0:
252,95,72499,1,8,0:0:0:0:
258,105,72555,1,0,0:0:0:0:
256,92,72666,1,8,0:0:0:0:
256,92,72777,1,0,0:0:0:0:
255,81,72888,1,8,0:0:0:0:
255,81,72999,1,8,0:0:0:0:
255,81,73110,1,0,0:0:0:0:
225,36,73166,1,0,0:0:0:0:
282,133,73221,1,0,0:0:0:0:
276,134,73277,1,0,0:0:0:0:
266,127,73333,1,8,0:0:0:0:
237,150,73444,1,8,0:0:0:0:
241,151,73555,1,0,0:0:0:0:
242,150,73666,1,0,0:0:0:0:
242,148,73721,1,0,0:0:0:0:
242,148,73777,1,8,0:0:0:0:
241,143,73888,1,0,0:0:0:0:
239,138,73999,1,8,0:0:0:0:
239,138,74110,1,8,0:0:0:0:
240,138,74221,1,0,0:0:0:0:
241,130,74333,1,0,0:0:0:0:
241,130,74388,1,0,0:0:0:0:
241,130,74444,1,8,0:0:0:0:
241,130,74555,1,8,0:0:0:0:
241,130,74610,1,8,0:0:0:0:
241,130,74666,1,0,0:0:0:0:
241,130,74721,1,0,0:0:0:0:
241,130,74777,1,8,0:0:0:0:
241,130,74833,1,8,0:0:0:0:
241,130,74888,1,0,0:0:0:0:
209,149,74999,1,0,0:0:0:0:
215,141,75110,1,8,0:0:0:0:
261,89,75221,1,8,0:0:0:0:
268,112,75277,1,8,0:0:0:0:
261,89,75333,1,0,0:0:0:0:
236,132,75444,1,0,0:0:0:0:
242,140,75499,1,0,0:0:0:0:
232,115,75555,1,0,0:0:0:0:
234,105,75666,1,8,0:0:0:0:
234,101,75777,1,0,0:0:0:0:
259,84,75833,1,0,0:0:0:0:
209,95,75888,1,0,0:0:0:0:
254,104,75944,1,0,0:0:0:0:
264,113,75999,1,8,0:0:0:0:
282,84,76110,1,0,0:0:0:0:
282,84,76166,1,0,0:0:0:0:
282,84,76221,1,8,0:0:0:0:
278,75,76333,1,0,0:0:0:0:
277,75,76444,1,8,0:0:0:0:
277,75,76555,1,8,0:0:0:0:
277,75,76666,1,0,0:0:0:0:
183,96,76721,1,0,0:0:0:0:
183,96,76777,1,0,0:0:0:0:
202,92,76833,1,0,0:0:0:0:
183,96,76888,1,8,0:0:0:0:
183,96,76944,1,0,0:0:0:0:
183,96,76999,1,8,0:0:0:0:
106,150,77055,1,8,0:0:0:0:
183,96,77110,1,0,0:0:0:0:
183,96,77166,1,0,0:0:0:0:
183,96,77221,1,0,0:0:0:0:
286,140,77277,1,8,0:0:0:0:
183,96,77333,1,8,0:0:0:0:
320,152,77388,1,0,0:0:0:0:
320,152,77444,1,8,0:0:0:0:
314,151,77499,1,8,0:0:0:0:
301,145,77555,1,0,0:0:0:0:
334,228,78444,1,4,0:0:0:0:
291,149,78666,1,8,0:0:0:0:
384,134,78777,1,0,0:0:0:0:
384,134,78833,1,0,0:0:0:0:
384,134,78888,1,8,0:0:0:0:
384,134,78999,1,0,0:0:0:0:
384,134,79110,1,8,0:0:0:0:
174,121,79166,1,8,0:0:0:0:
382,158,79221,1,0,0:0:0:0:
382,158,79333,1,0,0:0:0:0:
354,188,79444,1,0,0:0:0:0:
354,188,79499,1,0,0:0:0:0:
354,188,79555,1,8,0:0:0:0:
345,155,79666,1,0,0:0:0:0:
153,138,79721,1,0,0:0:0:0:
345,155,79777,1,8,0:0:0:0:
345,155,79833,1,8,0:0:0:0:
345,155,79888,1,0,0:0:0:0:
117,98,79944,1,0,0:0:0:0:
345,148,79999,1,8,0:0:0:0:
314,130,80110,1,0,0:0:0:0:
238,91,80222,1,0,0:0:0:0:
250,114,80277,1,0,0:0:0:0:
238,91,80333,1,8,0:0:0:0:
156,130,80388,1,0,0:0:0:0:
238,91,80444,1,8,0:0:0:0:
238,91,80555,1,0,0:0:0:0:
68,162,80666,1,8,0:0:0:0:
93,101,80721,1,8,0:0:0:0:
336,124,80777,1,0,0:0:0:0:
148,114,80833,1,0,0:0:0:0:
336,124,80888,1,8,0:0:0:0:
327,121,80999,1,8,0:0:0:0:
231,71,81055,1,8,0:0:0:0:
327,121,81110,1,0,0:0:0:0:
173,173,81221,1,0,0:0:0:0:
173,173,81333,1,8,0:0:0:0:
387,227,81388,1,8,0:0:0:0:
173,173,81444,1,0,0:0:0:0:
173,173,81499,1,0,0:0:0:0:
173,173,81555,1,8,0:0:0:0:
173,173,81610,1,0,0:0:0:0:
173,173,81666,1,0,0:0:0:0:
173,173,81721,1,0,0:0:0:0:
173,173,81777,1,8,0:0:0:0:
293,153,81833,1,8,0:0:0:0:
347,138,81888,1,0,0:0:0:0:
347,138,81999,1,0,0:0:0:0:
209,140,82110,1,0,0:0:0:0:
241,26,82166,1,8,0:0:0:0:
209,140,82221,1,8,0:0:0:0:
209,140,82277,1,8,0:0:0:0:
209,140,82333,1,0,0:0:0:0:
202,137,82444,1,8,0:0:0:0:
209,140,82499,1,8,0:0:0:0:
236,72,82555,1,0,0:0:0:0:
390,143,82666,1,8,0:0:0:0:
393,143,82777,1,0,0:0:0:0:
390,143,82833,1,0,0:0:0:0:
390,143,82888,1,8,0:0:0:0:
321,115,82944,1,8,0:0:0:0:
321,115,82999,1,0,0:0:0:0:
321,115,83110,1,8,0:0:0:0:
298,195,83221,1,0,0:0:0:0:
228,63,83277,1,0,0:0:0:0:
283,175,83333,1,0,0:0:0:0:
283,175,83444,1,0,0:0:0:0:
330,188,83499,1,0,0:0:0:0:
274,175,83555,1,8,0:0:0:0:
330,188,83666,1,8,0:0:0:0:
323,180,83777,1,0,0:0:0:0:
266,133,83833,1,0,0:0:0:0:
347,173,83888,1,0,0:0:0:0:
253,169,83944,1,0,0:0:0:0:
347,164,83999,1,8,0:0:0:0:
347,164,84110,1,0,0:0:0:0:
347,164,84166,1,8,0:0:0:0:
347,164,84221,1,0,0:0:0:0:
347,164,84277,1,0,0:0:0:0:
347,164,84333,1,8,0:0:0:0:
237,127,84388,1,8,0:0:0:0:
223,107,84444,1,0,0:0:0:0:
248,100,84555,1,8,0:0:0:0:
178,143,84610,1,8,0:0:0:0:
248,100,84666,1,0,0:0:0:0:
197,144,84777,1,0,0:0:0:0:
187,144,84888,1,8,0:0:0:0:
193,137,84944,1,0,0:0:0:0:
290,112,84999,1,8,0:0:0:0:
290,112,85055,1,8,0:0:0:0:
206,121,85110,1,0,0:0:0:0:
290,112,85166,1,0,0:0:0:0:
236,127,85221,1,8,0:0:0:0:
237,136,85277,1,0,0:0:0:0:
237,136,85333,1,0,0:0:0:0:
220,129,85444,1,8,0:0:0:0:
114,130,85499,1,8,0:0:0:0:
191,192,85555,1,4,0:0:0:0:
356,203,85777,1,8,0:0:0:0:
351,198,85888,1,8,0:0:0:0:
351,198,85944,1,8,0:0:0:0:
351,198,85999,1,0,0:0:0:0:
351,192,86110,1,0,0:0:0:0:
350,191,86221,1,8,0:0:0:0:
242,135,86333,1,0,0:0:0:0:
242,129,86388,1,0,0:0:0:0:
234,128,86444,1,0,0:0:0:0:
191,110,86499,1,8,0:0:0:0:
241,67,86555,1,0,0:0:0:0:
257,77,86610,1,0,0:0:0:0:
241,67,86666,1,8,0:0:0:0:
235,111,86777,1,0,0:0:0:0:
235,111,86832,1,0,0:0:0:0:
231,108,86888,1,0,0:0:0:0:
231,108,86999,1,0,0:0:0:0:
231,108,87055,1,0,0:0:0:0:
226,108,87110,1,8,0:0:0:0:
321,135,87166,1,0,0:0:0:0:
416,80,87221,1,8,0:0:0:0:
301,124,87277,1,8,0:0:0:0:
351,136,87333,1,0,0:0:0:0:
306,135,87444,1,0,0:0:0:0:
301,124,87555,1,8,0:0:0:0:
297,125,87666,1,8,0:0:0:0:
297,125,87721,1,8,0:0:0:0:
290,123,87777,1,0,0:0:0:0:
288,114,87888,1,0,0:0:0:0:
290,112,87999,1,8,0:0:0:0:
309,139,88055,1,8,0:0:0:0:
305,140,88110,1,0,0:0:0:0:
303,140,88166,1,0,0:0:0:0:
301,138,88221,1,8,0:0:0:0:
375,82,88277,1,8,0:0:0:0:
375,82,88333,1,0,0:0:0:0:
189,45,88388,1,0,0:0:0:0:
376,32,88444,1,0,0:0:0:0:
376,32,88555,1,0,0:0:0:0:
246,143,88610,1,0,0:0:0:0:
252,41,88666,1,0,0:0:0:0:
341,92,88777,1,0,0:0:0:0:
341,92,88833,1,0,0:0:0:0:
341,92,88888,1,8,0:0:0:0:
320,176,88999,1,8,0:0:0:0:
327,168,89110,1,0,0:0:0:0:
321,131,89221,1,0,0:0:0:0:
312,134,89277,1,0,0:0:0:0:
312,134,89333,1,8,0:0:0:0:
312,134,89388,1,0,0:0:0:0:
312,134,89444,1,0,0:0:0:0:
312,134,89499,1,0,0:0:0:0:
312,134,89555,1,8,0:0:0:0:
324,108,89666,1,8,0:0:0:0:
324,108,89721,1,8,0:0:0:0:
324,108,89777,1,0,0:0:0:0:
324,108,89888,1,0,0:0:0:0:
310,102,89999,1,8,0:0:0:0:
310,102,90055,1,8,0:0:0:0:
310,102,90110,1,0,0:0:0:0:
310,102,90166,1,0,0:0:0:0:
310,102,90221,1,8,0:0:0:0:
333,160,90277,1,0,0:0:0:0:
333,160,90333,1,8,0:0:0:0:
333,160,90388,1,8,0:0:0:0:
333,160,90444,1,0,0:0:0:0:
323,112,90499,1,0,0:0:0:0:
339,122,90555,1,0,0:0:0:0:
339,122,90610,1,0,0:0:0:0:
339,122,90666,1,8,0:0:0:0:
323,107,90721,1,0,0:0:0:0:
339,122,90777,1,8,0:0:0:0:
270,119,90833,1,8,0:0:0:0:
339,122,90888,1,0,0:0:0:0:
304,155,90999,1,8,0:0:0:0:
302,148,91110,1,8,0:0:0:0:
300,148,91221,1,8,0:0:0:0:
298,148,91333,1,0,0:0:0:0:
298,148,91444,1,8,0:0:0:0:
329,157,91666,1,0,0:0:0:0:
222,138,91777,1,0,0:0:0:0:
263,123,91888,1,0,0:0:0:0:
263,123,91999,1,8,0:0:0:0:
268,98,92110,1,0,0:0:0:0:
268,98,92166,1,0,0:0:0:0:
268,98,92221,1,0,0:0:0:0:
296,92,92333,1,0,0:0:0:0:
313,146,92444,1,8,0:0:0:0:
313,146,92499,1,8,0:0:0:0:
311,141,92555,1,8,0:0:0:0:
310,139,92610,1,8,0:0:0:0:
306,139,92666,1,4,0:0:0:0:
371,217,92888,1,0,0:0:0:0:
236,29,92944,1,0,0:0:0:0:
371,241,92999,1,8,0:0:0:0:
367,239,93110,1,0,0:0:0:0:
361,226,93221,1,8,0:0:0:0:
345,187,93277,1,8,0:0:0:0:
361,226,93333,1,0,0:0:0:0:
345,187,93444,1,8,0:0:0:0:
345,187,93555,1,8,0:0:0:0:
124,113,93610,1,8,0:0:0:0:
124,113,93666,1,0,0:0:0:0:
124,113,93721,1,0,0:0:0:0:
124,113,93777,1,8,0:0:0:0:
250,168,93888,1,0,0:0:0:0:
257,156,93999,1,8,0:0:0:0:
116,127,94055,1,0,0:0:0:0:
234,208,94110,1,8,0:0:0:0:
234,208,94166,1,8,0:0:0:0:
234,208,94221,1,0,0:0:0:0:
233,129,94333,1,0,0:0:0:0:
240,128,94444,1,0,0:0:0:0:
185,112,94499,1,0,0:0:0:0:
185,112,94555,1,0,0:0:0:0:
180,105,94666,1,8,0:0:0:0:
292,185,94777,1,8,0:0:0:0:
291,168,94888,1,0,0:0:0:0:
277,144,94944,1,0,0:0:0:0:
277,144,94999,1,8,0:0:0:0:
277,144,95110,1,8,0:0:0:0:
135,105,95221,1,8,0:0:0:0:
135,105,95277,1,8,0:0:0:0:
135,105,95333,1,0,0:0:0:0:
241,148,95444,1,0,0:0:0:0:
119,120,95499,1,0,0:0:0:0:
235,146,95555,1,8,0:0:0:0:
228,146,95666,1,0,0:0:0:0:
228,146,95721,1,8,0:0:0:0:
228,146,95777,1,0,0:0:0:0:
228,146,95833,1,8,0:0:0:0:
228,146,95888,1,0,0:0:0:0:
228,146,95999,1,8,0:0:0:0:
248,205,96110,1,8,0:0:0:0:
239,187,96166,1,8,0:0:0:0:
281,175,96221,1,0,0:0:0:0:
381,196,96333,1,0,0:0:0:0:
375,181,96444,1,8,0:0:0:0:
375,181,96555,1,0,0:0:0:0:
375,181,96610,1,0,0:0:0:0:
373,176,96666,1,8,0:0:0:0:
373,174,96777,1,8,0:0:0:0:
373,174,96888,1,0,0:0:0:0:
239,187,96944,1,0,0:0:0:0:
239,187,96999,1,0,0:0:0:0:
239,187,97055,1,0,0:0:0:0:
239,187,97110,1,8,0:0:0:0:
265,179,97221,1,0,0:0:0:0:
265,173,97333,1,8,0:0:0:0:
265,173,97388,1,8,0:0:0:0:
265,173,97444,1,0,0:0:0:0:
265,173,97499,1,0,0:0:0:0:
265,173,97555,1,8,0:0:0:0:
328,191,97666,1,8,0:0:0:0:
196,103,97721,1,0,0:0:0:0:
323,183,97777,1,0,0:0:0:0:
214,81,97833,1,0,0:0:0:0:
239,122,97888,1,8,0:0:0:0:
239,122,97944,1,0,0:0:0:0:
356,177,97999,1,0,0:0:0:0:
253,170,98110,1,0,0:0:0:0:
253,170,98166,1,0,0:0:0:0:
251,173,98221,1,8,0:0:0:0:
251,173,98333,1,0,0:0:0:0:
253,170,98444,1,8,0:0:0:0:
253,170,98555,1,0,0:0:0:0:
243,163,98610,1,0,0:0:0:0:
243,163,98666,1,8,0:0:0:0:
352,189,98777,1,0,0:0:0:0:
352,189,98888,1,0,0:0:0:0:
250,100,98944,1,0,0:0:0:0:
250,100,98999,1,0,0:0:0:0:
250,100,99055,1,0,0:0:0:0:
250,100,99110,1,8,0:0:0:0:
250,100,99166,1,0,0:0:0:0:
250,100,99221,1,8,0:0:0:0:
276,102,99277,1,8,0:0:0:0:
276,102,99333,1,0,0:0:0:0:
206,152,99388,1,8,0:0:0:0:
206,152,99444,1,0,0:0:0:0:
206,152,99499,1,0,0:0:0:0:
265,142,99555,1,8,0:0:0:0:
271,122,99777,1,12,0:0:0:0:
237,86,99888,1,0,0:0:0:0:
81,187,99999,1,0,0:0:0:0:
351,139,100055,1,0,0:0:0:0:
336,145,100110,1,8,0:0:0:0:
330,237,100221,1,0,0:0:0:0:
270,183,100333,1,0,0:0:0:0:
270,183,100388,1,0,0:0:0:0:
270,183,100444,1,8,0:0:0:0:
272,198,100555,1,8,0:0:0:0:
268,190,100666,1,0,0:0:0:0:
268,190,100777,1,0,0:0:0:0:
268,190,100833,1,0,0:0:0:0:
268,190,100888,1,8,0:0:0:0:
292,174,100944,1,0,0:0:0:0:
292,174,100999,1,8,0:0:0:0:
292,174,101055,1,0,0:0:0:0:
292,174,101110,1,0,0:0:0:0:
292,174,101221,1,0,0:0:0:0:
231,107,101277,1,0,0:0:0:0:
292,174,101333,1,8,0:0:0:0:
309,152,101444,1,0,0:0:0:0:
312,147,101555,1,0,0:0:0:0:
207,78,101610,1,0,0:0:0:0:
200,119,101666,1,0,0:0:0:0:
200,119,101777,1,8,0:0:0:0:
281,191,101888,1,0,0:0:0:0:
281,183,101944,1,0,0:0:0:0:
277,173,101999,1,8,0:0:0:0:
277,173,102110,1,0,0:0:0:0:
281,163,102221,1,8,0:0:0:0:
281,163,102277,1,8,0:0:0:0:
281,163,102333,1,0,0:0:0:0:
281,163,102388,1,0,0:0:0:0:
281,163,102444,1,8,0:0:0:0:
348,188,102555,1,8,0:0:0:0:
348,188,102610,1,8,0:0:0:0:
348,188,102666,1,0,0:0:0:0:
373,148,102721,1,0,0:0:0:0:
371,153,102777,1,8,0:0:0:0:
366,154,102833,1,8,0:0:0:0:
366,154,102888,1,0,0:0:0:0:
366,154,102999,1,0,0:0:0:0:
244,111,103055,1,0,0:0:0:0:
366,154,103110,1,0,0:0:0:0:
291,126,103221,1,0,0:0:0:0:
126,145,103333,1,4,0:0:0:0:
329,190,103444,1,0,0:0:0:0:
323,188,103499,1,0,0:0:0:0:
275,155,103555,1,8,0:0:0:0:
205,168,103666,1,0,0:0:0:0:
205,168,103777,1,8,0:0:0:0:
205,168,103888,1,0,0:0:0:0:
205,168,103944,1,0,0:0:0:0:
205,168,103999,1,8,0:0:0:0:
224,156,104110,1,0,0:0:0:0:
235,156,104221,1,8,0:0:0:0:
307,192,104333,1,8,0:0:0:0:
289,195,104388,1,8,0:0:0:0:
286,189,104444,1,0,0:0:0:0:
289,195,104499,1,0,0:0:0:0:
286,189,104555,1,8,0:0:0:0:
286,189,104610,1,0,0:0:0:0:
286,189,104666,1,0,0:0:0:0:
310,194,104777,1,0,0:0:0:0:
348,107,104833,1,0,0:0:0:0:
348,107,104888,1,8,0:0:0:0:
269,66,104944,1,0,0:0:0:0:
348,107,104999,1,8,0:0:0:0:
348,107,105110,1,0,0:0:0:0:
266,148,105166,1,0,0:0:0:0:
368,136,105221,1,0,0:0:0:0:
257,144,105277,1,0,0:0:0:0:
368,136,105333,1,8,0:0:0:0:
249,133,105388,1,8,0:0:0:0:
368,136,105444,1,0,0:0:0:0:
242,125,105499,1,0,0:0:0:0:
368,136,105555,1,8,0:0:0:0:
238,120,105610,1,0,0:0:0:0:
361,135,105666,1,8,0:0:0:0:
236,117,105721,1,8,0:0:0:0:
361,135,105777,1,0,0:0:0:0:
71,105,105833,1,8,0:0:0:0:
236,138,105888,1,0,0:0:0:0:
374,173,105999,1,4,0:0:0:0:
167,135,106221,1,0,0:0:0:0:
172,137,106444,1,0,0:0:0:0:
171,138,106666,1,8,0:0:0:0:
178,119,106777,1,0,0:0:0:0:
186,62,106888,1,4,0:0:0:0:
291,114,107333,1,0,0:0:0:0:
261,68,107555,1,8,0:0:0:0:
265,72,107777,1,8,0:0:0:0:
246,77,108221,1,0,0:0:0:0:
246,77,108444,1,8,0:0:0:0:
264,85,108666,1,0,0:0:0:0:
248,94,109110,1,8,0:0:0:0:
256,94,109333,1,0,0:0:0:0:
256,94,109555,1,8,0:0:0:0:
186,157,109777,1,8,0:0:0:0:
186,157,109888,1,8,0:0:0:0:
186,157,109999,1,0,0:0:0:0:
191,73,110221,1,0,0:0:0:0:
191,73,110444,1,0,0:0:0:0:
194,62,110777,1,0,0:0:0:0:
203,53,110888,1,8,0:0:0:0:
187,100,111110,1,8,0:0:0:0:
195,102,111221,1,0,0:0:0:0:
209,97,111333,1,8,0:0:0:0:
246,75,111444,1,8,0:0:0:0:
246,75,111555,1,0,0:0:0:0:
246,75,111666,1,8,0:0:0:0:
203,144,111777,1,0,0:0:0:0:
203,144,111888,1,0,0:0:0:0:
219,135,111999,1,8,0:0:0:0:
247,163,112110,1,0,0:0:0:0:
247,163,112221,1,0,0:0:0:0:
196,107,112333,1,8,0:0:0:0:
196,107,112444,1,0,0:0:0:0:
222,183,112555,1,8,0:0:0:0:
222,183,112666,1,0,0:0:0:0:
222,183,112777,1,0,0:0:0:0:
222,183,112888,1,8,0:0:0:0:
291,173,112999,1,8,0:0:0:0:
294,159,113110,1,0,0:0:0:0:
309,150,113333,1,0,0:0:0:0:
315,153,113444,1,0,0:0:0:0:
315,153,113555,1,8,0:0:0:0:
342,186,113777,1,0,0:0:0:0:
329,189,113999,1,4,0:0:0:0:
401,230,114221,1,8,0:0:0:0:
401,230,114333,1,8,0:0:0:0:
401,230,114444,1,0,0:0:0:0:
286,159,114666,1,0,0:0:0:0:
298,203,114888,1,0,0:0:0:0:
268,142,114999,1,0,0:0:0:0:
268,142,115110,1,8,0:0:0:0:
268,142,115221,1,0,0:0:0:0:
268,142,115333,1,8,0:0:0:0:
317,140,115555,1,8,0:0:0:0:
317,140,115666,1,8,0:0:0:0:
317,140,115777,1,0,0:0:0:0:
316,144,115999,1,0,0:0:0:0:
311,129,116221,1,8,0:0:0:0:
351,148,116444,1,0,0:0:0:0:
348,145,116555,1,8,0:0:0:0:
348,143,116666,1,0,0:0:0:0:
336,129,116888,1,0,0:0:0:0:
336,129,116999,1,0,0:0:0:0:
336,129,117110,1,8,0:0:0:0:
336,129,117221,1,0,0:0:0:0:
291,145,117333,1,0,0:0:0:0:
291,145,117444,1,0,0:0:0:0:
291,145,117555,1,4,0:0:0:0:
378,132,117666,1,0,0:0:0:0:
378,132,117777,1,8,0:0:0:0:
381,97,117888,1,0,0:0:0:0:
381,97,117999,1,8,0:0:0:0:
381,97,118110,1,8,0:0:0:0:
381,97,118221,1,0,0:0:0:0:
381,97,118333,1,8,0:0:0:0:
240,151,118444,1,4,0:0:0:0:
281,113,118555,1,8,0:0:0:0:
281,113,118666,1,0,0:0:0:0:
281,113,118777,1,0,0:0:0:0:
281,113,118888,1,8,0:0:0:0:
281,113,118999,1,0,0:0:0:0:
284,107,119110,1,8,0:0:0:0:
287,105,119221,1,8,0:0:0:0:
208,138,119333,1,4,0:0:0:0:
305,107,119444,1,0,0:0:0:0:
305,107,119499,1,0,0:0:0:0:
305,107,119555,1,0,0:0:0:0:
366,123,119666,1,8,0:0:0:0:
351,102,119777,1,0,0:0:0:0:
351,102,119888,1,0,0:0:0:0:
351,102,119944,1,0,0:0:0:0:
179,146,119999,1,8,0:0:0:0:
36,150,120055,1,8,0:0:0:0:
74,143,120110,1,0,0:0:0:0:
166,172,120166,1,0,0:0:0:0:
174,163,120221,1,8,0:0:0:0:
333,208,121110,1,4,0:0:0:0:
342,165,121333,1,8,0:0:0:0:
337,158,121444,1,0,0:0:0:0:
337,158,121555,1,0,0:0:0:0:
398,203,121666,1,0,0:0:0:0:
403,190,121721,1,0,0:0:0:0:
403,190,121777,1,8,0:0:0:0:
403,190,121888,1,8,0:0:0:0:
403,190,121999,1,0,0:0:0:0:
270,160,122110,1,0,0:0:0:0:
270,160,122221,1,8,0:0:0:0:
270,160,122333,1,0,0:0:0:0:
270,160,122444,1,8,0:0:0:0:
271,144,122555,1,8,0:0:0:0:
352,107,122666,1,8,0:0:0:0:
352,107,122777,1,0,0:0:0:0:
352,107,122888,1,0,0:0:0:0:
255,105,122999,1,0,0:0:0:0:
255,105,123055,1,0,0:0:0:0:
255,105,123110,1,8,0:0:0:0:
254,93,123221,1,0,0:0:0:0:
254,93,123333,1,0,0:0:0:0:
254,93,123444,1,0,0:0:0:0:
254,93,123555,1,8,0:0:0:0:
302,126,123666,1,8,0:0:0:0:
326,119,123777,1,0,0:0:0:0:
349,77,123888,1,0,0:0:0:0:
349,77,123999,1,8,0:0:0:0:
349,77,124110,1,0,0:0:0:0:
336,71,124221,1,8,0:0:0:0:
303,168,124277,1,8,0:0:0:0:
303,168,124333,1,0,0:0:0:0:
290,161,124444,1,8,0:0:0:0:
322,210,124555,1,0,0:0:0:0:
321,188,124666,1,4,0:0:0:0:
285,202,124777,1,0,0:0:0:0:
285,202,124888,1,8,0:0:0:0:
354,143,125110,1,8,0:0:0:0:
394,168,125333,1,8,0:0:0:0:
400,166,125444,1,8,0:0:0:0:
400,166,125555,1,0,0:0:0:0:
400,166,125777,1,8,0:0:0:0:
347,147,125888,1,0,0:0:0:0:
396,165,125999,1,8,0:0:0:0:
252,73,126110,1,0,0:0:0:0:
382,145,126221,1,8,0:0:0:0:
382,145,126333,1,8,0:0:0:0:
382,145,126444,1,4,0:0:0:0:
404,139,126555,1,0,0:0:0:0:
420,132,126666,1,8,0:0:0:0:
427,129,126777,1,0,0:0:0:0:
387,158,126888,1,0,0:0:0:0:
383,159,126944,1,0,0:0:0:0:
383,159,126999,1,0,0:0:0:0:
383,159,127110,1,8,0:0:0:0:
380,137,127221,1,8,0:0:0:0:
288,127,127333,1,4,0:0:0:0:
288,127,127444,1,8,0:0:0:0:
264,142,127499,1,8,0:0:0:0:
288,127,127555,1,8,0:0:0:0:
294,124,127666,1,0,0:0:0:0:
299,117,127777,1,8,0:0:0:0:
299,117,127833,1,8,0:0:0:0:
299,117,127888,1,0,0:0:0:0:
299,117,127944,1,0,0:0:0:0:
299,117,127999,1,8,0:0:0:0:
275,48,128110,1,8,0:0:0:0:
336,169,128221,1,12,0:0:0:0:
422,38,128444,1,0,0:0:0:0:
166,204,128666,1,8,0:0:0:0:
166,204,128721,1,8,0:0:0:0:
166,204,128777,1,0,0:0:0:0:
385,152,128888,1,8,0:0:0:0:
385,152,128999,1,0,0:0:0:0:
385,152,129055,1,0,0:0:0:0:
385,152,129110,1,8,0:0:0:0:
237,139,129166,1,8,0:0:0:0:
305,217,129221,1,0,0:0:0:0:
289,218,129333,1,0,0:0:0:0:
289,218,129388,1,0,0:0:0:0:
289,218,129444,1,8,0:0:0:0:
289,218,129499,1,0,0:0:0:0:
289,218,129555,1,8,0:0:0:0:
305,221,129610,1,0,0:0:0:0:
143,148,129666,1,8,0:0:0:0:
248,87,129721,1,8,0:0:0:0:
146,143,129777,1,0,0:0:0:0:
146,143,129888,1,0,0:0:0:0:
213,137,129999,1,0,0:0:0:0:
331,133,130110,1,0,0:0:0:0:
331,133,130166,1,0,0:0:0:0:
336,132,130221,1,8,0:0:0:0:
336,132,130333,1,0,0:0:0:0:
300,137,130388,1,0,0:0:0:0:
341,132,130444,1,0,0:0:0:0:
346,131,130555,1,0,0:0:0:0:
346,131,130610,1,0,0:0:0:0:
346,131,130666,1,8,0:0:0:0:
346,131,130777,1,0,0:0:0:0:
350,129,130833,1,0,0:0:0:0:
350,129,130888,1,8,0:0:0:0:
351,163,130944,1,8,0:0:0:0:
351,163,130999,1,0,0:0:0:0:
351,163,131055,1,0,0:0:0:0:
346,177,131110,1,8,0:0:0:0:
398,148,131221,1,8,0:0:0:0:
375,141,131277,1,8,0:0:0:0:
375,141,131333,1,0,0:0:0:0:
385,117,131444,1,8,0:0:0:0:
342,135,131555,1,8,0:0:0:0:
155,140,131610,1,0,0:0:0:0:
373,184,131666,1,8,0:0:0:0:
373,184,131721,1,8,0:0:0:0:
379,161,131777,1,0,0:0:0:0:
325,134,131833,1,0,0:0:0:0:
325,134,131888,1,8,0:0:0:0:
333,163,131944,1,0,0:0:0:0:
333,163,131999,1,8,0:0:0:0:
354,150,132055,1,8,0:0:0:0:
354,150,132110,1,0,0:0:0:0:
354,150,132166,1,0,0:0:0:0:
356,156,132221,1,8,0:0:0:0:
361,190,132333,1,0,0:0:0:0:
304,117,132388,1,0,0:0:0:0:
361,190,132444,1,8,0:0:0:0:
221,112,132555,1,0,0:0:0:0:
221,112,132666,1,0,0:0:0:0:
221,112,132721,1,0,0:0:0:0:
294,83,132777,1,0,0:0:0:0:
159,135,132833,1,0,0:0:0:0:
296,87,132888,1,8,0:0:0:0:
369,143,132944,1,8,0:0:0:0:
369,143,132999,1,0,0:0:0:0:
369,143,133055,1,0,0:0:0:0:
369,143,133110,1,8,0:0:0:0:
230,141,133166,1,0,0:0:0:0:
230,141,133221,1,8,0:0:0:0:
230,141,133277,1,8,0:0:0:0:
226,138,133333,1,0,0:0:0:0:
219,98,133388,1,8,0:0:0:0:
330,202,133444,1,0,0:0:0:0:
326,195,133555,1,0,0:0:0:0:
381,148,133666,1,0,0:0:0:0:
389,109,133777,1,8,0:0:0:0:
416,162,133888,1,8,0:0:0:0:
390,82,133999,1,0,0:0:0:0:
262,188,134221,1,0,0:0:0:0:
199,155,134333,1,0,0:0:0:0:
262,188,134444,1,0,0:0:0:0:
224,174,134555,1,0,0:0:0:0:
213,173,134666,1,8,0:0:0:0:
282,192,134777,1,0,0:0:0:0:
282,192,134888,1,0,0:0:0:0:
282,192,134944,1,0,0:0:0:0:
282,192,134999,1,0,0:0:0:0:
166,119,135110,1,0,0:0:0:0:
409,124,135147,1,0,0:0:0:0:
411,126,135184,1,8,0:0:0:0:
413,125,135221,1,0,0:0:0:0:
330,51,135333,1,0,0:0:0:0:
242,158,135444,1,0,0:0:0:0:
242,158,135555,1,8,0:0:0:0:
222,70,135666,1,0,0:0:0:0:
228,72,135721,1,0,0:0:0:0:
228,72,135777,1,0,0:0:0:0:
227,66,135888,1,0,0:0:0:0:
201,119,135944,1,0,0:0:0:0:
227,66,135999,1,8,0:0:0:0:
236,65,136055,1,0,0:0:0:0:
205,30,136110,1,8,0:0:0:0:
209,38,136166,1,8,0:0:0:0:
209,38,136221,1,0,0:0:0:0:
251,123,136333,1,0,0:0:0:0:
313,57,136388,1,0,0:0:0:0:
257,121,136444,1,8,0:0:0:0:
267,97,136555,1,0,0:0:0:0:
188,163,136610,1,0,0:0:0:0:
267,97,136666,1,0,0:0:0:0:
267,97,136777,1,0,0:0:0:0:
267,97,136888,1,8,0:0:0:0:
162,163,136944,1,0,0:0:0:0:
267,89,136999,1,8,0:0:0:0:
302,64,137055,1,8,0:0:0:0:
267,86,137110,1,0,0:0:0:0:
281,54,137221,1,0,0:0:0:0:
192,142,137277,1,0,0:0:0:0:
281,69,137333,1,8,0:0:0:0:
281,69,137444,1,0,0:0:0:0:
204,139,137499,1,0,0:0:0:0:
278,69,137555,1,0,0:0:0:0:
275,72,137666,1,0,0:0:0:0:
304,135,137721,1,0,0:0:0:0:
275,72,137777,1,8,0:0:0:0:
304,135,137833,1,0,0:0:0:0:
273,72,137888,1,8,0:0:0:0:
179,131,137944,1,8,0:0:0:0:
273,72,137999,1,0,0:0:0:0:
298,230,138110,1,0,0:0:0:0:
216,120,138166,1,0,0:0:0:0:
324,239,138221,1,8,0:0:0:0:
358,222,138333,1,0,0:0:0:0:
233,101,138388,1,0,0:0:0:0:
358,222,138444,1,8,0:0:0:0:
229,101,138499,1,8,0:0:0:0:
364,223,138555,1,0,0:0:0:0:
229,101,138610,1,0,0:0:0:0:
364,223,138666,1,8,0:0:0:0:
364,223,138777,1,8,0:0:0:0:
364,223,138888,1,0,0:0:0:0:
235,121,138999,1,0,0:0:0:0:
228,120,139110,1,8,0:0:0:0:
275,52,139221,1,0,0:0:0:0:
275,52,139277,1,0,0:0:0:0:
275,52,139333,1,8,0:0:0:0:
261,129,139444,1,0,0:0:0:0:
261,129,139499,1,0,0:0:0:0:
261,129,139555,1,0,0:0:0:0:
252,168,139666,1,0,0:0:0:0:
252,168,139721,1,0,0:0:0:0:
247,164,139777,1,8,0:0:0:0:
230,128,139833,1,0,0:0:0:0:
226,138,139888,1,8,0:0:0:0:
226,138,139944,1,8,0:0:0:0:
226,138,139999,1,0,0:0:0:0:
226,138,140110,1,0,0:0:0:0:
226,138,140221,1,8,0:0:0:0:
226,138,140277,1,8,0:0:0:0:
226,138,140333,1,0,0:0:0:0:
226,138,140444,1,8,0:0:0:0:
276,157,140555,1,8,0:0:0:0:
276,157,140610,1,8,0:0:0:0:
276,157,140666,1,0,0:0:0:0:
265,153,140721,1,0,0:0:0:0:
265,153,140777,1,0,0:0:0:0:
265,153,140833,1,0,0:0:0:0:
265,153,140888,1,8,0:0:0:0:
226,138,140999,1,8,0:0:0:0:
120,129,141110,1,0,0:0:0:0:
120,129,141221,1,0,0:0:0:0:
120,129,141277,1,0,0:0:0:0:
111,127,141333,1,8,0:0:0:0:
119,112,141444,1,8,0:0:0:0:
356,183,141499,1,8,0:0:0:0:
126,111,141555,1,0,0:0:0:0:
326,163,141666,1,0,0:0:0:0:
326,163,141721,1,0,0:0:0:0:
326,163,141777,1,8,0:0:0:0:
77,94,141833,1,0,0:0:0:0:
326,163,141888,1,0,0:0:0:0:
326,163,141944,1,0,0:0:0:0:
326,163,141999,1,8,0:0:0:0:
326,163,142110,1,0,0:0:0:0:
326,163,142166,1,8,0:0:0:0:
326,163,142221,1,0,0:0:0:0:
326,163,142277,1,0,0:0:0:0:
326,163,142333,1,0,0:0:0:0:
377,102,142444,1,4,0:0:0:0:
223,158,142555,1,8,0:0:0:0:
223,158,142666,1,0,0:0:0:0:
223,158,142777,1,0,0:0:0:0:
223,158,142833,1,0,0:0:0:0:
223,158,142888,1,8,0:0:0:0:
286,222,142999,1,0,0:0:0:0:
288,206,143055,1,0,0:0:0:0:
288,206,143110,1,8,0:0:0:0:
280,204,143166,1,8,0:0:0:0:
276,205,143221,1,0,0:0:0:0:
276,205,143277,1,0,0:0:0:0:
276,205,143333,1,8,0:0:0:0:
287,185,143444,1,8,0:0:0:0:
287,185,143499,1,8,0:0:0:0:
287,185,143555,1,0,0:0:0:0:
287,185,143666,1,0,0:0:0:0:
287,185,143777,1,8,0:0:0:0:
287,185,143888,1,0,0:0:0:0:
287,185,143944,1,0,0:0:0:0:
287,185,143999,1,8,0:0:0:0:
287,185,144055,1,0,0:0:0:0:
287,185,144110,1,0,0:0:0:0:
287,185,144166,1,0,0:0:0:0:
287,185,144221,1,8,0:0:0:0:
282,204,144333,1,8,0:0:0:0:
282,204,144388,1,8,0:0:0:0:
282,204,144444,1,0,0:0:0:0:
282,204,144555,1,0,0:0:0:0:
282,204,144666,1,8,0:0:0:0:
58,140,144721,1,8,0:0:0:0:
439,100,144777,1,0,0:0:0:0:
327,151,144888,1,0,0:0:0:0:
327,151,144944,1,0,0:0:0:0:
334,134,144999,1,8,0:0:0:0:
301,186,145110,1,0,0:0:0:0:
301,191,145221,1,0,0:0:0:0:
301,191,145277,1,0,0:0:0:0:
301,189,145333,1,8,0:0:0:0:
104,237,145444,1,8,0:0:0:0:
295,131,145499,1,8,0:0:0:0:
118,233,145555,1,0,0:0:0:0:
121,232,145610,1,0,0:0:0:0:
121,232,145666,1,8,0:0:0:0:
121,232,145721,1,0,0:0:0:0:
121,232,145777,1,0,0:0:0:0:
121,232,145833,1,8,0:0:0:0:
256,136,145888,1,8,0:0:0:0:
251,135,145999,1,4,0:0:0:0:
411,230,146110,1,8,0:0:0:0:
401,217,146221,1,0,0:0:0:0:
199,169,146277,1,0,0:0:0:0:
401,217,146333,1,0,0:0:0:0:
401,217,146388,1,0,0:0:0:0:
401,217,146444,1,8,0:0:0:0:
401,217,146555,1,0,0:0:0:0:
401,217,146610,1,0,0:0:0:0:
401,217,146666,1,8,0:0:0:0:
401,217,146721,1,8,0:0:0:0:
401,217,146777,1,0,0:0:0:0:
401,217,146833,1,0,0:0:0:0:
401,217,146888,1,8,0:0:0:0:
343,141,146999,1,8,0:0:0:0:
343,141,147055,1,8,0:0:0:0:
343,141,147110,1,0,0:0:0:0:
343,141,147221,1,0,0:0:0:0:
239,68,147277,1,0,0:0:0:0:
343,141,147333,1,8,0:0:0:0:
343,141,147444,1,8,0:0:0:0:
343,141,147499,1,0,0:0:0:0:
347,141,147555,1,0,0:0:0:0:
258,190,147610,1,8,0:0:0:0:
258,190,147666,1,0,0:0:0:0:
262,184,147721,1,0,0:0:0:0:
262,184,147777,1,8,0:0:0:0:
166,176,147888,1,0,0:0:0:0:
166,176,147999,1,8,0:0:0:0:
166,176,148055,1,8,0:0:0:0:
166,176,148110,1,0,0:0:0:0:
166,176,148166,1,8,0:0:0:0:
166,176,148221,1,8,0:0:0:0:
166,176,148333,1,0,0:0:0:0:
166,176,148388,1,0,0:0:0:0:
166,176,148444,1,8,0:0:0:0:
241,74,148555,1,8,0:0:0:0:
241,74,148666,1,0,0:0:0:0:
241,74,148721,1,0,0:0:0:0:
241,74,148777,1,8,0:0:0:0:
241,74,148833,1,0,0:0:0:0:
241,74,148888,1,0,0:0:0:0:
266,87,148944,1,8,0:0:0:0:
266,87,148999,1,8,0:0:0:0:
239,152,149055,1,8,0:0:0:0:
271,162,149110,1,0,0:0:0:0:
271,156,149166,1,0,0:0:0:0:
271,156,149221,1,8,0:0:0:0:
271,156,149277,1,0,0:0:0:0:
271,156,149333,1,8,0:0:0:0:
271,156,149388,1,8,0:0:0:0:
271,156,149444,1,0,0:0:0:0:
264,161,149555,1,4,0:0:0:0:
