osu file format v14

[General]
AudioFilename: Kindan no Resistance.mp3
AudioLeadIn: 0
PreviewTime: 50884
Countdown: 0
SampleSet: Normal
StackLeniency: 0.7
Mode: 1
LetterboxInBreaks: 0
WidescreenStoryboard: 1

[Editor]
DistanceSpacing: 1
BeatDivisor: 4
GridSize: 4
TimelineZoom: 2.599999

[Metadata]
Title:Kindan no Resistance
TitleUnicode:禁断 の レ ジ ス タ ン ス
Artist:Mizuki Nana
ArtistUnicode:水樹奈々
Creator:Hibari_Yagyu
Version:Yura's Oni
Source:クロスアンジュ 天使と竜の輪舞
Tags:orderby asuasu_yura _yu68 Dannine Nepuri anime tv size opening dragon
BeatmapID:934366
BeatmapSetID:356597

[Difficulty]
HPDrainRate:5
CircleSize:5
OverallDifficulty:5
ApproachRate:5
SliderMultiplier:1.4
SliderTickRate:1

[Events]
//Background and Video events
0,0,"Kindan No Resistance.jpg",0,0
//Break Periods
//Storyboard Layer 0 (Background)
//Storyboard Layer 1 (Fail)
//Storyboard Layer 2 (Pass)
//Storyboard Layer 3 (Foreground)
//Storyboard Sound Samples

[TimingPoints]
215,333.333333333333,4,1,0,97,1,0
6048,-100,4,1,0,97,0,0
16214,-117.647058823529,4,1,0,65,0,0
26798,-100,4,1,0,95,0,0
51548,-100,4,1,0,98,0,1
71714,-100,4,1,0,95,0,0

[Colours]
Combo1 : 108,133,191
Combo2 : 45,82,181
Combo3 : 118,48,203
Combo4 : 148,123,168

[HitObjects]
256,188,215,5,4,0:0:0:0:
256,188,548,1,2,0:0:0:0:
256,188,881,1,0,0:0:0:0:
256,188,964,1,0,0:0:0:0:
256,188,1048,1,2,0:0:0:0:
256,188,1131,1,2,0:0:0:0:
256,188,1214,1,0,0:0:0:0:
236,200,1381,1,0,0:0:0:0:
236,200,1548,1,2,0:0:0:0:
236,200,1714,1,0,0:0:0:0:
236,200,1881,1,2,0:0:0:0:
236,200,2048,1,0,0:0:0:0:
236,200,2214,1,0,0:0:0:0:
236,200,2381,1,2,0:0:0:0:
236,200,2548,1,0,0:0:0:0:
236,200,2714,1,2,0:0:0:0:
236,200,2798,1,2,0:0:0:0:
236,200,2881,1,2,0:0:0:0:
232,196,3048,1,2,0:0:0:0:
232,196,3381,1,0,0:0:0:0:
232,196,3548,1,2,0:0:0:0:
216,196,3631,1,2,0:0:0:0:
224,200,3714,1,2,0:0:0:0:
224,200,3798,1,2,0:0:0:0:
232,196,3881,1,0,0:0:0:0:
248,196,4048,1,0,0:0:0:0:
232,196,4214,1,0,0:0:0:0:
232,196,4298,1,0,0:0:0:0:
232,196,4381,1,2,0:0:0:0:
232,196,4548,1,0,0:0:0:0:
232,196,4714,1,0,0:0:0:0:
232,196,4881,1,12,0:0:0:0:
232,196,5548,1,0,0:0:0:0:
224,180,5631,1,0,0:0:0:0:
224,180,5714,1,2,0:0:0:0:
228,180,5798,1,2,0:0:0:0:
228,180,5881,1,2,0:0:0:0:
224,180,6048,1,12,0:0:0:0:
228,184,6381,1,0,0:0:0:0:
228,184,6548,1,2,0:0:0:0:
220,188,6714,1,0,0:0:0:0:
220,188,6881,1,0,0:0:0:0:
220,188,6964,1,0,0:0:0:0:
220,188,7048,1,2,0:0:0:0:
220,188,7214,1,2,0:0:0:0:
220,184,7381,1,0,0:0:0:0:
220,184,7714,1,0,0:0:0:0:
220,184,7881,1,2,0:0:0:0:
220,184,8048,1,0,0:0:0:0:
220,188,8214,1,2,0:0:0:0:
220,188,8298,1,2,0:0:0:0:
220,188,8381,1,0,0:0:0:0:
220,188,8548,1,2,0:0:0:0:
220,188,8714,1,12,0:0:0:0:
216,188,9048,1,12,0:0:0:0:
216,188,9214,1,0,0:0:0:0:
220,184,9381,1,2,0:0:0:0:
216,200,9464,1,2,0:0:0:0:
216,200,9548,1,0,0:0:0:0:
216,204,9714,1,2,0:0:0:0:
196,192,9881,1,0,0:0:0:0:
196,192,10048,1,2,0:0:0:0:
204,200,10381,1,0,0:0:0:0:
212,208,10464,1,0,0:0:0:0:
204,200,10548,1,2,0:0:0:0:
200,204,10714,1,0,0:0:0:0:
196,212,10881,1,0,0:0:0:0:
196,212,10964,1,0,0:0:0:0:
196,212,11048,1,2,0:0:0:0:
196,212,11131,1,2,0:0:0:0:
196,212,11214,1,2,0:0:0:0:
184,204,11381,1,2,0:0:0:0:
184,200,11714,1,0,0:0:0:0:
188,200,11881,1,2,0:0:0:0:
244,212,12048,1,0,0:0:0:0:
244,212,12214,1,0,0:0:0:0:
244,212,12298,1,0,0:0:0:0:
244,212,12381,1,2,0:0:0:0:
240,232,12714,5,2,0:0:0:0:
232,224,13048,1,0,0:0:0:0:
224,216,13214,1,2,0:0:0:0:
224,216,13381,1,0,0:0:0:0:
228,216,13548,1,2,0:0:0:0:
228,216,13714,1,2,0:0:0:0:
220,216,13798,1,2,0:0:0:0:
228,216,13881,1,0,0:0:0:0:
216,208,13964,1,0,0:0:0:0:
224,212,14048,1,2,0:0:0:0:
224,212,14381,1,0,0:0:0:0:
224,212,14464,1,0,0:0:0:0:
224,212,14548,1,2,0:0:0:0:
224,208,14631,1,2,0:0:0:0:
208,208,14714,1,0,0:0:0:0:
208,208,14798,1,0,0:0:0:0:
208,208,14881,1,2,0:0:0:0:
208,216,14964,1,0,0:0:0:0:
208,216,15048,1,0,0:0:0:0:
208,216,15131,1,0,0:0:0:0:
208,216,15214,1,2,0:0:0:0:
208,216,15381,1,12,0:0:0:0:
208,216,15714,1,12,0:0:0:0:
208,216,15881,1,12,0:0:0:0:
212,224,16881,1,0,0:0:0:0:
212,224,17381,1,0,0:0:0:0:
212,224,17464,1,0,0:0:0:0:
212,224,17548,1,2,0:0:0:0:
212,224,17714,1,0,0:0:0:0:
212,224,17881,1,2,0:0:0:0:
212,224,18048,1,0,0:0:0:0:
212,224,18881,1,2,0:0:0:0:
212,224,19048,1,0,0:0:0:0:
212,224,19214,1,2,0:0:0:0:
212,224,19381,1,0,0:0:0:0:
212,224,20048,1,0,0:0:0:0:
212,224,20131,1,0,0:0:0:0:
212,224,20214,1,2,0:0:0:0:
212,224,20381,1,2,0:0:0:0:
212,224,20548,1,2,0:0:0:0:
208,208,20714,1,0,0:0:0:0:
216,232,21048,1,2,0:0:0:0:
216,232,21131,1,2,0:0:0:0:
216,232,21214,1,2,0:0:0:0:
216,232,21381,1,0,0:0:0:0:
216,232,21714,1,0,0:0:0:0:
216,232,21881,1,2,0:0:0:0:
216,232,22048,1,0,0:0:0:0:
216,240,22714,1,0,0:0:0:0:
216,240,22798,1,0,0:0:0:0:
216,240,22881,1,2,0:0:0:0:
216,240,23048,1,0,0:0:0:0:
216,240,23214,1,2,0:0:0:0:
216,240,23381,1,0,0:0:0:0:
216,252,24048,1,0,0:0:0:0:
216,252,24214,1,2,0:0:0:0:
216,252,24381,1,0,0:0:0:0:
216,252,24548,1,2,0:0:0:0:
216,252,24714,1,0,0:0:0:0:
232,264,25381,1,0,0:0:0:0:
232,264,25464,1,0,0:0:0:0:
232,264,25548,1,2,0:0:0:0:
232,264,25714,1,2,0:0:0:0:
232,264,25881,1,2,0:0:0:0:
232,264,26048,1,0,0:0:0:0:
232,264,26381,1,2,0:0:0:0:
232,264,26464,1,2,0:0:0:0:
232,264,26548,1,0,0:0:0:0:
232,264,26714,1,0,0:0:0:0:
232,264,26881,1,12,0:0:0:0:
232,264,27048,1,12,0:0:0:0:
232,264,27381,1,4,0:0:0:0:
248,184,27714,1,0,0:0:0:0:
248,184,27881,1,2,0:0:0:0:
232,192,28048,1,0,0:0:0:0:
240,176,28214,1,0,0:0:0:0:
244,184,28298,1,0,0:0:0:0:
244,188,28381,1,2,0:0:0:0:
244,188,28548,1,2,0:0:0:0:
244,188,28714,1,0,0:0:0:0:
240,188,29048,1,0,0:0:0:0:
240,188,29214,1,2,0:0:0:0:
240,188,29381,1,0,0:0:0:0:
240,188,29464,1,0,0:0:0:0:
240,188,29548,1,2,0:0:0:0:
224,188,29881,1,2,0:0:0:0:
224,188,30214,1,4,0:0:0:0:
244,200,30381,1,0,0:0:0:0:
220,184,30548,1,2,0:0:0:0:
220,184,30714,1,4,0:0:0:0:
232,184,31048,1,2,0:0:0:0:
232,184,31381,1,12,0:0:0:0:
240,200,31714,1,0,0:0:0:0:
240,200,31798,1,0,0:0:0:0:
244,200,31881,1,2,0:0:0:0:
240,200,32048,1,0,0:0:0:0:
240,200,32214,1,0,0:0:0:0:
240,200,32381,1,2,0:0:0:0:
240,200,32464,1,2,0:0:0:0:
240,200,32548,1,2,0:0:0:0:
240,200,32631,1,2,0:0:0:0:
240,200,32714,1,0,0:0:0:0:
240,200,32881,1,0,0:0:0:0:
224,204,33048,1,0,0:0:0:0:
248,204,33214,1,12,0:0:0:0:
224,204,33381,1,0,0:0:0:0:
228,184,33714,1,0,0:0:0:0:
228,184,33881,1,2,0:0:0:0:
228,184,34048,1,0,0:0:0:0:
232,200,34381,1,0,0:0:0:0:
224,200,34548,1,2,0:0:0:0:
224,200,34714,1,0,0:0:0:0:
224,200,34798,1,0,0:0:0:0:
224,200,34881,1,0,0:0:0:0:
224,200,35048,1,0,0:0:0:0:
224,200,35214,1,2,0:0:0:0:
212,192,35381,1,2,0:0:0:0:
232,212,35548,1,2,0:0:0:0:
232,212,35881,1,0,0:0:0:0:
232,212,36214,1,0,0:0:0:0:
232,212,36298,1,0,0:0:0:0:
232,212,36381,1,2,0:0:0:0:
232,212,36464,1,2,0:0:0:0:
232,212,36548,1,0,0:0:0:0:
216,228,36714,1,0,0:0:0:0:
220,200,37048,1,0,0:0:0:0:
224,224,37214,1,2,0:0:0:0:
224,224,37381,1,0,0:0:0:0:
224,224,37548,1,2,0:0:0:0:
224,224,37631,1,2,0:0:0:0:
224,224,37714,1,2,0:0:0:0:
224,224,37798,1,2,0:0:0:0:
224,224,37881,1,2,0:0:0:0:
192,232,37964,1,2,0:0:0:0:
216,220,38048,1,2,0:0:0:0:
224,224,38214,1,4,0:0:0:0:
216,216,38381,1,4,0:0:0:0:
208,220,38714,1,4,0:0:0:0:
208,220,39048,1,0,0:0:0:0:
208,220,39214,1,12,0:0:0:0:
208,220,39548,1,2,0:0:0:0:
208,220,39881,1,2,0:0:0:0:
208,220,40214,1,2,0:0:0:0:
208,220,40548,1,2,0:0:0:0:
208,220,40881,1,12,0:0:0:0:
212,212,41048,1,12,0:0:0:0:
212,212,41381,1,12,0:0:0:0:
204,208,41714,1,0,0:0:0:0:
204,208,41881,1,12,0:0:0:0:
204,208,42214,1,2,0:0:0:0:
204,208,42548,1,2,0:0:0:0:
204,208,42881,1,2,0:0:0:0:
200,208,43048,1,0,0:0:0:0:
200,208,43131,1,0,0:0:0:0:
204,208,43214,1,2,0:0:0:0:
204,208,43548,1,0,0:0:0:0:
204,208,43714,1,0,0:0:0:0:
204,208,43881,1,2,0:0:0:0:
204,208,44048,1,0,0:0:0:0:
204,208,44131,1,0,0:0:0:0:
204,208,44214,1,2,0:0:0:0:
204,208,44381,1,0,0:0:0:0:
204,208,44548,1,2,0:0:0:0:
204,208,44714,1,0,0:0:0:0:
192,212,44881,1,0,0:0:0:0:
196,200,45048,1,2,0:0:0:0:
196,200,45214,1,0,0:0:0:0:
196,200,45381,1,2,0:0:0:0:
200,192,45548,1,0,0:0:0:0:
200,192,45631,1,0,0:0:0:0:
200,192,45714,1,2,0:0:0:0:
200,192,45881,1,2,0:0:0:0:
196,200,46048,1,0,0:0:0:0:
180,184,46214,1,0,0:0:0:0:
184,184,46381,1,2,0:0:0:0:
180,184,46548,1,0,0:0:0:0:
168,168,46714,1,0,0:0:0:0:
180,180,46881,1,0,0:0:0:0:
180,164,47048,1,2,0:0:0:0:
180,180,47214,1,0,0:0:0:0:
200,208,47381,1,0,0:0:0:0:
176,200,47548,1,12,0:0:0:0:
168,204,47881,1,12,0:0:0:0:
168,212,48214,1,0,0:0:0:0:
168,212,48298,1,0,0:0:0:0:
168,212,48381,1,2,0:0:0:0:
168,212,48464,1,2,0:0:0:0:
168,212,48548,1,2,0:0:0:0:
168,212,48714,1,2,0:0:0:0:
168,212,48881,1,4,0:0:0:0:
168,212,49048,1,0,0:0:0:0:
168,212,49214,1,12,0:0:0:0:
168,212,49381,1,2,0:0:0:0:
168,212,49548,1,2,0:0:0:0:
168,212,49631,1,2,0:0:0:0:
168,212,49714,1,0,0:0:0:0:
168,212,49798,1,0,0:0:0:0:
168,212,49881,1,2,0:0:0:0:
168,212,50048,1,0,0:0:0:0:
168,212,51548,1,12,0:0:0:0:
168,224,51714,1,0,0:0:0:0:
168,224,51881,1,2,0:0:0:0:
168,224,52048,1,0,0:0:0:0:
156,228,52214,1,0,0:0:0:0:
160,228,52298,1,0,0:0:0:0:
160,228,52381,1,2,0:0:0:0:
160,228,52548,1,2,0:0:0:0:
160,228,52714,1,0,0:0:0:0:
164,240,52881,1,0,0:0:0:0:
164,240,52964,1,0,0:0:0:0:
164,240,53048,1,0,0:0:0:0:
164,240,53131,1,0,0:0:0:0:
164,240,53214,1,2,0:0:0:0:
164,228,53381,1,0,0:0:0:0:
144,232,53548,1,12,0:0:0:0:
144,232,53881,1,4,0:0:0:0:
144,232,54214,1,12,0:0:0:0:
156,220,54381,1,0,0:0:0:0:
156,212,54548,1,2,0:0:0:0:
156,212,54714,1,0,0:0:0:0:
156,212,55048,1,0,0:0:0:0:
156,212,55214,1,2,0:0:0:0:
156,212,55381,1,0,0:0:0:0:
156,212,55548,1,0,0:0:0:0:
156,212,55714,1,0,0:0:0:0:
156,212,55798,1,0,0:0:0:0:
156,212,55881,1,2,0:0:0:0:
156,212,56048,1,2,0:0:0:0:
156,212,56214,1,12,0:0:0:0:
156,212,56548,1,4,0:0:0:0:
160,212,56881,1,0,0:0:0:0:
160,212,57048,1,0,0:0:0:0:
160,212,57214,1,2,0:0:0:0:
160,212,57381,1,0,0:0:0:0:
160,212,57548,1,0,0:0:0:0:
160,212,57714,1,0,0:0:0:0:
160,212,57881,1,2,0:0:0:0:
156,224,58048,1,0,0:0:0:0:
148,200,58381,1,0,0:0:0:0:
148,200,58548,1,2,0:0:0:0:
148,200,58714,1,2,0:0:0:0:
148,200,59048,1,0,0:0:0:0:
148,200,59214,1,0,0:0:0:0:
148,200,59381,1,2,0:0:0:0:
148,200,59548,1,12,0:0:0:0:
148,200,59881,1,12,0:0:0:0:
144,184,60214,1,0,0:0:0:0:
144,184,60298,1,0,0:0:0:0:
144,184,60381,1,2,0:0:0:0:
144,184,60464,1,2,0:0:0:0:
144,184,60548,1,2,0:0:0:0:
148,184,60714,1,12,0:0:0:0:
140,184,61048,1,0,0:0:0:0:
140,184,61214,1,2,0:0:0:0:
140,184,61381,1,4,0:0:0:0:
144,184,61714,1,2,0:0:0:0:
148,176,61798,1,2,0:0:0:0:
148,176,61881,1,0,0:0:0:0:
140,176,62048,1,2,0:0:0:0:
140,176,62214,1,4,0:0:0:0:
140,176,62381,1,0,0:0:0:0:
140,176,62548,1,2,0:0:0:0:
140,176,62714,1,0,0:0:0:0:
140,176,63048,1,0,0:0:0:0:
140,176,63214,1,2,0:0:0:0:
140,176,63381,1,0,0:0:0:0:
140,176,63714,1,0,0:0:0:0:
140,176,63798,1,0,0:0:0:0:
140,176,63881,1,2,0:0:0:0:
140,176,64048,1,2,0:0:0:0:
140,176,64214,1,12,0:0:0:0:
140,176,64548,1,4,0:0:0:0:
128,188,64881,1,2,0:0:0:0:
128,188,65048,1,0,0:0:0:0:
128,188,65131,1,0,0:0:0:0:
128,188,65214,1,2,0:0:0:0:
128,188,65381,1,0,0:0:0:0:
128,188,65714,1,0,0:0:0:0:
128,188,65881,1,2,0:0:0:0:
128,188,66048,1,0,0:0:0:0:
128,188,66214,1,0,0:0:0:0:
128,188,66381,1,0,0:0:0:0:
128,188,66464,1,0,0:0:0:0:
128,188,66548,1,2,0:0:0:0:
128,188,66714,1,2,0:0:0:0:
208,228,66881,1,2,0:0:0:0:
208,228,66964,1,2,0:0:0:0:
208,228,67048,1,2,0:0:0:0:
208,228,67131,1,2,0:0:0:0:
208,228,67214,1,0,0:0:0:0:
208,228,67381,1,0,0:0:0:0:
208,228,67548,1,2,0:0:0:0:
208,228,67714,1,0,0:0:0:0:
184,220,67798,1,0,0:0:0:0:
208,228,67881,1,2,0:0:0:0:
208,228,68048,1,0,0:0:0:0:
208,228,68214,1,2,0:0:0:0:
208,228,68381,1,0,0:0:0:0:
184,220,68464,1,0,0:0:0:0:
208,228,68548,1,2,0:0:0:0:
208,228,68714,1,0,0:0:0:0:
208,228,68881,1,2,0:0:0:0:
208,228,69048,1,0,0:0:0:0:
208,228,69131,1,0,0:0:0:0:
208,228,69214,1,2,0:0:0:0:
208,228,69381,1,0,0:0:0:0:
208,228,69548,1,2,0:0:0:0:
208,228,69631,1,2,0:0:0:0:
208,228,69714,1,0,0:0:0:0:
208,228,69798,1,0,0:0:0:0:
208,228,69881,1,2,0:0:0:0:
212,232,70048,1,0,0:0:0:0:
212,232,70214,1,2,0:0:0:0:
212,232,70381,1,0,0:0:0:0:
212,232,70464,1,0,0:0:0:0:
212,232,70548,1,2,0:0:0:0:
212,232,70714,1,0,0:0:0:0:
212,232,70881,1,0,0:0:0:0:
208,216,70964,1,0,0:0:0:0:
208,220,71048,1,2,0:0:0:0:
208,224,71131,1,2,0:0:0:0:
208,224,71214,1,2,0:0:0:0:
212,236,71381,1,12,0:0:0:0:
212,232,71714,1,12,0:0:0:0:
208,228,72881,1,12,0:0:0:0:
208,228,73048,1,0,0:0:0:0:
212,232,73214,1,2,0:0:0:0:
208,228,73381,1,12,0:0:0:0:
208,228,73548,1,0,0:0:0:0:
204,220,73714,1,0,0:0:0:0:
204,220,73881,1,12,0:0:0:0:
204,220,74048,1,0,0:0:0:0:
196,204,74131,1,0,0:0:0:0:
196,204,74214,1,2,0:0:0:0:
196,204,74381,1,12,0:0:0:0:
196,204,74548,1,2,0:0:0:0:
196,220,74714,1,0,0:0:0:0:
200,224,74881,1,12,0:0:0:0:
196,224,75214,1,4,0:0:0:0:
200,224,75548,1,0,0:0:0:0:
200,224,75714,1,0,0:0:0:0:
200,224,75881,1,12,0:0:0:0:
200,224,76214,1,0,0:0:0:0:
196,224,76548,1,12,0:0:0:0:
204,220,76714,1,0,0:0:0:0:
196,224,76881,1,0,0:0:0:0:
200,220,77214,1,2,0:0:0:0:
200,220,77381,1,0,0:0:0:0:
180,212,77548,1,0,0:0:0:0:
192,200,77714,1,0,0:0:0:0:
192,212,77881,1,2,0:0:0:0:
196,224,78214,1,0,0:0:0:0:
200,208,78381,1,0,0:0:0:0:
200,208,78548,1,2,0:0:0:0:
200,208,78714,1,0,0:0:0:0:
200,208,78881,1,2,0:0:0:0:
200,208,78964,1,2,0:0:0:0:
200,208,79048,1,0,0:0:0:0:
200,208,79214,1,2,0:0:0:0:
200,208,79381,1,0,0:0:0:0:
200,208,79548,1,2,0:0:0:0:
200,208,79798,1,2,0:0:0:0:
200,208,80048,1,0,0:0:0:0:
200,208,80214,1,0,0:0:0:0:
200,208,80298,1,0,0:0:0:0:
200,208,80381,1,2,0:0:0:0:
200,208,80464,1,2,0:0:0:0:
200,208,80548,1,2,0:0:0:0:
188,232,80714,1,2,0:0:0:0:
188,232,80798,1,2,0:0:0:0:
188,232,80881,1,0,0:0:0:0:
188,232,81214,1,12,0:0:0:0:
196,248,81548,1,2,0:0:0:0:
192,240,81881,1,12,0:0:0:0:
188,240,82048,1,0,0:0:0:0:
208,248,82214,1,2,0:0:0:0:
188,232,82548,1,2,0:0:0:0:
208,248,82714,1,0,0:0:0:0:
208,224,83048,1,0,0:0:0:0:
208,224,83131,1,0,0:0:0:0:
208,224,83214,1,2,0:0:0:0:
208,224,83381,1,2,0:0:0:0:
208,240,83548,1,2,0:0:0:0:
208,240,83714,1,2,0:0:0:0:
188,252,84214,1,0,0:0:0:0:
208,248,84548,1,2,0:0:0:0:
176,252,84881,1,0,0:0:0:0:
176,252,84964,1,0,0:0:0:0:
176,252,85048,1,2,0:0:0:0:
176,252,85131,1,2,0:0:0:0:
176,252,85214,1,2,0:0:0:0:
180,252,85381,1,2,0:0:0:0:
180,252,85548,1,2,0:0:0:0:
180,252,85631,1,2,0:0:0:0:
180,252,85714,1,2,0:0:0:0:
180,252,85798,1,2,0:0:0:0:
176,252,85881,1,0,0:0:0:0:
184,256,86048,1,0,0:0:0:0:
188,280,86214,1,2,0:0:0:0:
160,272,86548,1,0,0:0:0:0:
160,272,86714,1,12,0:0:0:0:
160,272,87048,1,2,0:0:0:0:
184,264,87381,1,4,0:0:0:0:
