osu file format v14

[General]
AudioFilename: audio.mp3
AudioLeadIn: 0
PreviewTime: 86002
Countdown: 0
SampleSet: Soft
StackLeniency: 0.4
Mode: 0
LetterboxInBreaks: 0
WidescreenStoryboard: 1

[Editor]
Bookmarks: 25612
DistanceSpacing: 0.2
BeatDivisor: 4
GridSize: 32
TimelineZoom: 2.999999

[Metadata]
Title:Heart-shaped chant
TitleUnicode:Heart-shaped chant
Artist:Mizuki Nana
ArtistUnicode:水樹奈々
Creator:Hishiro Chizuru
Version:Luscent x Kowari's Insane
Source:シャイニング・ウィンド
Tags:amb1d3x shining wind japanese folk video game ost Noriyasu Agematsu 上松 範康 Elements Garden Kowari Luscent Great Activity
BeatmapID:3605184
BeatmapSetID:1713881

[Difficulty]
HPDrainRate:5
CircleSize:4
OverallDifficulty:8
ApproachRate:8.3
SliderMultiplier:1.3
SliderTickRate:1

[Events]
//Background and Video events
0,0,"deez.jpg",0,0
//Break Periods
2,111897,129515
2,223028,233863
//Storyboard Layer 0 (Background)
//Storyboard Layer 1 (Fail)
//Storyboard Layer 2 (Pass)
//Storyboard Layer 3 (Foreground)
//Storyboard Layer 4 (Overlay)
//Storyboard Sound Samples

[TimingPoints]
3699,521.739130434783,6,2,0,75,1,0
25611,260.869565217391,6,2,0,85,1,0
25611,-83.3333333333333,6,2,0,85,0,0
31084,-83.3333333333333,6,2,0,75,0,0
43605,-133.333333333333,6,2,0,75,0,0
44389,-111.111111111111,6,2,0,60,0,0
56911,-100,6,2,0,65,0,0
69432,-100,6,2,0,70,0,0
81953,-133.333333333333,6,2,0,80,0,0
86127,-133.333333333333,6,2,0,40,0,0
86650,-83.3333333333333,3,2,0,85,0,0
110909,-83.3333333333333,3,2,0,70,0,0
130476,-111.111111111111,6,2,0,60,0,0
142998,-100,6,2,0,65,0,0
154085,-83.3333333333333,6,2,0,65,0,0
155520,-100,6,2,0,70,0,0
168040,-100,6,2,0,80,0,0
172214,-100,6,2,0,40,0,0
172737,-83.3333333333333,3,2,0,85,0,0
199344,-100,6,2,0,60,0,0
204041,-83.3333333333333,6,2,0,60,0,0
214996,-83.3333333333333,6,2,0,65,0,0
216561,-83.3333333333333,6,2,0,70,0,0
218127,-83.3333333333333,6,2,0,60,0,0
219692,-83.3333333333333,6,2,0,65,0,0
234561,-100,6,2,0,60,0,0
241604,-100,6,2,0,70,0,0
244735,-100,6,2,0,75,0,0
247866,-83.3333333333333,3,2,0,80,0,0
259865,-83.3333333333333,3,2,0,40,0,0
260386,-83.3333333333333,3,2,0,85,0,0
270039,-71.4285714285714,3,2,0,85,0,0
271344,-83.3333333333333,3,2,0,85,0,0
282300,-111.111111111111,3,2,0,85,0,0
283083,-83.3333333333333,3,2,0,85,0,0
285430,-100,6,2,0,50,0,0
286343,-100,6,2,0,65,0,0
288299,-100,6,2,0,5,0,0
288560,-100,6,2,0,35,0,0
288565,468.75,6,2,0,65,1,0
289502,508.474576271186,6,2,0,35,1,0
290010,500,6,2,0,35,1,0
292510,535.714285714286,6,2,0,35,1,0
293045,521.739130434783,6,2,0,35,1,0
293566,508.474576271186,6,2,0,35,1,0
294074,480,6,2,0,35,1,0
294554,476.190476190476,6,2,0,35,1,0
295030,487.80487804878,6,2,0,35,1,0
295517,495.867768595041,6,2,0,35,1,0
296012,521.739130434783,6,2,0,35,1,0
296516,500,6,2,0,35,1,0
297016,512.820512820513,6,2,0,35,1,0
297528,576.923076923077,6,2,0,35,1,0
303003,-100,6,2,0,5,0,0

[Colours]
Combo1 : 255,172,132
Combo2 : 191,191,255
Combo3 : 149,197,255

[HitObjects]
145,57,25612,6,0,P|76:107|86:199,1,155.999995239258,6|0,1:2|0:0,0:0:0:0:
167,229,26002,1,0,0:0:0:0:
255,181,26132,2,0,P|258:137|254:91,1,77.999997619629,2|0,3:2|0:0,0:0:0:0:
71,309,26393,6,0,B|158:299|149:329|225:315,1,155.999995239258,10|2,0:0|0:0,0:0:0:0:
298,360,26784,1,0,0:0:0:0:
375,322,26915,1,2,0:0:0:0:
381,236,27045,1,0,0:0:0:0:
335,162,27176,6,0,P|399:219|479:210,1,155.999995239258,2|0,1:2|0:0,0:0:0:0:
255,181,27567,2,0,P|214:187|165:198,1,77.999997619629,0|2,0:0|3:2,0:0:0:0:
96,239,27828,5,0,0:0:0:0:
19,188,27958,2,0,P|5:111|17:34,1,155.999995239258,8|2,0:0|0:0,0:0:0:0:
102,73,28350,1,0,0:0:0:0:
255,22,28480,2,0,P|209:40|168:47,1,77.999997619629,2|0,0:0|3:0,0:0:0:0:
347,154,28741,5,0,1:0:0:0:
347,154,28871,2,0,P|341:94|346:54,1,77.999997619629
178,194,29132,1,0,3:0:0:0:
178,194,29263,2,0,P|240:215|266:230,1,77.999997619629,2|0,0:0|0:0,0:0:0:0:
320,344,29524,1,0,3:0:0:0:
320,344,29654,2,0,P|332:295|354:243,1,77.999997619629,2|0,0:0|0:0,0:0:0:0:
141,362,29915,1,0,3:0:0:0:
141,362,30045,2,0,P|188:375|224:387,1,77.999997619629,2|0,0:0|0:0,0:0:0:0:
38,256,30306,5,0,1:0:0:0:
55,335,30437,1,2,0:0:0:0:
133,129,30697,1,0,3:0:0:0:
111,161,30828,1,2,0:0:0:0:
250,114,31089,1,8,0:0:0:0:
434,246,31350,5,8,3:0:0:0:
365,194,31480,1,0,3:0:0:0:
383,109,31611,1,4,3:0:0:0:
468,103,31741,1,0,3:0:0:0:
508,178,31871,6,0,P|479:267|469:357,1,155.999995239258,6|0,1:2|0:0,0:0:0:0:
394,379,32263,1,0,0:0:0:0:
243,344,32393,2,0,P|288:331|339:324,1,77.999997619629,2|0,3:2|0:0,0:0:0:0:
211,245,32654,6,0,P|142:292|50:292,1,155.999995239258,8|2,0:0|0:0,0:0:0:0:
12,234,33045,1,0,0:0:0:0:
29,149,33176,1,2,0:0:0:0:
110,121,33306,1,0,0:0:0:0:
185,163,33437,6,0,P|237:162|275:153,1,77.999997619629,0|0,1:0|0:0,0:0:0:0:
313,85,33697,1,2,3:2:0:0:
413,41,33828,2,0,P|390:115|384:192,1,155.999995239258
395,278,34219,5,2,3:2:0:0:
410,362,34350,1,0,0:0:0:0:
325,377,34480,1,2,1:2:0:0:
310,293,34611,1,0,0:0:0:0:
395,278,34741,5,0,1:0:0:0:
478,294,34871,1,2,0:0:0:0:
512,214,35002,2,0,B|439:200|437:235|357:218,1,155.999995239258,2|2,1:2|0:0,0:0:0:0:
81,158,35524,1,2,0:0:0:0:
272,63,35784,2,0,P|279:40|285:2,2,51.999998413086,2|0|0,1:2|0:0|0:0,0:0:0:0:
195,95,36045,6,0,P|166:150|169:264,1,155.999995239258,2|2,0:0|0:0,0:0:0:0:
143,326,36437,1,0,0:0:0:0:
221,375,36567,5,0,1:0:0:0:
286,313,36697,2,0,P|308:306|337:306,2,38.9999988098145,10|0|0,0:0|0:0|0:0,0:0:0:0:
385,230,36958,1,0,0:0:0:0:
264,199,37089,2,0,P|252:180|248:159,2,38.9999988098145,2|0|2,0:0|0:0|0:0,0:0:0:0:
157,131,37350,6,0,P|250:120|336:96,1,155.999995239258,8|2,0:0|0:0,0:0:0:0:
398,83,37741,1,0,0:0:0:0:
398,83,37871,1,2,1:2:0:0:
74,31,38132,5,6,1:2:0:0:
45,172,38393,1,0,0:0:0:0:
115,137,38524,1,0,0:0:0:0:
22,140,38654,2,0,P|22:196|25:240,1,77.999997619629,2|0,3:2|0:0,0:0:0:0:
0,316,38915,2,0,B|78:302|75:331|154:316,1,155.999995239258,8|0,0:0|0:0,0:0:0:0:
229,358,39306,1,0,0:0:0:0:
281,289,39437,1,2,1:2:0:0:
357,250,39567,1,0,0:0:0:0:
257,254,39697,6,0,P|221:175|228:90,1,155.999995239258,0|0,1:0|0:0,0:0:0:0:
275,39,40089,1,0,1:0:0:0:
359,28,40219,1,0,3:0:0:0:
418,90,40350,1,0,0:0:0:0:
400,173,40480,6,0,P|363:185|324:191,1,77.999997619629,8|0,0:0|0:0,0:0:0:0:
154,69,40741,2,0,P|183:118|199:168,1,77.999997619629,0|0,3:0|0:0,0:0:0:0:
42,278,41002,2,0,P|89:269|135:269,1,77.999997619629,2|0,0:0|0:0,0:0:0:0:
214,343,41263,5,2,1:2:0:0:
298,331,41393,1,0,0:0:0:0:
286,245,41524,1,2,3:2:0:0:
202,257,41654,1,0,3:0:0:0:
214,343,41784,5,2,3:2:0:0:
298,331,41915,1,0,3:0:0:0:
370,284,42045,1,10,0:2:0:0:
454,298,42176,1,0,3:0:0:0:
512,237,42306,6,0,P|501:178|494:119,1,77.999997619629,2|0,3:2|3:0,0:0:0:0:
398,45,42567,2,0,P|409:104|416:163,1,77.999997619629,2|0,3:2|3:0,0:0:0:0:
342,177,42828,5,2,1:2:0:0:
87,163,43089,1,2,0:0:0:0:
326,207,43350,1,2,0:0:0:0:
118,287,43610,6,0,L|69:296,3,32.5000012397767,2|2|2|2,1:2|0:2|0:2|0:2,0:0:0:0:
220,191,44132,1,2,0:0:0:0:
452,252,44394,6,0,B|459:318|440:313|446:368,1,116.999996429443,6|0,3:2|0:0,0:0:0:0:
362,248,44784,1,0,0:0:0:0:
362,248,44915,2,0,P|356:204|362:157,1,58.4999982147217
367,80,45176,2,0,P|320:114|257:116,1,116.999996429443,0|0,3:0|3:0,0:0:0:0:
196,73,45567,1,0,0:0:0:0:
196,73,45697,1,0,3:0:0:0:
50,139,45958,6,0,P|61:198|65:270,1,116.999996429443,2|0,1:2|0:0,0:0:0:0:
57,345,46350,2,0,P|33:352|-13:364,2,58.4999982147217,0|0|2,0:0|3:0|0:0,0:0:0:0:
144,302,46741,2,0,P|208:312|282:341,1,116.999996429443,8|0,0:0|0:0,0:0:0:0:
318,293,47132,1,0,0:0:0:0:
318,222,47263,1,2,0:0:0:0:
253,195,47393,1,0,0:0:0:0:
198,240,47524,5,2,1:2:0:0:
66,140,47784,2,0,P|28:147|-2:151,2,58.4999982147217
182,28,48306,2,0,P|237:46|295:54,1,116.999996429443,2|0,3:2|3:0,0:0:0:0:
396,62,48697,1,0,0:0:0:0:
396,62,48828,2,0,P|396:124|400:155,1,58.4999982147217,2|0,0:0|0:0,0:0:0:0:
301,176,49089,5,2,1:2:0:0:
301,176,49219,2,0,P|255:226|263:308,1,116.999996429443
339,364,49611,2,0,P|324:322|325:282,1,58.4999982147217,0|2,3:0|0:0,0:0:0:0:
169,270,49871,2,0,P|195:333|255:350,1,116.999996429443,10|0,0:0|0:0,0:0:0:0:
468,268,50393,2,0,L|511:277,2,38.9999988098145,2|0|0,0:0|0:0|0:0,0:0:0:0:
436,238,50654,6,0,P|424:211|419:182,1,58.4999982147217,2|0,1:2|0:0,0:0:0:0:
295,213,50915,2,0,P|266:217|238:225,1,58.4999982147217
331,44,51176,2,0,P|372:59|400:60,1,58.4999982147217,0|0,3:0|0:0,0:0:0:0:
214,121,51437,6,0,B|151:131|153:108|87:119,1,116.999996429443,10|0,0:0|0:0,0:0:0:0:
17,120,51828,1,0,0:0:0:0:
17,120,51958,1,2,0:0:0:0:
47,359,52219,6,0,P|58:332|63:303,1,58.4999982147217,2|0,1:2|0:0,0:0:0:0:
188,333,52480,2,0,P|216:337|244:345,1,58.4999982147217
152,164,52741,2,0,P|111:179|83:180,1,58.4999982147217,0|0,3:0|0:0,0:0:0:0:
269,241,53002,6,0,B|332:251|330:228|396:239,1,116.999996429443,10|0,0:0|0:0,0:0:0:0:
466,240,53393,1,0,0:0:0:0:
466,240,53524,1,0,3:0:0:0:
395,38,53784,6,0,P|305:60|305:154,1,175.499994644165,2|0,1:2|0:0,0:0:0:0:
292,131,54306,1,0,3:0:0:0:
88,317,54567,2,0,P|163:284|237:281,1,116.999996429443,8|2,0:0|0:0,0:0:0:0:
279,289,54958,1,0,0:0:0:0:
279,289,55089,1,2,0:0:0:0:
245,213,55219,1,0,0:0:0:0:
227,352,55350,5,2,1:2:0:0:
492,212,55611,1,0,0:0:0:0:
430,244,55741,1,0,0:0:0:0:
388,187,55871,1,0,3:0:0:0:
326,220,56002,1,0,0:0:0:0:
301,154,56132,1,8,0:0:0:0:
69,167,56393,1,8,3:0:0:0:
8,130,56524,1,0,0:0:0:0:
63,88,56654,1,2,3:2:0:0:
197,29,56916,6,0,B|181:103|208:93|196:165,1,130,6|0,1:2|0:0,0:0:0:0:
150,236,57306,1,0,0:0:0:0:
150,236,57437,2,0,P|114:254|74:266,1,65,0|0,3:0|0:0,0:0:0:0:
265,214,57697,2,0,P|346:233|406:255,2,130,8|2|2,0:0|0:0|0:0,0:0:0:0:
220,278,58350,1,0,0:0:0:0:
235,354,58480,1,2,1:2:0:0:
53,115,58741,5,0,0:0:0:0:
18,177,58871,1,0,0:0:0:0:
49,241,59002,1,0,3:0:0:0:
117,258,59132,1,0,0:0:0:0:
169,208,59263,1,10,0:0:0:0:
401,150,59524,2,0,P|444:154|487:165,2,65
212,279,60045,6,0,P|295:294|352:317,1,130,2|2,1:2|0:0,0:0:0:0:
424,361,60437,1,0,0:0:0:0:
424,361,60567,2,0,P|428:316|438:283,1,65,0|0,3:0|0:0,0:0:0:0:
396,148,60828,2,0,P|337:186|273:194,1,130,10|0,0:0|0:0,0:0:0:0:
213,145,61219,1,0,0:0:0:0:
213,145,61350,1,2,0:0:0:0:
9,317,61611,5,2,1:2:0:0:
9,317,61741,2,0,P|59:330|95:345,1,65,0|2,0:0|0:0,0:0:0:0:
123,156,62002,1,0,0:0:0:0:
123,156,62132,2,0,P|123:225|150:291,1,130,2|10,3:2|0:0,0:0:0:0:
197,330,62524,1,0,0:0:0:0:
266,343,62654,1,2,3:2:0:0:
334,322,62784,1,0,0:0:0:0:
274,374,62915,1,2,0:0:0:0:
233,154,63176,6,0,P|222:103|221:61,1,65,2|0,1:2|0:0,0:0:0:0:
340,189,63437,2,0,P|346:145|365:96,1,65
472,139,63697,2,0,P|460:90|462:37,1,65,2|0,3:2|0:0,0:0:0:0:
250,267,63958,6,0,P|334:280|406:313,1,130,10|0,0:0|0:0,0:0:0:0:
465,311,64350,1,0,0:0:0:0:
448,224,64480,1,2,0:0:0:0:
239,124,64741,6,0,P|250:73|251:31,1,65,2|0,1:2|0:0,0:0:0:0:
132,159,65002,2,0,P|126:115|107:66,1,65,2|0,0:0|0:0,0:0:0:0:
0,109,65263,2,0,P|12:60|10:7,1,65,2|0,3:2|0:0,0:0:0:0:
222,237,65524,6,0,P|138:250|66:283,1,130,10|0,0:0|0:0,0:0:0:0:
7,281,65915,1,0,0:0:0:0:
24,194,66045,1,2,3:2:0:0:
214,279,66306,6,0,P|205:310|201:342,1,65,2|0,1:2|0:0,0:0:0:0:
284,199,66567,1,2,0:0:0:0:
224,158,66697,1,0,0:0:0:0:
195,92,66828,1,2,3:2:0:0:
302,230,67089,6,0,P|361:204|425:193,1,130,10|0,0:0|0:0,0:0:0:0:
509,113,67480,1,0,0:0:0:0:
509,113,67611,2,0,P|476:108|445:98,1,65,2|0,0:0|0:0,0:0:0:0:
289,0,67871,5,2,1:2:0:0:
289,0,68002,2,0,P|228:48|257:137,1,130,10|0,0:0|0:0,0:0:0:0:
293,141,68393,1,2,3:2:0:0:
117,159,68654,5,10,0:0:0:0:
82,221,68784,1,0,0:0:0:0:
144,256,68915,1,8,3:0:0:0:
172,321,69045,1,0,3:0:0:0:
239,295,69176,1,4,3:0:0:0:
285,348,69306,1,0,3:0:0:0:
345,308,69437,6,0,P|399:317|486:340,1,130,6|0,1:2|0:0,0:0:0:0:
511,223,69828,1,0,0:0:0:0:
511,223,69958,2,0,P|473:233|434:235,1,65,2|0,0:0|0:0,0:0:0:0:
255,249,70219,6,0,P|224:172|247:86,1,130,10|0,0:0|0:0,0:0:0:0:
281,69,70611,1,0,0:0:0:0:
356,101,70741,2,0,P|367:138|367:193,1,65,2|0,0:0|0:0,0:0:0:0:
255,249,71002,6,0,P|161:264|100:287,2,130,2|0|0,1:2|3:0|3:0,0:0:0:0:
314,288,71654,1,0,0:0:0:0:
371,329,71784,1,10,0:0:0:0:
188,213,72045,1,0,0:0:0:0:
148,153,72176,1,2,0:0:0:0:
175,87,72306,1,2,0:0:0:0:
491,55,72567,6,0,P|460:119|378:123,1,130,2|0,1:2|0:0,0:0:0:0:
320,162,72958,1,0,3:0:0:0:
320,162,73089,2,0,P|316:119|323:76,1,65,0|2,0:0|0:0,0:0:0:0:
184,166,73350,2,0,P|235:208|241:286,1,130,10|0,0:0|0:0,0:0:0:0:
322,285,73741,1,0,0:0:0:0:
305,360,73871,1,0,0:0:0:0:
227,374,74002,1,2,0:0:0:0:
163,328,74132,6,0,P|93:339|29:346,1,130,2|2,1:2|0:0,0:0:0:0:
0,265,74524,1,0,0:0:0:0:
0,265,74654,2,0,P|47:256|90:251,1,65,2|0,3:2|0:0,0:0:0:0:
155,243,74915,2,0,P|143:179|139:115,1,130,10|0,0:0|3:0,0:0:0:0:
81,54,75306,1,0,0:0:0:0:
0,64,75437,1,0,3:0:0:0:
261,188,75697,6,0,P|315:138|308:11,1,195,2|0,1:2|0:0,0:0:0:0:
315,22,76219,1,2,0:0:0:0:
340,177,76480,2,0,P|347:245|356:316,1,130,10|0,0:0|0:0,0:0:0:0:
426,359,76871,1,0,0:0:0:0:
490,301,77002,1,2,0:0:0:0:
247,299,77263,6,0,P|178:309|100:329,2,130,2|2|2,1:2|0:0|0:0,0:0:0:0:
427,223,78045,1,10,0:0:0:0:
410,153,78176,1,0,0:0:0:0:
342,175,78306,1,8,3:0:0:0:
323,105,78437,1,0,3:0:0:0:
260,139,78567,1,4,3:0:0:0:
208,89,78697,1,0,3:0:0:0:
175,152,78828,1,6,1:2:0:0:
492,36,79219,5,2,0:0:0:0:
491,35,79350,2,0,P|495:69|494:100,1,65,0|0,3:0|0:0,0:0:0:0:
472,191,79611,2,0,B|398:200|410:180|333:189,1,130,10|2,0:0|0:0,0:0:0:0:
269,220,80002,1,0,0:0:0:0:
208,271,80132,2,0,P|205:320|208:354,1,65
7,95,80393,6,0,P|76:138|154:124,1,130,2|0,1:2|0:0,0:0:0:0:
175,68,80784,1,2,0:0:0:0:
258,83,80915,2,0,P|262:119|260:164,1,65,0|0,3:0|0:0,0:0:0:0:
256,353,81176,5,10,0:0:0:0:
198,310,81306,1,0,3:0:0:0:
220,242,81437,1,8,3:0:0:0:
291,242,81567,1,0,3:0:0:0:
313,310,81697,1,0,3:0:0:0:
256,353,81828,1,0,3:0:0:0:
197,310,81958,6,0,P|125:318|84:331,1,97.50000371933,6|0,1:2|0:0,0:0:0:0:
27,119,82350,6,0,P|71:137|119:145,1,97.50000371933,6|0,1:2|0:0,0:0:0:0:
314,310,82741,6,0,P|386:318|428:331,1,97.50000371933,14|0,0:0|0:0,0:0:0:0:
485,119,83132,6,0,P|440:137|392:145,1,97.50000371933,14|0,0:0|0:0,0:0:0:0:
256,192,83524,5,14,0:0:0:0:
256,192,83784,12,8,85871,0:0:0:0:
39,230,86655,6,0,B|124:224|108:253|199:244,1,155.999995239258,6|0,1:2|0:0,0:0:0:0:
270,304,87046,2,0,P|284:261|314:213,1,77.999997619629,2|2,0:0|3:2,0:0:0:0:
250,54,87306,1,0,0:0:0:0:
144,74,87437,2,0,P|203:136|290:124,1,155.999995239258,10|0,0:0|0:0,0:0:0:0:
351,125,87828,1,0,3:0:0:0:
439,85,87958,1,0,0:0:0:0:
356,87,88089,1,2,0:0:0:0:
457,119,88219,6,0,P|457:63|461:6,1,77.999997619629,2|0,1:2|0:0,0:0:0:0:
499,207,88480,1,0,0:0:0:0:
499,207,88611,2,0,P|457:273|432:357,1,155.999995239258,2|0,0:0|0:0,0:0:0:0:
336,308,89002,2,0,P|299:319|248:326,1,77.999997619629,10|0,0:0|0:0,0:0:0:0:
181,359,89263,1,0,0:0:0:0:
159,267,89393,1,0,3:0:0:0:
247,241,89524,1,0,3:0:0:0:
24,316,89784,6,0,P|6:231|24:139,1,155.999995239258,2|0,1:2|0:0,0:0:0:0:
103,170,90176,1,2,0:0:0:0:
103,170,90306,2,0,L|194:180,1,77.999997619629,2|0,3:2|0:0,0:0:0:0:
222,112,90567,1,10,0:0:0:0:
285,156,90697,1,0,3:0:0:0:
357,128,90828,1,0,1:0:0:0:
383,201,90958,1,0,3:0:0:0:
460,200,91089,1,2,0:0:0:0:
448,277,91219,1,0,3:0:0:0:
501,333,91350,6,0,P|403:340|307:366,1,155.999995239258,2|0,1:2|0:0,0:0:0:0:
235,263,91741,1,2,0:0:0:0:
235,263,91871,2,0,P|298:272|335:288,1,77.999997619629,2|0,3:2|0:0,0:0:0:0:
151,318,92132,1,10,0:0:0:0:
75,300,92263,1,0,3:0:0:0:
37,231,92393,1,0,3:0:0:0:
37,153,92524,1,0,3:0:0:0:
92,97,92654,1,0,3:0:0:0:
257,177,92915,6,0,P|333:192|411:200,1,155.999995239258,2|0,1:2|0:0,0:0:0:0:
495,237,93306,2,0,P|503:184|515:143,1,77.999997619629,2|0,0:0|0:0,0:0:0:0:
441,9,93567,1,2,0:0:0:0:
441,9,93697,2,0,P|371:49|372:143,1,155.999995239258,10|2,0:0|3:2,0:0:0:0:
411,200,94089,1,0,0:0:0:0:
509,161,94219,1,0,3:0:0:0:
495,237,94350,1,0,0:0:0:0:
394,220,94480,6,0,P|318:206|233:197,1,155.999995239258,2|8,1:2|0:0,0:0:0:0:
164,237,94871,1,0,1:0:0:0:
97,189,95002,2,0,P|84:137|87:96,1,77.999997619629,10|0,0:2|1:0,0:0:0:0:
65,361,95263,2,0,P|153:324|249:319,1,155.999995239258,10|8,0:0|3:0,0:0:0:0:
295,336,95654,1,0,0:0:0:0:
367,291,95784,2,0,P|358:239|355:189,1,77.999997619629,4|0,3:0|0:0,0:0:0:0:
232,36,96045,6,0,P|166:93|192:186,1,155.999995239258,10|14,0:0|0:0,0:0:0:0:
440,309,96567,1,0,1:0:0:0:
381,79,96828,1,10,0:0:0:0:
84,263,97089,1,14,0:0:0:0:
296,242,97350,1,0,3:0:0:0:
307,188,97480,1,0,3:0:0:0:
316,134,97611,1,0,1:0:0:0:
88,353,97871,5,8,3:0:0:0:
399,280,98132,1,8,3:0:0:0:
84,263,98393,1,4,3:0:0:0:
395,190,98654,5,8,3:0:0:0:
291,215,98784,1,8,3:0:0:0:
326,125,98915,1,4,3:0:0:0:
302,241,99045,1,4,3:0:0:0:
205,188,99176,6,0,P|128:171|51:163,1,155.999995239258,6|0,1:2|0:0,0:0:0:0:
15,52,99567,2,0,P|52:65|102:73,1,77.999997619629,0|2,3:0|3:2,0:0:0:0:
186,98,99828,1,0,3:0:0:0:
186,98,99958,2,0,P|267:72|314:9,1,155.999995239258,10|8,0:0|3:0,0:0:0:0:
385,41,100350,1,0,3:0:0:0:
437,99,100480,1,4,3:0:0:0:
449,175,100611,1,0,3:0:0:0:
420,247,100741,6,0,B|299:230|299:230|245:246,1,155.999995239258,6|0,1:2|0:0,0:0:0:0:
219,171,101132,1,2,0:0:0:0:
125,144,101263,2,0,P|138:189|148:234,1,77.999997619629,2|0,3:2|0:0,0:0:0:0:
19,318,101524,2,0,P|105:332|180:369,1,155.999995239258,10|2,0:0|3:2,0:0:0:0:
243,342,101915,1,0,0:0:0:0:
240,263,102045,1,0,3:0:0:0:
448,312,102306,6,0,P|502:258|509:182,1,155.999995239258,6|0,1:2|0:0,0:0:0:0:
393,130,102697,1,0,0:0:0:0:
393,130,102828,2,0,P|400:191|423:233,1,77.999997619629,0|0,3:0|0:0,0:0:0:0:
319,74,103089,2,0,P|240:65|144:105,1,155.999995239258,10|2,0:0|3:2,0:0:0:0:
92,68,103480,1,0,0:0:0:0:
52,135,103611,1,2,3:2:0:0:
103,193,103741,1,0,0:0:0:0:
177,168,103871,6,0,P|225:178|278:193,1,77.999997619629,6|0,1:2|0:0,0:0:0:0:
79,328,104132,2,0,P|40:320|3:310,1,77.999997619629,0|2,0:0|0:0,0:0:0:0:
223,287,104393,2,0,P|297:307|366:345,1,155.999995239258,2|10,3:2|0:0,0:0:0:0:
444,352,104784,1,0,0:0:0:0:
427,276,104915,1,2,3:2:0:0:
481,220,105045,1,0,0:0:0:0:
413,180,105176,1,2,0:0:0:0:
406,101,105306,1,2,0:0:0:0:
334,131,105437,6,0,P|262:116|167:106,1,155.999995239258,6|0,1:2|0:0,0:0:0:0:
106,133,105828,1,0,0:0:0:0:
31,109,105958,2,0,P|19:57|15:15,1,77.999997619629,2|0,3:2|0:0,0:0:0:0:
45,187,106219,2,0,P|59:267|72:358,2,155.999995239258,10|2|2,0:0|3:2|0:0,0:0:0:0:
113,149,106871,1,0,0:0:0:0:
164,90,107002,1,8,3:0:0:0:
252,326,107263,1,2,3:0:0:0:
431,246,107524,2,0,P|383:235|337:230,1,77.999997619629,2|0,3:2|0:0,0:0:0:0:
288,74,107784,6,0,P|336:139|440:128,1,155.999995239258,10|0,0:0|0:0,0:0:0:0:
475,101,108176,1,0,3:0:0:0:
494,180,108306,1,2,3:2:0:0:
37,301,108567,6,0,P|115:263|195:265,1,155.999995239258,6|0,1:2|0:0,0:0:0:0:
361,72,108958,6,0,P|313:154|226:183,1,155.999995239258,6|0,1:2|0:0,0:0:0:0:
55,33,109350,6,0,P|63:133|144:190,1,155.999995239258,14|0,0:0|0:0,0:0:0:0:
269,296,109741,6,0,P|326:279|396:275,2,77.999997619629,14|0|0,0:0|0:0|0:0,0:0:0:0:
138,367,110132,5,2,1:2:0:0:
256,192,110393,12,6,111697,1:2:0:0:
314,262,130219,5,2,0:0:0:0:
314,262,130480,2,0,B|216:277|221:250|133:261,1,175.499994644165,6|0,1:2|0:0,0:0:0:0:
111,286,131002,1,0,0:0:0:0:
0,130,131263,2,0,P|54:165|108:163,1,116.999996429443,2|2,0:0|0:0,0:0:0:0:
229,200,131784,1,2,0:0:0:0:
314,94,132045,6,0,P|354:101|390:104,2,58.4999982147217,2|0|0,0:0|0:0|0:0,0:0:0:0:
169,58,132567,1,0,3:0:0:0:
207,220,132828,2,0,P|203:254|201:290,2,58.4999982147217,2|0|0,3:2|0:0|0:0,0:0:0:0:
337,196,133350,1,2,0:0:0:0:
65,157,133611,6,0,P|56:244|85:331,1,175.499994644165,2|0,3:2|0:0,0:0:0:0:
114,346,134132,1,0,0:0:0:0:
296,302,134393,2,0,P|360:308|418:325,1,116.999996429443,2|2,0:0|0:0,0:0:0:0:
491,203,134915,1,2,0:0:0:0:
338,99,135176,6,0,P|321:171|315:237,1,116.999996429443,2|0,0:0|0:0,0:0:0:0:
316,213,135567,1,0,0:0:0:0:
316,213,135697,1,0,0:0:0:0:
99,148,135958,1,2,3:2:0:0:
35,361,136219,2,0,P|102:344|160:339,1,116.999996429443
8,147,136741,6,0,P|45:209|156:213,1,175.499994644165,2|0,3:2|0:0,0:0:0:0:
215,260,137263,1,2,0:0:0:0:
358,105,137524,2,0,P|310:98|282:91,2,58.4999982147217,2|0|0,3:2|0:0|0:0,0:0:0:0:
468,153,138045,1,0,0:0:0:0:
450,55,138306,5,2,3:2:0:0:
372,207,138567,1,2,0:0:0:0:
473,337,138828,1,2,0:0:0:0:
294,233,139089,2,0,P|266:240|237:244,2,58.4999982147217,2|0|0,3:2|0:0|0:0,0:0:0:0:
154,175,139611,2,0,P|96:163|47:132,1,116.999996429443,0|2,0:0|3:2,0:0:0:0:
33,372,140263,5,0,0:0:0:0:
33,372,140393,2,0,P|18:323|11:250,1,116.999996429443,2|2,0:0|0:0,0:0:0:0:
150,276,140915,2,0,L|278:297,1,116.999996429443,0|2,3:0|0:0,0:0:0:0:
444,307,141437,5,2,3:2:0:0:
480,261,141567,1,0,3:0:0:0:
464,204,141697,1,0,3:0:0:0:
407,190,141828,1,0,3:0:0:0:
362,227,141958,1,2,3:2:0:0:
303,221,142089,1,0,3:0:0:0:
277,168,142219,1,10,0:0:0:0:
301,114,142480,5,8,3:0:0:0:
357,101,142741,5,4,3:0:0:0:
197,213,143003,6,0,P|184:150|193:86,1,130,6|0,1:2|0:0,0:0:0:0:
257,28,143393,2,0,P|291:18|343:16,1,65,0|2,0:0|3:2,0:0:0:0:
62,25,143654,1,0,0:0:0:0:
62,25,143784,2,0,P|100:101|109:169,1,130,10|2,0:0|0:0,0:0:0:0:
73,218,144176,1,0,0:0:0:0:
0,240,144306,2,0,P|5:284|18:318,1,65,2|0,0:0|0:0,0:0:0:0:
96,331,144567,6,0,P|189:349|233:375,1,130,2|0,1:2|0:0,0:0:0:0:
302,291,144958,2,0,P|349:280|387:282,2,65,2|2|0,0:0|3:2|0:0,0:0:0:0:
216,239,145350,2,0,P|202:170|205:77,1,130,10|0,0:0|0:0,0:0:0:0:
261,60,145741,1,0,0:0:0:0:
332,91,145871,1,2,0:0:0:0:
367,161,146002,1,0,0:0:0:0:
356,69,146132,6,0,P|369:39|388:13,1,65,2|0,1:2|0:0,0:0:0:0:
297,208,146393,2,0,P|269:225|240:239,1,65,2|0,0:0|0:0,0:0:0:0:
449,183,146654,2,0,P|493:192|534:207,1,65,2|0,3:2|0:0,0:0:0:0:
234,138,146915,2,0,B|165:149|169:128|90:138,1,130,10|0,0:0|0:0,0:0:0:0:
19,173,147306,1,0,0:0:0:0:
19,173,147437,2,0,P|11:124|14:79,1,65,2|0,0:0|0:0,0:0:0:0:
1,273,147697,6,0,P|65:270|124:296,1,130,2|0,1:2|0:0,0:0:0:0:
220,356,148089,2,0,P|220:310|230:261,1,65,0|2,0:0|3:2,0:0:0:0:
263,121,148350,1,0,0:0:0:0:
174,84,148480,2,0,B|157:128|157:128|184:220,1,130,10|2,0:0|0:0,0:0:0:0:
257,218,148871,1,0,0:0:0:0:
334,227,149002,1,2,3:2:0:0:
411,233,149132,1,0,0:0:0:0:
481,185,149263,6,0,P|478:133|481:87,1,65,2|0,1:2|0:0,0:0:0:0:
336,263,149524,2,0,P|339:315|336:361,1,65,2|2,0:0|0:0,0:0:0:0:
255,181,149784,2,0,P|249:134|250:95,1,65,2|0,3:2|0:0,0:0:0:0:
128,18,150045,2,0,P|65:67|76:151,1,130,10|0,0:0|0:0,0:0:0:0:
59,112,150437,1,0,0:0:0:0:
59,112,150567,1,2,0:0:0:0:
19,266,150828,6,0,P|51:260|83:256,1,65,2|0,1:2|0:0,0:0:0:0:
239,329,151089,2,0,P|207:335|175:339,1,65,2|0,0:0|0:0,0:0:0:0:
239,159,151350,2,0,P|271:153|303:149,1,65,2|0,3:2|0:0,0:0:0:0:
411,353,151611,2,0,P|422:273|448:216,1,130,10|0,0:0|0:0,0:0:0:0:
441,228,152002,1,0,0:0:0:0:
441,228,152132,1,2,0:0:0:0:
163,168,152393,5,6,1:2:0:0:
371,27,152654,1,0,3:0:0:0:
371,27,152784,1,0,0:0:0:0:
371,27,152915,2,0,P|381:75|382:110,1,65,0|0,3:0|0:0,0:0:0:0:
350,239,153176,2,0,B|277:249|286:226|216:235,1,130,10|0,0:0|0:0,0:0:0:0:
144,143,153567,1,0,0:0:0:0:
236,56,153697,2,0,P|249:115|241:160,1,65,2|0,3:2|0:0,0:0:0:0:
46,327,153958,5,2,1:2:0:0:
46,327,154090,2,0,B|130:314|115:343|205:331,1,155.999995239258,10|0,0:0|0:0,0:0:0:0:
294,372,154480,2,0,P|294:323|303:271,1,77.999997619629,2|0,3:2|0:0,0:0:0:0:
347,233,154741,1,8,3:0:0:0:
318,160,154871,1,0,3:0:0:0:
241,144,155002,1,4,3:0:0:0:
192,204,155132,1,0,3:0:0:0:
226,222,155263,1,2,3:2:0:0:
264,220,155393,1,0,3:0:0:0:
318,160,155524,6,0,P|326:90|321:19,1,130,6|0,1:2|0:0,0:0:0:0:
415,327,156045,1,2,0:0:0:0:
199,295,156306,2,0,P|103:310|7:342,1,195,10|0,0:0|0:0,0:0:0:0:
10,341,156828,1,2,0:0:0:0:
43,154,157089,6,0,P|35:104|37:63,2,65,2|0|0,1:2|0:0|3:0,0:0:0:0:
139,220,157611,1,0,3:0:0:0:
236,154,157871,2,0,P|306:160|370:175,1,130,10|0,0:0|0:0,0:0:0:0:
463,93,158393,1,2,0:0:0:0:
367,0,158654,6,0,P|300:25|293:93,1,130,2|0,1:2|0:0,0:0:0:0:
205,80,159045,2,0,P|209:130|225:167,1,65,0|0,3:0|0:0,0:0:0:0:
266,220,159306,1,2,0:0:0:0:
348,182,159437,2,0,P|433:197|509:219,1,130,10|0,0:0|0:0,0:0:0:0:
276,244,159828,1,0,0:0:0:0:
198,279,159958,2,0,P|150:270|115:261,1,65,0|2,0:0|0:0,0:0:0:0:
20,223,160219,6,0,P|43:301|54:369,1,130,2|2,1:2|0:0,0:0:0:0:
84,156,160611,1,0,0:0:0:0:
84,156,160741,2,0,P|76:110|78:61,1,65,2|0,3:2|3:0,0:0:0:0:
151,26,161002,2,0,P|218:46|243:123,1,130,10|0,0:0|3:0,0:0:0:0:
306,131,161393,1,0,0:0:0:0:
303,202,161524,1,0,3:0:0:0:
238,232,161654,1,0,0:0:0:0:
169,211,161784,6,0,P|164:281|171:349,1,130,2|0,1:2|0:0,0:0:0:0:
249,354,162176,1,0,0:0:0:0:
329,328,162306,2,0,P|374:337|412:352,1,65,2|0,0:0|0:0,0:0:0:0:
495,213,162567,2,0,P|426:254|348:222,1,130,10|0,0:0|0:0,0:0:0:0:
312,221,162958,1,0,0:0:0:0:
280,156,163089,2,0,P|278:106|284:71,1,65,2|0,0:0|0:0,0:0:0:0:
139,202,163350,6,0,P|65:188|-35:181,2,130,2|2|2,1:2|0:0|0:0,0:0:0:0:
410,140,164132,1,10,0:0:0:0:
128,84,164393,1,8,3:0:0:0:
213,85,164524,1,0,3:0:0:0:
120,112,164654,1,4,3:0:0:0:
260,355,164915,6,0,B|270:280|242:294|257:212,1,130,6|0,1:2|0:0,0:0:0:0:
161,185,165306,1,2,0:0:0:0:
161,185,165437,2,0,P|159:232|168:262,1,65,0|0,3:0|0:0,0:0:0:0:
353,208,165697,2,0,P|320:145|249:141,1,130,10|2,0:0|0:0,0:0:0:0:
90,335,166219,1,0,0:0:0:0:
430,301,166480,6,0,P|447:200|461:136,1,130,2|0,1:2|0:0,0:0:0:0:
453,173,166871,1,2,0:0:0:0:
446,95,167002,2,0,P|413:91|365:92,1,65,0|0,3:0|0:0,0:0:0:0:
284,26,167263,2,0,P|239:82|257:156,1,130,10|8,0:0|3:0,0:0:0:0:
430,301,167784,1,0,3:0:0:0:
57,291,168045,6,0,P|128:257|200:258,1,130,6|0,1:2|0:0,0:0:0:0:
352,83,168437,6,0,P|308:157|229:184,1,130,6|0,1:2|0:0,0:0:0:0:
73,47,168828,6,0,P|80:138|154:190,1,130,14|0,0:0|0:0,0:0:0:0:
268,287,169219,6,0,P|320:271|383:268,2,65,14|0|0,0:0|0:0|0:0,0:0:0:0:
149,351,169611,5,10,0:0:0:0:
256,192,169871,12,8,171958,0:0:0:0:
97,43,172742,6,0,P|173:70|175:167,1,155.999995239258,6|0,1:2|0:0,0:0:0:0:
101,245,173132,2,0,P|158:231|203:230,1,77.999997619629,2|2,0:0|3:2,0:0:0:0:
351,221,173393,1,0,0:0:0:0:
284,153,173524,2,0,P|260:236|270:332,1,155.999995239258,10|0,0:0|0:0,0:0:0:0:
346,348,173915,1,2,3:2:0:0:
426,316,174045,1,0,0:0:0:0:
346,317,174176,1,2,3:2:0:0:
449,335,174306,6,0,P|450:234|460:141,1,155.999995239258,2|0,1:2|0:0,0:0:0:0:
367,36,174697,2,0,P|378:87|382:138,1,77.999997619629,2|2,0:0|3:2,0:0:0:0:
475,98,174958,1,0,0:0:0:0:
367,197,175089,2,0,P|295:186|191:179,1,155.999995239258,10|0,0:0|0:0,0:0:0:0:
139,132,175480,1,0,3:0:0:0:
182,61,175611,1,0,3:0:0:0:
5,286,175871,6,0,P|93:301|153:361,1,155.999995239258,2|0,1:2|0:0,0:0:0:0:
288,264,176263,1,2,0:0:0:0:
288,264,176393,2,0,P|247:293|206:302,1,77.999997619629,2|0,3:2|0:0,0:0:0:0:
119,228,176654,1,10,0:0:0:0:
101,152,176784,1,0,3:0:0:0:
169,114,176915,1,0,3:0:0:0:
187,37,177045,1,2,3:2:0:0:
257,70,177176,1,2,3:2:0:0:
319,23,177306,1,2,3:2:0:0:
372,79,177437,6,0,P|450:69|548:47,1,155.999995239258,2|0,1:2|0:0,0:0:0:0:
395,184,177828,1,2,0:0:0:0:
395,184,177958,2,0,P|340:171|295:168,1,77.999997619629,2|0,3:2|0:0,0:0:0:0:
192,159,178219,1,10,0:0:0:0:
163,231,178350,1,0,3:0:0:0:
194,302,178480,1,0,3:0:0:0:
255,349,178611,1,0,3:0:0:0:
330,326,178741,1,0,3:0:0:0:
30,317,179002,6,0,P|104:279|126:171,1,155.999995239258,2|0,1:2|0:0,0:0:0:0:
28,74,179393,2,0,P|39:137|48:163,1,77.999997619629,2|0,0:0|0:0,0:0:0:0:
131,214,179654,1,2,0:0:0:0:
210,150,179784,2,0,P|294:136|393:131,1,155.999995239258,10|2,0:0|3:2,0:0:0:0:
442,124,180176,1,0,0:0:0:0:
448,202,180306,1,0,3:0:0:0:
370,212,180437,1,0,0:0:0:0:
310,263,180567,6,0,P|274:297|246:332,1,77.999997619629,8|0,3:0|3:0,0:0:0:0:
65,243,180828,2,0,P|86:286|110:320,1,77.999997619629,4|0,3:0|3:0,0:0:0:0:
210,150,181089,1,2,1:2:0:0:
210,71,181219,1,0,0:0:0:0:
151,19,181350,1,10,0:0:0:0:
0,279,181611,6,0,B|79:264|74:298|154:282,1,155.999995239258,2|8,1:2|3:0,0:0:0:0:
244,334,182002,2,0,P|243:287|250:235,1,77.999997619629,8|10,3:0|0:0,0:0:0:0:
429,80,182393,5,14,0:0:0:0:
346,349,182654,1,0,1:0:0:0:
98,212,182915,1,10,0:0:0:0:
480,134,183176,5,14,0:0:0:0:
272,298,183437,1,0,3:0:0:0:
272,298,183567,1,0,3:0:0:0:
272,298,183697,1,0,1:0:0:0:
111,69,183958,5,8,3:0:0:0:
15,235,184219,1,8,3:0:0:0:
198,82,184480,1,4,3:0:0:0:
185,292,184741,1,8,3:0:0:0:
243,217,184871,1,8,3:0:0:0:
215,312,185002,1,4,3:0:0:0:
214,196,185132,1,4,3:0:0:0:
307,267,185263,6,0,B|386:262|371:289|463:281,1,155.999995239258,6|0,1:2|0:0,0:0:0:0:
489,191,185654,1,0,3:0:0:0:
414,118,185784,2,0,P|397:159|403:220,1,77.999997619629,2|0,3:2|3:0,0:0:0:0:
215,312,186045,2,0,P|291:223|276:156,1,155.999995239258,10|8,0:0|3:0,0:0:0:0:
252,122,186437,1,0,3:0:0:0:
178,149,186567,1,4,3:0:0:0:
126,90,186697,1,0,3:0:0:0:
77,186,186828,6,0,P|134:174|182:172,2,77.999997619629,6|0|0,1:2|0:0|0:0,0:0:0:0:
0,123,187219,1,2,0:0:0:0:
0,123,187350,2,0,P|18:221|29:329,1,155.999995239258,2|10,3:2|0:0,0:0:0:0:
32,355,187741,1,0,0:0:0:0:
108,343,187871,1,2,3:2:0:0:
184,331,188002,1,0,3:0:0:0:
259,351,188132,1,0,3:0:0:0:
334,331,188263,1,0,3:0:0:0:
253,319,188393,6,0,P|243:240|264:154,1,155.999995239258,6|0,1:2|0:0,0:0:0:0:
324,123,188784,1,0,3:0:0:0:
402,156,188915,2,0,P|409:212|399:257,1,77.999997619629,0|0,3:0|3:0,0:0:0:0:
278,38,189176,2,0,P|212:96|111:100,1,155.999995239258,10|2,0:0|3:2,0:0:0:0:
82,64,189567,1,0,0:0:0:0:
0,54,189697,2,0,P|9:109|12:155,1,77.999997619629,2|0,3:2|0:0,0:0:0:0:
0,249,189958,6,0,B|81:235|69:264|155:251,1,155.999995239258,6|0,1:2|0:0,0:0:0:0:
247,213,190350,2,0,P|248:262|242:316,1,77.999997619629,2|2,0:0|3:2,0:0:0:0:
179,63,190611,1,0,0:0:0:0:
179,63,190741,2,0,P|96:109|97:178,1,155.999995239258,10|2,0:0|3:2,0:0:0:0:
154,251,191132,1,0,0:0:0:0:
247,213,191263,1,2,0:0:0:0:
170,160,191393,1,2,0:0:0:0:
173,277,191524,6,0,P|250:286|325:306,1,155.999995239258,6|0,1:2|0:0,0:0:0:0:
421,355,191915,1,0,0:0:0:0:
421,355,192045,2,0,P|416:303|419:263,1,77.999997619629,2|0,3:2|0:0,0:0:0:0:
477,201,192306,2,0,P|496:103|515:31,2,155.999995239258,10|2|2,0:0|3:2|0:0,0:0:0:0:
403,248,192958,1,0,0:0:0:0:
321,259,193089,6,0,P|278:247|220:239,1,77.999997619629,8|0,3:0|3:0,0:0:0:0:
130,89,193350,2,0,P|150:149|156:182,1,77.999997619629,2|0,3:0|3:0,0:0:0:0:
60,325,193611,2,0,P|113:288|148:273,1,77.999997619629,2|0,3:2|3:0,0:0:0:0:
354,63,193871,6,0,P|293:129|218:117,1,155.999995239258,10|0,0:0|0:0,0:0:0:0:
130,89,194263,1,0,3:0:0:0:
153,163,194393,1,2,3:2:0:0:
454,318,194654,6,0,P|376:280|296:282,1,155.999995239258,6|0,1:2|0:0,0:0:0:0:
130,89,195045,6,0,P|178:171|265:200,1,155.999995239258,6|0,1:2|0:0,0:0:0:0:
436,50,195437,6,0,P|428:150|347:207,1,155.999995239258,14|0,0:0|0:0,0:0:0:0:
222,313,195828,6,0,P|165:296|95:292,2,77.999997619629,14|0|0,0:0|0:0|0:0,0:0:0:0:
353,384,196219,5,6,1:2:0:0:
256,192,196480,12,10,199350,0:0:0:0:
126,75,199871,5,2,0:0:0:0:
209,88,200002,1,2,0:0:0:0:
295,101,200132,2,0,P|318:54|325:29,1,65,2|0,3:2|0:0,0:0:0:0:
426,161,200393,2,0,P|373:164|348:171,1,65,2|0,0:0|0:0,0:0:0:0:
420,17,200654,2,0,P|449:60|467:78,1,65,2|0,0:0|0:0,0:0:0:0:
310,246,200915,6,0,P|283:172|296:103,1,130,2|0,1:2|0:0,0:0:0:0:
422,205,201306,2,0,P|407:261|406:284,1,65,2|0,0:0|0:0,0:0:0:0:
444,384,201567,1,0,0:0:0:0:
367,356,201697,2,0,L|288:343,2,65,10|0|0,0:0|0:0|0:0,0:0:0:0:
169,270,202089,2,0,L|244:260,1,65,2|0,0:0|0:0,0:0:0:0:
355,106,202350,5,2,0:0:0:0:
316,174,202480,2,0,B|296:229|323:256|298:329,1,130,6|0,1:2|0:0,0:0:0:0:
220,179,202871,2,0,P|212:130|203:102,1,65,0|2,0:0|0:0,0:0:0:0:
407,208,203132,1,2,0:0:0:0:
407,208,203263,2,0,P|415:257|424:285,1,65,10|0,0:0|0:0,0:0:0:0:
330,93,203524,6,0,P|370:86|410:78,1,65,2|0,0:0|0:0,0:0:0:0:
297,249,203784,2,0,P|257:256|217:264,1,65,2|0,0:0|0:0,0:0:0:0:
160,81,204046,6,0,P|188:105|234:155,1,77.999997619629,2|0,1:2|0:0,0:0:0:0:
257,379,204306,1,0,0:0:0:0:
246,349,204437,2,0,P|252:312|273:247,1,77.999997619629,2|0,3:2|0:0,0:0:0:0:
438,83,204697,1,0,0:0:0:0:
422,160,204828,2,0,P|387:172|320:187,1,77.999997619629,10|0,0:0|0:0,0:0:0:0:
101,69,205089,5,2,0:0:0:0:
186,62,205219,2,0,P|235:126|250:212,1,155.999995239258,2|0,0:0|0:0,0:0:0:0:
336,103,205611,5,2,3:2:0:0:
411,143,205741,2,0,P|461:119|493:100,1,77.999997619629,2|0,0:0|0:0,0:0:0:0:
293,265,206002,1,2,0:0:0:0:
274,289,206132,2,0,P|266:360|266:389,1,77.999997619629,2|0,3:2|0:0,0:0:0:0:
195,143,206393,1,2,0:0:0:0:
195,143,206524,2,0,P|138:118|107:108,1,77.999997619629,2|0,3:2|0:0,0:0:0:0:
328,38,206784,5,2,0:0:0:0:
317,117,206915,2,0,L|296:284,1,155.999995239258,2|2,3:2|1:2,0:0:0:0:
374,358,207306,6,0,P|432:342|469:339,1,77.999997619629,10|0,0:0|0:0,0:0:0:0:
438,188,207567,2,0,P|506:209|533:211,1,77.999997619629,0|2,3:0|0:0,0:0:0:0:
366,20,207828,1,0,0:0:0:0:
444,30,207958,2,0,P|503:20|525:11,1,77.999997619629,10|0,0:0|0:0,0:0:0:0:
317,186,208219,5,2,0:0:0:0:
237,172,208350,1,2,0:0:0:0:
157,156,208480,1,2,0:0:0:0:
77,141,208611,1,2,0:0:0:0:
5,120,208741,2,0,P|-12:203|26:293,1,155.999995239258,6|0,1:2|0:0,0:0:0:0:
95,351,209132,2,0,P|106:294|109:266,1,77.999997619629,0|2,0:0|3:2,0:0:0:0:
201,136,209393,1,0,0:0:0:0:
114,182,209524,2,0,B|195:179|194:206|287:197,1,155.999995239258,10|2,0:0|0:0,0:0:0:0:
349,163,209915,1,0,0:0:0:0:
390,240,210045,2,0,P|398:175|407:153,1,77.999997619629,2|0,0:0|0:0,0:0:0:0:
270,0,210306,6,0,P|235:74|263:156,1,155.999995239258,2|0,1:2|0:0,0:0:0:0:
375,47,210697,2,0,P|415:38|464:33,1,77.999997619629,2|2,0:0|3:2,0:0:0:0:
428,217,210958,1,0,0:0:0:0:
334,199,211089,2,0,P|241:191|158:170,1,155.999995239258,10|2,0:0|0:0,0:0:0:0:
279,112,211480,1,0,0:0:0:0:
334,199,211611,2,0,P|343:261|346:295,1,77.999997619629,2|0,0:0|0:0,0:0:0:0:
184,366,211871,6,0,P|159:274|189:207,1,155.999995239258,2|0,1:2|0:0,0:0:0:0:
290,328,212263,2,0,P|376:339|452:365,1,155.999995239258
362,147,212654,2,0,P|349:193|327:234,1,77.999997619629,10|0,0:0|0:0,0:0:0:0:
505,170,212915,2,0,P|471:135|447:96,1,77.999997619629,2|0,0:0|0:0,0:0:0:0:
420,283,213176,2,0,P|466:271|512:269,1,77.999997619629,2|0,0:0|0:0,0:0:0:0:
283,113,213437,6,0,B|209:99|203:125|125:106,2,155.999995239258,2|0|2,1:2|0:0|3:2,0:0:0:0:
341,173,214089,1,0,3:0:0:0:
301,244,214219,1,10,0:0:0:0:
229,204,214350,1,2,3:2:0:0:
185,271,214480,1,2,3:2:0:0:
125,212,214610,1,2,3:2:0:0:
43,235,214741,1,2,3:2:0:0:
37,156,214871,1,0,3:0:0:0:
122,107,215002,6,0,P|135:51|143:26,1,77.999997619629,6|0,1:2|0:0,0:0:0:0:
243,159,215263,2,0,P|231:121|223:83,1,77.999997619629,2|0,3:2|0:0,0:0:0:0:
337,113,215524,2,0,P|345:74|356:37,1,77.999997619629,2|0,3:2|0:0,0:0:0:0:
108,209,215784,6,0,P|96:147|86:112,1,77.999997619629,2|0,3:2|0:0,0:0:0:0:
245,277,216045,2,0,P|257:215|267:180,1,77.999997619629,2|2,1:2|3:2,0:0:0:0:
400,206,216306,2,0,P|390:168|384:129,1,77.999997619629,14|0,0:0|0:0,0:0:0:0:
91,254,216567,6,0,P|55:265|-1:271,1,77.999997619629,2|0,1:2|0:0,0:0:0:0:
238,308,216828,2,0,P|245:346|254:397,1,77.999997619629,2|0,3:2|0:0,0:0:0:0:
404,244,217089,2,0,P|445:251|487:268,1,77.999997619629,2|0,3:2|0:0,0:0:0:0:
104,151,217350,6,0,P|44:142|12:134,1,77.999997619629,2|0,3:2|0:0,0:0:0:0:
397,136,217611,2,0,P|435:128|473:123,1,77.999997619629,2|2,1:2|3:2,0:0:0:0:
242,78,217871,2,0,P|232:18|231:-4,1,77.999997619629,14|0,0:0|0:0,0:0:0:0:
274,209,218132,6,0,L|205:204,8,51.999998413086,10|2|2|10|2|2|10|0|0,0:0|0:0|0:0|0:0|0:0|0:0|0:0|0:0|0:0,0:0:0:0:
362,256,218915,6,0,P|370:199|379:174,1,77.999997619629,2|0,1:2|0:0,0:0:0:0:
141,124,219176,2,0,P|133:181|124:206,1,77.999997619629,2|0,1:2|0:0,0:0:0:0:
231,368,219437,5,6,1:2:0:0:
283,16,219697,1,6,3:2:0:0:
256,192,219828,12,2,221002,3:2:0:0:
256,192,221263,5,10,0:0:0:0:
256,192,221393,12,0,222828,0:0:0:0:
53,122,234567,5,8,3:0:0:0:
90,234,234828,1,0,3:0:0:0:
127,348,235089,1,4,3:0:0:0:
127,348,235350,6,0,P|204:347|267:300,1,130,6|0,1:2|0:0,0:0:0:0:
353,353,235741,2,0,P|330:275|328:226,1,130,2|2,0:0|0:0,0:0:0:0:
425,267,236132,2,0,P|482:254|513:251,1,65,10|0,0:0|0:0,0:0:0:0:
384,161,236393,2,0,P|295:179|245:181,2,130,2|2|2,0:0|0:0|1:2,0:0:0:0:
485,78,237045,6,0,P|409:16|285:64,1,195,2|0,0:0|0:0,0:0:0:0:
246,89,237567,1,2,0:0:0:0:
173,39,237697,2,0,P|134:33|99:23,1,65,2|0,3:2|0:0,0:0:0:0:
149,161,237958,2,0,P|161:252|166:292,1,130,2|2,0:0|0:0,0:0:0:0:
69,238,238350,1,0,3:0:0:0:
148,162,238480,6,0,B|230:139|269:168|348:143,1,195,2|0,1:2|0:0,0:0:0:0:
433,184,239002,2,0,P|439:136|449:107,1,65,2|2,3:2|3:2,0:0:0:0:
309,0,239263,2,0,P|276:65|284:136,1,130,8|2,0:0|0:0,0:0:0:0:
339,184,239654,1,0,0:0:0:0:
278,242,239784,2,0,P|220:246|197:252,1,65,2|0,3:2|0:0,0:0:0:0:
65,213,240045,6,0,P|83:287|89:355,1,130,2|0,1:2|0:0,0:0:0:0:
195,324,240437,2,0,P|177:250|171:182,1,130,2|0,0:0|0:0,0:0:0:0:
103,127,240828,1,2,3:2:0:0:
232,140,241089,1,0,3:0:0:0:
362,162,241350,1,0,3:0:0:0:
362,162,241480,1,0,3:0:0:0:
436,113,241611,6,0,P|446:193|389:368,1,260,2|2,1:2|3:2,0:0:0:0:
393,361,242263,1,0,0:0:0:0:
319,377,242393,1,2,1:2:0:0:
256,331,242524,1,0,0:0:0:0:
241,251,242654,2,0,P|296:242|324:240,1,65,2|0,1:2|0:0,0:0:0:0:
423,137,242915,2,0,P|368:146|340:148,1,65,6|0,1:2|0:0,0:0:0:0:
134,18,243176,6,0,B|111:103|161:127|132:230,1,195,6|0,1:2|0:0,0:0:0:0:
71,261,243697,1,2,3:2:0:0:
76,343,243828,1,0,0:0:0:0:
148,379,243958,1,2,1:2:0:0:
221,343,244089,1,0,0:0:0:0:
216,257,244219,2,0,P|271:249|291:247,1,65,2|0,1:2|0:0,0:0:0:0:
87,167,244480,2,0,P|54:163|22:158,1,65,6|0,1:2|0:0,0:0:0:0:
204,28,244741,5,2,1:2:0:0:
222,127,244871,2,0,P|208:220|195:267,1,130,14|0,0:0|0:0,0:0:0:0:
129,342,245263,2,0,P|118:294|111:265,1,65,14|0,0:0|0:0,0:0:0:0:
331,73,245524,5,2,1:2:0:0:
313,172,245654,2,0,P|327:265|340:312,1,130,10|0,0:0|0:0,0:0:0:0:
421,375,246045,2,0,P|430:317|436:291,1,65,14|0,0:0|0:0,0:0:0:0:
495,155,246306,5,2,1:2:0:0:
412,206,246437,2,0,L|335:219,1,65,14|0,0:0|0:0,0:0:0:0:
122,174,246697,2,0,L|199:161,1,65,14|0,0:0|0:0,0:0:0:0:
273,30,246958,6,0,L|266:93,13,32.5,2|0|10|0|0|0|0|0|0|0|0|0|0|0,3:2|0:0|0:2|0:0|0:0|0:0|3:0|0:0|0:0|0:0|3:0|0:0|0:0|0:0,0:0:0:0:
339,114,247871,6,0,B|263:88|258:122|156:87,1,155.999995239258,6|0,1:2|3:0,0:0:0:0:
113,134,248263,1,0,3:0:0:0:
48,56,248393,2,0,B|40:86|12:127,1,77.999997619629,0|0,3:0|0:0,0:0:0:0:
137,320,248654,6,0,L|111:147,1,155.999995239258,2|0,1:2|3:0,0:0:0:0:
21,251,249045,1,0,3:0:0:0:
21,251,249176,2,0,P|57:253|102:263,1,77.999997619629,0|0,3:0|0:0,0:0:0:0:
229,363,249437,6,0,P|324:362|378:326,1,155.999995239258,2|0,1:2|3:0,0:0:0:0:
478,265,249828,1,0,3:0:0:0:
478,265,249958,2,0,P|432:252|387:233,1,77.999997619629,0|0,3:0|0:0,0:0:0:0:
352,23,250219,6,0,P|374:62|380:118,1,77.999997619629,10|0,3:2|3:0,0:0:0:0:
232,102,250480,2,0,P|254:63|300:30,1,77.999997619629,2|0,3:2|3:0,0:0:0:0:
359,168,250741,2,0,P|314:167|262:144,1,77.999997619629,2|0,3:2|3:0,0:0:0:0:
147,31,251002,6,0,P|116:134|131:203,1,155.999995239258,2|0,1:2|3:0,0:0:0:0:
185,248,251393,1,0,3:0:0:0:
259,191,251524,2,0,P|241:258|235:295,1,77.999997619629,0|0,3:0|3:0,0:0:0:0:
176,366,251784,5,10,0:0:0:0:
331,271,252045,1,2,3:2:0:0:
132,177,252306,1,2,3:2:0:0:
211,289,252567,5,2,1:2:0:0:
278,335,252697,2,0,P|358:334|430:293,1,155.999995239258,2|0,3:2|3:0,0:0:0:0:
359,231,253089,2,0,P|361:182|354:141,1,77.999997619629,0|0,3:0|3:0,0:0:0:0:
242,9,253350,5,8,3:2:0:0:
209,91,253480,1,0,3:0:0:0:
253,158,253611,1,8,3:0:0:0:
218,232,253741,1,0,3:0:0:0:
259,305,253871,1,4,3:0:0:0:
218,377,254002,1,0,3:0:0:0:
128,350,254132,6,0,P|77:338|26:331,1,77.999997619629,6|0,1:2|3:0,0:0:0:0:
181,204,254393,1,0,3:0:0:0:
181,204,254524,1,0,3:0:0:0:
181,204,254654,2,0,P|196:254|215:301,1,77.999997619629,0|0,3:0|0:0,0:0:0:0:
23,241,254915,1,2,1:2:0:0:
23,241,255045,1,0,3:0:0:0:
23,241,255176,2,0,P|58:202|90:162,1,77.999997619629,0|0,3:0|3:0,0:0:0:0:
150,9,255437,5,0,3:0:0:0:
172,92,255567,1,0,0:0:0:0:
192,179,255697,2,0,P|291:178|347:150,1,155.999995239258,4|0,1:2|3:0,0:0:0:0:
386,65,256089,1,0,3:0:0:0:
306,2,256219,2,0,P|295:58|284:94,1,77.999997619629,0|0,3:0|0:0,0:0:0:0:
509,168,256480,6,0,P|451:156|420:145,1,77.999997619629,2|0,1:2|3:0,0:0:0:0:
406,312,256741,2,0,P|445:267|470:246,1,77.999997619629,0|0,3:0|3:0,0:0:0:0:
335,157,257002,2,0,P|353:213|359:245,1,77.999997619629,0|0,3:0|3:0,0:0:0:0:
278,384,257263,5,6,1:2:0:0:
223,318,257393,2,0,P|122:302|48:293,1,155.999995239258,0|0,3:0|3:0,0:0:0:0:
140,145,257784,2,0,P|149:188|162:230,1,77.999997619629,0|0,3:0|3:0,0:0:0:0:
375,286,258045,2,0,P|384:246|389:207,1,77.999997619629,8|0,3:2|3:0,0:0:0:0:
246,60,258306,6,0,P|233:135|231:168,1,77.999997619629,0|0,3:0|3:0,0:0:0:0:
278,341,258567,2,0,P|291:266|293:233,1,77.999997619629,6|0,1:2|3:0,0:0:0:0:
97,140,258828,5,12,3:2:0:0:
433,230,259089,1,0,3:0:0:0:
23,216,259350,5,0,3:0:0:0:
488,158,259611,1,0,3:0:0:0:
254,118,260393,6,0,B|239:189|268:197|253:273,1,155.999995239258,6|0,1:2|0:0,0:0:0:0:
348,156,260784,2,0,P|355:105|363:75,1,77.999997619629,2|2,3:2|3:2,0:0:0:0:
512,195,261045,1,0,3:0:0:0:
485,281,261176,2,0,P|393:289|336:237,1,155.999995239258,10|0,0:0|0:0,0:0:0:0:
306,165,261567,1,2,3:2:0:0:
218,135,261697,1,0,3:0:0:0:
144,188,261828,1,2,3:2:0:0:
120,277,261958,6,0,P|168:289|211:307,1,77.999997619629,2|0,1:2|0:0,0:0:0:0:
21,372,262219,1,0,0:0:0:0:
2,278,262350,2,0,P|0:177|23:117,1,155.999995239258,2|0,3:2|3:0,0:0:0:0:
87,70,262741,1,10,0:0:0:0:
155,121,262871,1,0,3:0:0:0:
232,82,263002,1,0,3:0:0:0:
270,166,263132,1,0,3:0:0:0:
358,169,263263,1,0,3:0:0:0:
351,249,263393,1,0,3:0:0:0:
346,333,263524,6,0,B|274:325|261:353|180:339,1,155.999995239258,2|0,1:2|0:0,0:0:0:0:
125,183,263915,1,2,3:2:0:0:
198,241,264045,2,0,P|217:178|224:149,1,77.999997619629,2|0,3:2|3:0,0:0:0:0:
56,13,264306,2,0,P|15:101|20:173,1,155.999995239258,10|0,0:0|0:0,0:0:0:0:
34,249,264697,1,2,3:2:0:0:
125,138,264828,2,0,P|182:130|218:125,1,77.999997619629,2|2,3:2|3:2,0:0:0:0:
401,42,265089,6,0,P|298:27|237:1,1,155.999995239258,2|0,1:2|0:0,0:0:0:0:
365,131,265480,1,2,0:0:0:0:
468,126,265611,2,0,P|447:192|445:215,1,77.999997619629,2|0,3:2|0:0,0:0:0:0:
456,351,265871,1,10,0:0:0:0:
384,380,266002,1,0,3:0:0:0:
301,356,266132,1,0,3:0:0:0:
268,283,266263,1,0,3:0:0:0:
302,204,266393,1,0,3:0:0:0:
512,293,266654,6,0,B|436:276|427:307|337:283,1,155.999995239258,2|0,1:2|0:0,0:0:0:0:
271,353,267045,2,0,P|261:303|248:271,1,77.999997619629,2|2,3:2|3:2,0:0:0:0:
279,89,267306,1,2,3:2:0:0:
214,157,267437,2,0,P|273:195|372:167,1,155.999995239258,10|2,0:0|3:2,0:0:0:0:
392,103,267828,1,0,3:0:0:0:
368,23,267958,1,0,3:0:0:0:
282,7,268089,1,0,3:0:0:0:
207,65,268219,6,0,P|149:57|114:47,1,77.999997619629,8|0,3:0|3:0,0:0:0:0:
296,210,268480,2,0,P|354:218|389:228,1,77.999997619629,4|0,3:0|3:0,0:0:0:0:
162,327,268741,2,0,P|104:319|69:309,1,77.999997619629,2|0,1:2|0:0,0:0:0:0:
342,99,269002,5,10,0:0:0:0:
146,191,269263,1,2,1:2:0:0:
331,329,269524,1,8,3:0:0:0:
331,329,269654,1,8,3:0:0:0:
331,329,269784,1,10,0:0:0:0:
202,99,270045,6,0,P|106:94|-10:60,1,181.999994445801,14|0,0:0|0:0,0:0:0:0:
170,371,270567,1,10,0:0:0:0:
315,184,270828,2,0,P|411:189|527:223,1,181.999994445801,14|0,0:0|0:0,0:0:0:0:
212,278,271350,6,0,P|203:207|192:176,1,77.999997619629,0|0,1:0|0:0,0:0:0:0:
297,82,271611,2,0,P|306:153|317:184,1,77.999997619629,8|0,3:0|0:0,0:0:0:0:
109,225,271871,6,0,P|125:169|132:131,1,77.999997619629,8|0,3:0|0:0,0:0:0:0:
403,159,272132,2,0,P|387:215|380:253,1,77.999997619629,4|0,3:0|0:0,0:0:0:0:
220,42,272393,1,8,3:0:0:0:
299,10,272524,1,8,3:0:0:0:
344,76,272654,1,4,3:0:0:0:
295,144,272784,1,4,3:0:0:0:
211,123,272915,6,0,B|136:106|130:131|44:111,1,155.999995239258,6|0,1:2|0:0,0:0:0:0:
217,257,273306,1,0,3:0:0:0:
305,244,273437,2,0,P|339:240|393:232,1,77.999997619629,2|0,3:2|3:0,0:0:0:0:
216,382,273697,2,0,P|206:321|196:280,1,77.999997619629,10|0,0:0|0:0,0:0:0:0:
63,174,273958,1,8,3:0:0:0:
6,238,274089,1,0,3:0:0:0:
23,318,274219,1,4,3:0:0:0:
104,340,274350,1,0,3:0:0:0:
175,290,274480,6,0,P|260:264|344:258,1,155.999995239258,6|0,1:2|0:0,0:0:0:0:
189,187,274871,1,2,0:0:0:0:
108,158,275002,2,0,P|90:101|85:72,1,77.999997619629,2|0,3:2|0:0,0:0:0:0:
288,0,275263,1,10,0:0:0:0:
330,72,275393,1,2,3:2:0:0:
275,143,275524,2,0,P|225:142|190:138,1,77.999997619629,2|0,3:2|3:0,0:0:0:0:
413,36,275784,2,0,P|406:120|407:148,1,77.999997619629,0|0,3:0|3:0,0:0:0:0:
349,265,276045,6,0,P|426:313|507:299,1,155.999995239258,6|0,1:2|0:0,0:0:0:0:
303,344,276437,2,0,P|214:356|137:374,1,155.999995239258,0|0,3:0|3:0,0:0:0:0:
258,253,276828,2,0,P|270:212|278:172,1,77.999997619629,10|0,0:0|0:0,0:0:0:0:
113,182,277089,2,0,P|142:212|173:239,1,77.999997619629,2|0,3:2|0:0,0:0:0:0:
248,83,277350,2,0,P|206:93|167:106,1,77.999997619629,2|0,3:2|0:0,0:0:0:0:
14,234,277611,6,0,P|7:325|48:373,1,155.999995239258,6|0,1:2|0:0,0:0:0:0:
247,305,278002,2,0,B|180:279|153:309|76:272,1,155.999995239258,2|0,0:0|0:0,0:0:0:0:
3,153,278393,2,0,P|66:146|105:135,1,77.999997619629,10|0,0:0|0:0,0:0:0:0:
221,32,278654,6,0,L|213:88,6,38.9999988098145,2|0|0|0|2|2|2,3:2|0:0|0:0|0:0|0:0|0:0|0:0,0:0:0:0:
159,130,279176,2,0,P|236:105|364:93,1,155.999995239258,6|0,1:2|0:0,0:0:0:0:
394,126,279567,1,0,0:0:0:0:
451,54,279697,2,0,P|438:115|437:151,1,77.999997619629,2|0,3:2|0:0,0:0:0:0:
463,337,279958,6,0,P|392:326|363:324,1,77.999997619629,10|0,0:0|0:0,0:0:0:0:
260,341,280219,2,0,P|305:285|321:260,1,77.999997619629,2|0,3:2|0:0,0:0:0:0:
351,156,280480,2,0,P|376:222|389:249,1,77.999997619629,2|0,0:0|0:0,0:0:0:0:
169,371,280741,5,8,3:0:0:0:
121,298,280871,2,0,P|55:280|-32:333,1,155.999995239258,0|0,3:0|3:0,0:0:0:0:
152,203,281263,2,0,P|212:183|239:167,1,77.999997619629,2|0,3:2|3:0,0:0:0:0:
61,42,281524,2,0,B|40:116|74:133|54:215,1,155.999995239258,10|0,0:0|0:0,0:0:0:0:
57,196,281915,1,0,3:0:0:0:
57,196,282045,1,2,3:2:0:0:
304,133,282306,6,0,P|407:111|450:94,1,116.999996429443,6|0,1:2|0:0,0:0:0:0:
209,235,282697,6,0,P|106:257|61:273,1,116.999996429443,6|0,1:2|0:0,0:0:0:0:
339,311,283089,6,0,P|433:333|493:353,1,155.999995239258,14|0,0:0|0:0,0:0:0:0:
173,73,283480,6,0,P|79:51|19:31,1,155.999995239258,14|0,0:0|0:0,0:0:0:0:
256,192,283871,5,6,1:2:0:0:
256,192,284002,12,2,288565,0:0:0:0:
