osu file format v14

[General]
AudioFilename: audio.mp3
AudioLeadIn: 0
PreviewTime: 86002
Countdown: 0
SampleSet: Soft
StackLeniency: 0.4
Mode: 0
LetterboxInBreaks: 0
WidescreenStoryboard: 0

[Editor]
Bookmarks: 222827,222957,223218,223348,223479,223609,223740,223870,224000,224131,224261,224392,224522,224653,224783,224913,225174,225305,225435,225566,225696,225827,225957,226087,226218,226479,226609,226740,226870,227000,227131,227392,227522,227653,227783,228044,228174,228305,228435,228566,228696,228827,229087,229218,229348,229479,229609,229740,229870,230131,230261,230392,230522,230653,230783,230913,231174,231305,231435,231566,231696,231957,232087,232218,232479,232609,232740,232870,233131,233261,233392,233653,233783,233913,234044,234305,234435
DistanceSpacing: 0.2
BeatDivisor: 4
GridSize: 16
TimelineZoom: 3.999998

[Metadata]
Title:Heart-shaped chant
TitleUnicode:Heart-shaped chant
Artist:Mizuki Nana
ArtistUnicode:水樹奈々
Creator:Hishiro Chizuru
Version:Eternity
Source:シャイニング・ウィンド
Tags:amb1d3x shining wind japanese folk video game ost Noriyasu Agematsu 上松 範康 Elements Garden Kowari Luscent Great Activity
BeatmapID:3502065
BeatmapSetID:1713881

[Difficulty]
HPDrainRate:5
CircleSize:4
OverallDifficulty:9
ApproachRate:9.3
SliderMultiplier:1.25
SliderTickRate:1

[Events]
//Background and Video events
0,0,"deez.jpg",0,0
//Break Periods
2,223028,234013
//Storyboard Layer 0 (Background)
//Storyboard Layer 1 (Fail)
//Storyboard Layer 2 (Pass)
//Storyboard Layer 3 (Foreground)
//Storyboard Layer 4 (Overlay)
//Storyboard Sound Samples

[TimingPoints]
3699,521.739130434783,6,2,0,75,1,0
25085,-50,6,2,0,75,0,0
25611,260.869565217391,6,2,0,85,1,0
25611,-71.4285714285714,6,2,0,85,0,0
28736,-133.333333333333,6,2,0,85,0,0
31084,-71.4285714285714,6,2,0,75,0,0
31866,-58.8235294117647,6,2,0,75,0,0
32388,-71.4285714285714,6,2,0,75,0,0
36692,-58.8235294117647,6,2,0,75,0,0
37084,-71.4285714285714,6,2,0,75,0,0
37866,-133.333333333333,6,2,0,75,0,0
38127,-71.4285714285714,6,2,0,75,0,0
38649,-100,6,2,0,75,0,0
38910,-71.4285714285714,6,2,0,75,0,0
39432,-100,6,2,0,75,0,0
39693,-71.4285714285714,6,2,0,75,0,0
41258,-58.8235294117647,6,2,0,75,0,0
41649,-71.4285714285714,6,2,0,75,0,0
44388,-100,6,2,0,60,0,0
56910,-100,6,2,0,65,0,0
69432,-76.9230769230769,6,2,0,70,0,0
69953,-133.333333333333,6,2,0,70,0,0
70214,-76.9230769230769,6,2,0,70,0,0
70736,-133.333333333333,6,2,0,70,0,0
70997,-100,6,2,0,70,0,0
75692,-76.9230769230769,6,2,0,70,0,0
76214,-133.333333333333,6,2,0,70,0,0
76475,-76.9230769230769,6,2,0,70,0,0
76997,-133.333333333333,6,2,0,70,0,0
77258,-100,6,2,0,70,0,0
78823,-76.9230769230769,6,2,0,70,0,0
81953,-76.9230769230769,6,2,0,80,0,0
86127,-76.9230769230769,6,2,0,40,0,0
86649,-66.6666666666667,3,2,0,85,0,0
96301,-58.8235294117647,3,2,0,85,0,0
96822,-66.6666666666667,3,2,0,85,0,0
97083,-58.8235294117647,3,2,0,85,0,0
97605,-100,3,2,0,85,0,0
98127,-83.3333333333333,3,2,0,85,0,0
98388,-66.6666666666667,3,2,0,85,0,0
110909,-100,3,2,0,70,0,0
111692,-71.4285714285714,6,2,0,70,0,0
130475,-100,6,2,0,60,0,0
142997,-100,6,2,0,65,0,0
155519,-76.9230769230769,6,2,0,70,0,0
156040,-133.333333333333,6,2,0,70,0,0
156301,-76.9230769230769,6,2,0,70,0,0
156823,-133.333333333333,6,2,0,70,0,0
157084,-100,6,2,0,70,0,0
161779,-76.9230769230769,6,2,0,70,0,0
162300,-133.333333333333,6,2,0,70,0,0
162561,-76.9230769230769,6,2,0,70,0,0
163083,-133.333333333333,6,2,0,70,0,0
163344,-100,6,2,0,70,0,0
164910,-76.9230769230769,6,2,0,70,0,0
168040,-76.9230769230769,6,2,0,80,0,0
172214,-76.9230769230769,6,2,0,40,0,0
172736,-66.6666666666667,3,2,0,85,0,0
182388,-58.8235294117647,3,2,0,85,0,0
183953,-100,3,2,0,85,0,0
184214,-83.3333333333333,3,2,0,85,0,0
184475,-66.6666666666667,3,2,0,85,0,0
196214,-71.4285714285714,6,2,0,70,0,0
196996,-83.3333333333333,6,2,0,70,0,0
199344,-100,6,2,0,60,0,0
214996,-100,6,2,0,65,0,0
216561,-76.9230769230769,6,2,0,70,0,0
218127,-76.9230769230769,6,2,0,60,0,0
219692,-133.333333333333,6,2,0,65,0,0
222822,-100,6,2,0,5,0,0
234561,-133.333333333333,6,2,0,60,0,0
235343,-100,6,2,0,60,0,0
241604,-100,6,2,0,70,0,0
244735,-100,6,2,0,75,0,0
247865,-66.6666666666667,3,2,0,80,0,0
259865,-66.6666666666667,3,2,0,40,0,0
260386,-66.6666666666667,3,2,0,85,0,0
270038,-58.8235294117647,3,2,0,85,0,0
271604,-100,3,2,0,85,0,0
271865,-66.6666666666667,3,2,0,85,0,0
272125,-58.8235294117647,3,2,0,85,0,0
272908,-66.6666666666667,3,2,0,85,0,0
283865,-76.9230769230769,6,2,0,65,0,0
285430,-100,6,2,0,50,0,0
286343,-200,6,2,0,65,0,0
288299,-200,6,2,0,5,0,0
288565,468.75,6,2,0,65,1,0
288565,-125,6,2,0,35,0,0
289502,508.474576271186,6,2,0,35,1,0
289502,-125,6,2,0,35,0,0
290010,500,6,2,0,35,1,0
290010,-125,6,2,0,35,0,0
292510,535.714285714286,6,2,0,35,1,0
292510,-125,6,2,0,35,0,0
293045,521.739130434783,6,2,0,35,1,0
293045,-125,6,2,0,35,0,0
293566,508.474576271186,6,2,0,35,1,0
293566,-125,6,2,0,35,0,0
294074,480,6,2,0,35,1,0
294074,-125,6,2,0,35,0,0
294554,476.190476190476,6,2,0,35,1,0
294554,-125,6,2,0,35,0,0
295030,487.80487804878,6,2,0,35,1,0
295030,-125,6,2,0,35,0,0
295517,495.867768595041,6,2,0,35,1,0
295517,-125,6,2,0,35,0,0
296012,521.739130434783,6,2,0,35,1,0
296012,-125,6,2,0,35,0,0
296516,500,6,2,0,35,1,0
296516,-125,6,2,0,35,0,0
297016,512.820512820513,6,2,0,35,1,0
297016,-125,6,2,0,35,0,0
297528,576.923076923077,6,2,0,35,1,0
297528,-125,6,2,0,35,0,0
303003,-125,6,2,0,5,0,0

[Colours]
Combo1 : 255,172,132
Combo2 : 191,191,255
Combo3 : 149,197,255

[HitObjects]
0,159,24829,5,8,0:0:0:0:
0,159,25090,6,0,P|28:171|59:172,1,62.5,8|0,3:0|0:0,0:0:0:0:
147,152,25351,2,0,P|169:129|180:100,1,62.5,4|0,3:0|0:0,0:0:0:0:
76,87,25612,6,0,B|134:159|67:196|115:266,1,174.999994659424,6|0,1:2|0:0,0:0:0:0:
187,359,26002,1,0,0:0:0:0:
99,337,26132,2,0,B|54:322|54:322|18:340,1,87.499997329712,2|0,3:2|0:0,0:0:0:0:
181,234,26393,2,0,B|190:260|207:279|207:279|253:266|328:259,2,174.999994659424,10|2|2,0:0|0:0|0:0,0:0:0:0:
409,301,27045,5,0,0:0:0:0:
306,181,27176,2,0,B|274:157|274:157|320:27,1,174.999994659424,2|0,1:2|0:0,0:0:0:0:
392,91,27567,1,0,0:0:0:0:
392,91,27697,1,2,3:2:0:0:
196,135,27828,1,0,0:0:0:0:
168,240,27958,2,0,B|114:243|87:194|87:194|61:165|0:174,2,174.999994659424,8|2|2,0:0|0:0|0:0,0:0:0:0:
89,317,28610,5,0,3:0:0:0:
256,249,28741,2,0,L|308:257,2,46.8750017881394,0|0|0,1:0|0:0|0:0,0:0:0:0:
213,326,29132,5,0,3:0:0:0:
281,167,29263,2,0,L|273:120,1,46.8750017881394,2|0,0:0|0:0,0:0:0:0:
194,67,29524,5,0,3:0:0:0:
361,135,29654,2,0,L|413:127,1,46.8750017881394,2|0,0:0|0:0,0:0:0:0:
470,59,29915,5,0,3:0:0:0:
402,218,30045,2,0,L|409:264,1,46.8750017881394,2|0,0:0|0:0,0:0:0:0:
485,334,30306,5,0,1:0:0:0:
318,266,30437,2,0,L|266:274,1,46.8750017881394,2|0,0:0|0:0,0:0:0:0:
191,338,30697,5,0,3:0:0:0:
119,384,30828,2,0,L|67:376,1,46.8750017881394,2|0,0:0|0:0,0:0:0:0:
7,130,31089,5,8,0:0:0:0:
7,130,31350,5,8,3:0:0:0:
151,183,31480,1,0,3:0:0:0:
127,73,31610,5,4,3:0:0:0:
39,237,31741,1,0,3:0:0:0:
191,338,31871,6,0,B|202:314|231:316|231:316|144:288|158:363|71:338,1,212.500004053116,6|0,1:2|0:0,0:0:0:0:
250,236,32263,1,0,0:0:0:0:
304,352,32393,2,0,P|347:363|390:365,1,87.499997329712,2|0,3:2|0:0,0:0:0:0:
483,88,32654,6,0,P|440:77|397:75,1,87.499997329712,8|0,0:0|0:0,0:0:0:0:
243,138,32915,2,0,P|285:148|328:150,1,87.499997329712,2|0,0:0|0:0,0:0:0:0:
208,43,33176,2,0,P|165:32|122:30,1,87.499997329712,2|0,0:0|0:0,0:0:0:0:
0,313,33437,6,0,B|20:277|62:279|62:279|91:274|110:230,1,131.249995994568,0|0,1:0|0:0,0:0:0:0:
100,230,33697,2,0,L|197:247,1,87.499997329712,2|0,3:2|0:0,0:0:0:0:
323,179,33958,6,0,L|355:337,1,131.249995994568,0|0,3:0|0:0,0:0:0:0:
336,324,34219,2,0,P|372:346|413:337,1,87.499997329712,2|0,3:2|0:0,0:0:0:0:
462,105,34480,6,0,B|425:76|374:100|374:100|322:111|273:69,1,174.999994659424,2|0,1:2|0:0,0:0:0:0:
109,178,34871,1,2,0:0:0:0:
216,119,35002,6,0,L|243:202,1,87.499997329712,2|0,1:2|0:0,0:0:0:0:
128,93,35263,2,0,L|110:178,1,87.499997329712,2|0,0:0|0:0,0:0:0:0:
59,14,35524,2,0,L|0:79,1,87.499997329712,2|0,0:0|0:0,0:0:0:0:
0,79,35784,6,0,L|59:14,1,87.499997329712,2|0,1:2|0:0,0:0:0:0:
110,178,36045,2,0,L|128:93,1,87.499997329712,2|0,0:0|0:0,0:0:0:0:
243,202,36306,2,0,L|216:119,1,87.499997329712,2|0,0:0|0:0,0:0:0:0:
157,278,36567,5,0,1:0:0:0:
94,329,36697,2,0,B|83:305|54:307|54:307|141:279|127:354|214:329,1,212.500004053116,10|0,0:0|0:0,0:0:0:0:
391,270,37089,1,2,0:0:0:0:
479,329,37219,1,2,0:0:0:0:
329,371,37350,2,0,B|303:345|303:345|299:293|282:234,1,131.249995994568,8|0,0:0|0:0,0:0:0:0:
271,227,37610,5,2,0:0:0:0:
272,211,37697,1,2,0:0:0:0:
274,195,37784,1,2,0:0:0:0:
276,179,37871,2,0,L|284:108,1,46.8750017881394,2|0,0:0|0:0,0:0:0:0:
353,72,38132,5,6,1:2:0:0:
192,140,38263,2,0,L|1:116,1,174.999994659424,2|0,0:0|0:0,0:0:0:0:
18,118,38654,2,0,L|10:180,1,62.5,2|0,3:2|0:0,0:0:0:0:
0,350,38915,5,8,0:0:0:0:
135,269,39045,2,0,L|326:245,1,174.999994659424,2|0,0:0|0:0,0:0:0:0:
308,247,39437,2,0,L|317:326,1,62.5,2|0,0:0|0:0,0:0:0:0:
408,361,39697,5,0,1:0:0:0:
500,275,39828,2,0,B|503:221|454:194|454:194|425:168|434:107,1,174.999994659424,2|0,0:0|0:0,0:0:0:0:
381,14,40219,2,0,P|376:76|318:99,1,131.249995994568,0|0,3:0|0:0,0:0:0:0:
300,78,40480,2,0,B|255:61|255:61|220:80,1,87.499997329712,8|0,0:0|0:0,0:0:0:0:
127,31,40741,2,0,L|113:142,1,87.499997329712,0|0,3:0|0:0,0:0:0:0:
15,149,41002,2,0,L|4:62,1,87.499997329712,2|0,0:0|0:0,0:0:0:0:
197,187,41263,5,2,1:2:0:0:
197,187,41524,1,2,3:2:0:0:
151,268,41654,1,0,3:0:0:0:
266,353,41784,5,2,3:2:0:0:
239,271,41915,1,0,3:0:0:0:
418,290,42045,5,10,0:2:0:0:
331,277,42176,1,0,3:0:0:0:
430,134,42306,5,2,3:2:0:0:
375,202,42437,1,0,3:0:0:0:
484,211,42567,5,2,3:2:0:0:
293,150,42697,1,0,3:0:0:0:
113,99,42828,5,2,1:2:0:0:
108,130,43089,1,2,0:0:0:0:
103,160,43350,1,2,0:0:0:0:
110,271,43610,5,2,1:2:0:0:
88,262,43697,1,2,0:2:0:0:
64,263,43784,1,2,0:2:0:0:
43,274,43871,1,2,0:2:0:0:
83,344,44132,1,2,0:0:0:0:
218,357,44393,6,0,B|238:328|254:303|254:303|341:327|446:336,1,250,6|0,3:2|0:0,0:0:0:0:
436,335,45176,2,0,P|438:304|426:254,1,62.5,0|0,3:0|0:0,0:0:0:0:
305,203,45437,2,0,P|330:220|380:234,1,62.5,0|0,3:0|0:0,0:0:0:0:
484,155,45697,2,0,P|456:168|418:204,1,62.5,0|0,3:0|0:0,0:0:0:0:
239,263,45958,6,0,B|195:231|146:257|146:257|108:267|62:226,1,187.5,2|0,1:2|0:0,0:0:0:0:
1,272,46480,1,0,3:0:0:0:
1,272,46610,1,2,0:0:0:0:
25,110,46741,1,8,0:0:0:0:
25,110,47263,2,0,L|95:98,1,62.5,2|0,0:0|0:0,0:0:0:0:
149,5,47524,6,0,B|155:39|158:68|158:68|247:85|345:123,1,250,2|0,1:2|0:0,0:0:0:0:
336,120,48306,2,0,P|350:147|357:177,1,62.5,2|0,3:2|0:0,0:0:0:0:
434,163,48567,2,0,P|432:194|423:223,1,62.5,0|0,3:0|0:0,0:0:0:0:
498,251,48828,2,0,P|481:277|458:298,1,62.5,2|0,0:0|0:0,0:0:0:0:
232,384,49089,6,0,B|200:340|226:291|226:291|236:253|195:207,1,187.5,2|0,1:2|0:0,0:0:0:0:
121,188,49610,1,0,3:0:0:0:
121,188,49741,1,2,0:0:0:0:
247,140,49871,1,10,0:0:0:0:
247,140,50393,6,0,L|253:107,3,20.8333333333333,2|0|0|0,0:0|0:0|0:0|0:0,0:0:0:0:
286,35,50654,6,0,P|257:83|135:66,1,187.5,2|0,1:2|0:0,0:0:0:0:
44,71,51176,2,0,P|57:43|65:12,1,62.5,0|0,3:0|0:0,0:0:0:0:
59,184,51437,2,0,B|49:162|23:164|23:164|100:140|88:205|164:184,1,187.5,10|0,0:0|0:0,0:0:0:0:
224,132,51958,1,2,0:0:0:0:
224,132,52089,1,2,0:0:0:0:
238,243,52219,6,0,B|258:223|273:206|273:206|338:236|419:258,1,187.5,2|0,1:2|0:0,0:0:0:0:
480,212,52741,2,0,P|471:182|464:134,1,62.5,0|0,3:0|0:0,0:0:0:0:
489,337,53002,2,0,B|498:315|524:317|524:317|447:293|459:358|383:337,1,187.5,10|0,0:0|0:0,0:0:0:0:
288,366,53524,2,0,P|305:340|307:309,1,62.5,0|0,3:0|0:0,0:0:0:0:
143,142,53784,6,0,B|175:186|149:235|149:235|139:273|176:315,1,187.5,2|0,1:2|0:0,0:0:0:0:
239,245,54306,1,0,3:0:0:0:
74,198,54437,1,2,0:0:0:0:
74,198,54567,1,8,0:0:0:0:
197,78,54828,5,2,0:0:0:0:
369,115,55089,1,2,0:0:0:0:
307,309,55350,6,0,B|287:289|272:272|272:272|207:302|126:324,1,187.5,2|0,1:2|0:0,0:0:0:0:
75,380,55871,1,0,3:0:0:0:
75,380,56002,1,0,0:0:0:0:
72,258,56132,2,0,P|59:287|33:303,1,62.5,8|0,0:0|0:0,0:0:0:0:
132,185,56393,2,0,P|149:210|151:241,1,62.5,8|0,3:0|0:0,0:0:0:0:
111,103,56654,2,0,P|141:100|169:114,1,62.5,2|0,3:2|0:0,0:0:0:0:
0,61,56915,6,0,B|54:65|82:18|82:18|110:-9|165:0,1,187.5,6|0,1:2|0:0,0:0:0:0:
236,43,57437,2,0,P|306:63|320:78,1,62.5,0|0,3:0|0:0,0:0:0:0:
381,16,57697,2,0,L|393:77,1,62.5,8|0,0:0|0:0,0:0:0:0:
310,198,57958,2,0,L|322:136,1,62.5,2|0,0:0|0:0,0:0:0:0:
322,136,58219,2,0,L|310:198,1,62.5,2|0,0:0|0:0,0:0:0:0:
396,362,58480,6,0,L|475:371,1,62.5,2|0,1:2|0:0,0:0:0:0:
331,290,58741,1,0,0:0:0:0:
331,290,58871,1,0,0:0:0:0:
227,384,59002,2,0,L|289:376,1,62.5,0|0,3:0|0:0,0:0:0:0:
204,271,59263,2,0,L|65:252,2,125,10|0|0,0:0|0:0|0:0,0:0:0:0:
204,271,59915,1,0,0:0:0:0:
243,138,60045,6,0,P|248:169|255:199,1,62.5,2|0,1:2|0:0,0:0:0:0:
178,88,60306,2,0,P|148:77|118:68,1,62.5,2|0,0:0|0:0,0:0:0:0:
253,56,60567,2,0,P|276:35|299:14,1,62.5,0|0,3:0|0:0,0:0:0:0:
396,95,60828,6,0,B|376:115|359:130|359:130|389:195|411:276,1,187.5,10|0,0:0|0:0,0:0:0:0:
355,324,61350,2,0,L|413:346,1,62.5,2|0,0:0|0:0,0:0:0:0:
250,279,61610,2,0,L|308:256,1,62.5,2|0,1:2|0:0,0:0:0:0:
277,374,61871,1,2,0:0:0:0:
277,374,62002,1,0,0:0:0:0:
186,335,62132,2,0,L|127:312,1,62.5,2|0,3:2|0:0,0:0:0:0:
124,113,62393,5,10,0:0:0:0:
0,182,62654,2,0,P|29:173|59:163,1,62.5,2|0,0:0|0:0,0:0:0:0:
134,195,62915,2,0,P|157:216|180:237,1,62.5,2|0,0:0|0:0,0:0:0:0:
342,124,63176,6,0,P|311:126|284:142,1,62.5,2|0,1:2|0:0,0:0:0:0:
389,56,63437,1,0,0:0:0:0:
389,56,63567,1,0,0:0:0:0:
420,190,63697,2,0,P|433:162|432:131,1,62.5,2|0,3:2|0:0,0:0:0:0:
239,223,63958,6,0,B|275:262|328:247|328:247|367:246|401:290,1,187.5,10|0,0:0|0:0,0:0:0:0:
488,277,64480,2,0,P|481:309|465:359,1,62.5,2|0,0:0|0:0,0:0:0:0:
221,380,64741,6,0,P|212:349|205:319,1,62.5,2|0,1:2|0:0,0:0:0:0:
239,223,65002,1,2,0:0:0:0:
239,223,65132,1,0,0:0:0:0:
205,319,65263,2,0,P|212:349|221:380,1,62.5,2|0,3:2|0:0,0:0:0:0:
63,297,65524,6,0,B|91:295|113:295|113:295|135:227|172:152,1,187.5,10|0,0:0|0:0,0:0:0:0:
95,55,66045,2,0,P|101:92|109:135,1,62.5,2|0,0:0|0:0,0:0:0:0:
344,224,66306,6,0,P|321:203|298:182,1,62.5,2|0,1:2|0:0,0:0:0:0:
164,169,66567,2,0,P|193:159|223:149,1,62.5,2|0,0:0|0:0,0:0:0:0:
300,38,66828,2,0,P|292:68|287:99,1,62.5,2|0,3:2|0:0,0:0:0:0:
433,231,67089,6,0,B|397:270|344:255|344:255|305:254|271:298,1,187.5,10|0,0:0|0:0,0:0:0:0:
178,339,67610,2,0,P|208:357|230:372,1,62.5,2|0,0:0|0:0,0:0:0:0:
200,245,67871,5,2,1:2:0:0:
53,210,68002,2,0,P|51:148|78:91,1,125,10|0,0:0|0:0,0:0:0:0:
236,24,68393,6,0,P|263:38|278:65,1,62.5,2|0,3:2|0:0,0:0:0:0:
223,119,68654,2,0,P|195:104|180:77,1,62.5,10|0,0:0|0:0,0:0:0:0:
350,130,68915,5,8,3:0:0:0:
494,74,69045,1,0,3:0:0:0:
382,47,69176,5,4,3:0:0:0:
482,151,69306,1,0,3:0:0:0:
380,297,69437,6,0,L|125:265,1,243.749988842011,6|0,1:2|0:0,0:0:0:0:
51,246,69958,2,0,L|66:304,1,46.8750017881394,2|0,0:0|0:0,0:0:0:0:
26,101,70219,6,0,L|281:69,1,243.749988842011,10|0,0:0|0:0,0:0:0:0:
356,55,70741,2,0,L|341:113,1,46.8750017881394,2|0,0:0|0:0,0:0:0:0:
204,307,71002,6,0,P|165:295|137:266,1,62.5,2|0,1:2|0:0,0:0:0:0:
270,206,71263,2,0,P|267:237|276:267,1,62.5,0|0,3:0|0:0,0:0:0:0:
347,310,71524,2,0,P|375:283|414:273,1,62.5,0|0,3:0|0:0,0:0:0:0:
408,142,71784,6,0,B|369:142|350:108|350:108|331:88|300:92,1,125,10|0,0:0|0:0,0:0:0:0:
223,128,72176,1,2,0:0:0:0:
223,128,72306,1,2,0:0:0:0:
15,60,72567,6,0,B|35:66|53:70|53:70|58:127|73:192,1,156.25,2|0,1:2|0:0,0:0:0:0:
90,207,72958,2,0,P|90:245|81:297,1,62.5,0|0,3:0|0:0,0:0:0:0:
9,312,73219,1,2,0:0:0:0:
132,367,73350,2,0,L|292:340,2,125,10|0|0,0:0|0:0|0:0,0:0:0:0:
186,274,74002,1,2,0:0:0:0:
133,108,74132,6,0,L|156:20,1,62.5,2|0,1:2|0:0,0:0:0:0:
64,159,74393,1,2,0:0:0:0:
64,159,74524,1,0,0:0:0:0:
158,199,74654,2,0,L|259:183,1,62.5,2|0,3:2|0:0,0:0:0:0:
385,109,74915,6,0,P|372:70|343:42,1,62.5,10|0,0:0|0:0,0:0:0:0:
494,183,75176,2,0,P|463:186|433:178,1,62.5,0|0,3:0|0:0,0:0:0:0:
312,236,75437,2,0,P|325:208|347:186,1,62.5,0|0,3:0|0:0,0:0:0:0:
432,384,75697,6,0,L|177:352,1,243.749988842011,2|0,1:2|0:0,0:0:0:0:
116,317,76219,2,0,L|128:231,1,46.8750017881394,2|0,0:0|0:0,0:0:0:0:
0,194,76480,6,0,L|254:162,1,243.749988842011,10|0,0:0|0:0,0:0:0:0:
297,64,77002,2,0,L|304:111,1,46.8750017881394,2|0,0:0|0:0,0:0:0:0:
143,52,77263,6,0,P|98:45|43:39,1,62.5,2|0,1:2|0:0,0:0:0:0:
243,102,77524,2,0,P|288:109|343:115,1,62.5,2|0,0:0|0:0,0:0:0:0:
152,154,77784,2,0,P|145:198|139:254,1,62.5,2|0,0:0|0:0,0:0:0:0:
143,52,78045,1,10,0:0:0:0:
143,52,78306,5,8,3:0:0:0:
251,26,78437,1,0,3:0:0:0:
345,81,78567,1,4,3:0:0:0:
453,106,78697,1,0,3:0:0:0:
274,150,78828,6,0,P|322:230|329:332,1,162.499992561341,6|0,1:2|0:0,0:0:0:0:
274,357,79219,1,2,0:0:0:0:
255,144,79350,2,0,P|281:175|296:212,1,81.2499962806703,0|0,3:0|0:0,0:0:0:0:
99,320,79610,2,0,P|207:273|249:279,2,162.499992561341,10|2|0,0:0|0:0|0:0,0:0:0:0:
99,320,80263,1,0,0:0:0:0:
140,188,80393,6,0,P|154:110|107:46,1,162.499992561341,2|0,1:2|0:0,0:0:0:0:
11,44,80784,1,2,0:0:0:0:
162,201,80915,2,0,P|183:157|182:106,1,81.2499962806703,0|0,3:0|0:0,0:0:0:0:
42,279,81176,2,0,P|120:274|175:330,2,162.499992561341,10|8|0,0:0|3:0|3:0,0:0:0:0:
496,160,81958,6,0,P|416:168|356:221,1,162.499992561341,6|0,1:2|0:0,0:0:0:0:
23,122,82350,2,0,P|102:130|162:183,1,162.499992561341,6|0,1:2|0:0,0:0:0:0:
407,16,82741,2,0,P|342:62|316:138,1,162.499992561341,14|0,0:0|0:0,0:0:0:0:
132,0,83132,2,0,P|196:46|222:122,1,162.499992561341,14|0,0:0|0:0,0:0:0:0:
251,322,83524,5,14,0:0:0:0:
329,291,83784,5,0,1:0:0:0:
167,322,83915,1,0,3:0:0:0:
314,383,84045,5,0,1:0:0:0:
218,235,84176,1,0,3:0:0:0:
294,108,84306,2,0,P|334:114|371:129,1,81.2499962806703,8|0,0:0|0:0,0:0:0:0:
205,31,84567,5,0,1:0:0:0:
125,90,84697,1,0,3:0:0:0:
31,69,84828,1,0,1:0:0:0:
107,0,84958,1,0,3:0:0:0:
213,137,85089,6,0,B|214:187|170:212|170:212|143:237|150:289,1,162.499992561341,10|0,0:0|1:0,0:0:0:0:
81,323,85480,1,0,3:0:0:0:
201,350,85610,1,0,1:0:0:0:
302,285,85741,1,0,3:0:0:0:
409,304,85871,1,8,0:0:0:0:
409,304,86132,5,2,0:0:0:0:
417,292,86263,5,2,0:0:0:0:
395,297,86393,5,2,0:0:0:0:
413,317,86524,5,2,0:0:0:0:
495,201,86654,6,0,B|477:182|463:165|463:165|400:189|322:207,1,187.500007152558,6|0,1:2|0:0,0:0:0:0:
149,135,87045,1,2,0:0:0:0:
227,99,87176,2,0,L|247:199,1,93.7500035762788,2|0,3:2|0:0,0:0:0:0:
104,384,87437,6,0,B|140:367|140:367|162:221,1,187.500007152558,10|0,0:0|0:0,0:0:0:0:
103,31,87828,2,0,L|-7:51,2,93.7500035762788,0|0|2,3:0|0:0|0:0,0:0:0:0:
245,190,88219,6,0,B|299:187|325:235|325:235|352:263|407:256,1,187.5,2|0,1:2|0:0,0:0:0:0:
495,88,88610,1,2,0:0:0:0:
405,31,88741,2,0,L|391:123,1,93.7500035762788,2|0,3:2|0:0,0:0:0:0:
250,284,89002,6,0,B|158:272|168:349|70:327,1,187.500007152558,10|0,0:0|0:0,0:0:0:0:
10,176,89393,1,0,3:0:0:0:
0,269,89524,1,0,3:0:0:0:
86,229,89654,1,0,3:0:0:0:
227,99,89784,6,0,B|245:80|260:64|260:64|322:90|399:111,1,187.500007152558,2|0,1:2|0:0,0:0:0:0:
458,347,90176,1,2,0:0:0:0:
483,247,90306,2,0,P|436:252|392:268,1,93.7500035762788,2|0,3:2|0:0,0:0:0:0:
136,332,90567,6,0,P|47:343|0:268,1,187.500007152558,10|0,0:0|0:0,0:0:0:0:
230,185,90958,1,0,0:0:0:0:
230,185,91089,2,0,P|216:277|221:300,1,93.7500035762788,2|0,0:0|0:0,0:0:0:0:
315,72,91350,6,0,P|371:141|460:127,1,187.500007152558,2|0,1:2|0:0,0:0:0:0:
251,13,91741,1,2,0:0:0:0:
251,12,91871,2,0,P|215:43|166:55,1,93.7500035762788,2|0,3:2|0:0,0:0:0:0:
32,216,92132,6,0,P|52:173|60:127,1,93.7500035762788,10|0,0:0|0:0,0:0:0:0:
115,267,92393,2,0,P|152:239|183:204,1,93.7500035762788,0|0,3:0|0:0,0:0:0:0:
156,349,92654,2,0,P|202:344|246:328,1,93.7500035762788,0|0,3:0|0:0,0:0:0:0:
495,201,92915,6,0,B|477:182|463:165|463:165|400:189|322:207,1,187.500007152558,2|0,1:2|0:0,0:0:0:0:
421,67,93306,2,0,P|464:77|516:88,1,93.7500035762788,2|0,0:0|0:0,0:0:0:0:
317,16,93567,1,2,0:0:0:0:
317,16,93697,2,0,P|273:26|222:37,1,93.7500035762788,10|0,0:0|0:0,0:0:0:0:
112,128,93958,2,0,P|155:138|207:149,1,93.7500035762788,2|0,3:2|0:0,0:0:0:0:
1,27,94219,2,0,P|11:70|22:122,1,93.7500035762788,0|0,3:0|0:0,0:0:0:0:
53,368,94480,5,2,1:2:0:0:
19,283,94741,5,8,0:0:0:0:
157,318,94871,1,0,1:0:0:0:
59,359,95002,5,10,0:2:0:0:
229,278,95132,1,0,1:0:0:0:
119,234,95263,6,0,P|100:191|99:144,1,93.7500035762788,10|0,0:0|0:0,0:0:0:0:
261,17,95524,2,0,P|260:63|241:106,1,93.7500035762788,8|0,3:0|0:0,0:0:0:0:
407,241,95784,2,0,P|388:198|387:151,1,93.7500035762788,4|0,3:0|0:0,0:0:0:0:
330,321,96045,6,0,L|322:290,4,31.2500011920929,10|2|2|2|2,0:0|0:0|0:0|0:0|0:0,0:0:0:0:
404,362,96306,2,0,B|421:323|467:327|467:327|329:282|351:401|213:362,1,318.750006079674,14|0,0:0|0:0,0:0:0:0:
61,281,96828,6,0,L|69:250,4,31.2500011920929,10|2|2|2|2,0:0|0:0|0:0|0:0|0:0,0:0:0:0:
22,185,97089,2,0,B|51:205|71:238|71:238|177:194|309:170,1,318.750006079674,14|0,0:0|0:0,0:0:0:0:
498,3,97610,5,0,1:0:0:0:
498,3,97871,6,0,P|483:26|469:58,1,62.5,8|0,3:0|0:0,0:0:0:0:
386,64,98132,6,0,P|386:102|392:143,1,74.9999977111817,8|0,3:0|0:0,0:0:0:0:
247,150,98393,6,0,P|270:190|299:227,1,93.7500035762788,4|0,3:0|0:0,0:0:0:0:
91,107,98654,5,8,3:0:0:0:
51,191,98784,1,8,3:0:0:0:
55,284,98915,1,4,3:0:0:0:
126,345,99045,1,4,3:0:0:0:
309,384,99176,6,0,B|328:366|345:352|345:352|321:289|303:211,1,187.500007152558,6|0,1:2|0:0,0:0:0:0:
375,38,99567,1,0,3:0:0:0:
411,116,99697,1,2,3:2:0:0:
411,116,99828,1,0,3:0:0:0:
233,167,99958,2,0,P|247:116|261:57,1,93.7500035762788,10|0,0:0|0:0,0:0:0:0:
432,242,100219,5,8,3:0:0:0:
255,307,100350,1,0,3:0:0:0:
427,340,100480,5,4,3:0:0:0:
316,207,100610,1,0,3:0:0:0:
184,353,100741,6,0,B|166:334|152:317|152:317|89:341|11:359,1,187.500007152558,6|0,1:2|0:0,0:0:0:0:
58,144,101132,1,2,0:0:0:0:
129,204,101263,2,0,P|174:215|221:220,1,93.7500035762788,2|0,3:2|0:0,0:0:0:0:
168,21,101524,2,0,P|156:68|140:110,1,93.7500035762788,10|0,0:0|0:0,0:0:0:0:
373,228,101784,6,0,P|356:184|345:138,1,93.7500035762788,2|0,3:2|0:0,0:0:0:0:
460,305,102045,2,0,P|468:258|480:213,1,93.7500035762788,0|0,3:0|0:0,0:0:0:0:
396,375,102306,2,0,P|183:342|4:332,1,375.000014305115,6|0,1:2|3:0,0:0:0:0:
49,247,102958,1,0,0:0:0:0:
49,247,103089,2,0,P|91:267|110:309,1,93.7500035762788,10|0,0:0|0:0,0:0:0:0:
177,195,103350,2,0,P|181:149|155:111,1,93.7500035762788,2|0,3:2|0:0,0:0:0:0:
291,167,103610,2,0,P|317:129|313:83,1,93.7500035762788,2|0,3:2|0:0,0:0:0:0:
226,296,103871,6,0,B|244:277|258:260|258:260|321:284|399:302,1,187.500007152558,6|0,1:2|0:0,0:0:0:0:
497,183,104263,1,2,0:0:0:0:
411,125,104393,2,0,L|391:225,1,93.7500035762788,2|0,3:2|0:0,0:0:0:0:
241,103,104654,6,0,P|230:54|222:11,1,93.7500035762788,10|0,0:0|0:0,0:0:0:0:
140,131,104915,2,0,P|129:82|121:39,1,93.7500035762788,2|0,3:2|0:0,0:0:0:0:
42,156,105176,2,0,L|19:151,4,23.4375008940697,2|2|2|2|2,0:0|0:0|0:0|0:0|0:0,0:0:0:0:
100,266,105437,6,0,B|85:233|47:236|47:236|162:199|144:298|258:266,1,281.250010728836,6|0,1:2|0:0,0:0:0:0:
349,194,105958,2,0,P|362:149|351:104,1,93.7500035762788,2|0,3:2|0:0,0:0:0:0:
251,267,106219,2,0,P|205:277|172:309,1,93.7500035762788,10|0,0:0|0:0,0:0:0:0:
364,315,106480,2,0,P|395:348|440:361,1,93.7500035762788,2|0,3:2|0:0,0:0:0:0:
351,104,106741,2,0,P|362:149|349:194,1,93.7500035762788,2|0,0:0|0:0,0:0:0:0:
62,93,107002,5,8,3:0:0:0:
200,34,107132,1,0,3:0:0:0:
86,10,107263,5,2,3:0:0:0:
181,113,107393,1,0,3:0:0:0:
79,206,107524,2,0,P|66:250|76:296,1,93.7500035762788,2|0,3:2|0:0,0:0:0:0:
250,377,107784,6,0,B|309:378|339:325|339:325|369:293|432:301,1,187.500007152558,10|0,0:0|0:0,0:0:0:0:
495,150,108176,1,0,3:0:0:0:
495,244,108306,1,2,3:2:0:0:
414,197,108437,1,0,3:0:0:0:
300,21,108567,6,0,B|319:39|336:53|336:53|312:116|294:194,1,187.500007152558,6|0,1:2|0:0,0:0:0:0:
139,330,108958,2,0,B|120:312|103:298|103:298|127:235|145:157,1,187.500007152558,6|0,1:2|0:0,0:0:0:0:
397,286,109350,6,0,B|379:305|365:322|365:322|302:298|224:280,1,187.500007152558,14|0,0:0|0:0,0:0:0:0:
40,72,109741,2,0,B|58:53|72:36|72:36|135:60|213:78,1,187.500007152558,14|0,0:0|0:0,0:0:0:0:
220,181,110132,5,2,1:2:0:0:
128,147,110393,5,0,1:0:0:0:
307,219,110524,1,0,3:0:0:0:
166,251,110654,5,0,1:0:0:0:
291,119,110784,1,0,3:0:0:0:
441,204,110915,6,0,P|423:262|412:343,2,125,2|8|4,1:2|3:0|3:0,0:0:0:0:
434,57,111567,5,2,0:0:0:0:
434,57,111632,1,2,0:0:0:0:
434,57,111697,2,0,B|343:36|339:112|256:100,1,174.999994659424,6|0,1:2|0:0,0:0:0:0:
145,47,112089,1,2,0:0:0:0:
200,218,112219,2,0,P|180:180|196:114,1,87.499997329712,0|0,3:0|0:0,0:0:0:0:
57,261,112480,2,0,B|102:251|138:295|138:295|180:327|242:311,2,174.999994659424,10|2|2,0:0|0:0|0:0,0:0:0:0:
94,357,113132,5,0,0:0:0:0:
200,218,113263,2,0,B|232:194|232:194|186:64,1,174.999994659424,2|0,1:2|0:0,0:0:0:0:
106,33,113654,1,2,0:0:0:0:
106,33,113784,1,0,3:0:0:0:
275,93,113915,1,2,0:0:0:0:
399,27,114045,6,0,B|353:154|353:154|385:178,2,174.999994659424,10|2|2,0:0|0:0|0:0,0:0:0:0:
457,98,114697,1,2,0:0:0:0:
373,258,114828,5,2,1:2:0:0:
452,231,114958,1,0,3:2:0:0:
503,296,115089,1,0,3:2:0:0:
423,321,115219,1,0,3:2:0:0:
385,178,115350,6,0,P|383:135|354:102,1,87.499997329712,2|0,3:2|0:0,0:0:0:0:
139,190,115610,2,0,B|176:161|227:185|227:185|279:196|328:154,2,174.999994659424,10|2|2,0:0|0:0|0:0,0:0:0:0:
181,263,116263,1,0,0:0:0:0:
65,141,116393,6,0,P|70:97|75:54,1,87.499997329712,2|0,1:2|0:0,0:0:0:0:
249,16,116654,2,0,P|253:59|259:102,1,87.499997329712,10|0,0:0|0:0,0:0:0:0:
427,163,116915,2,0,P|432:119|437:76,1,87.499997329712,2|0,3:2|0:0,0:0:0:0:
249,16,117176,2,0,P|253:59|259:102,1,87.499997329712,10|0,0:0|0:0,0:0:0:0:
298,360,117437,5,8,3:0:0:0:
167,299,117567,1,8,3:0:0:0:
284,277,117697,5,8,3:0:0:0:
186,380,117828,1,8,3:0:0:0:
41,262,117958,6,0,P|11:183|59:85,1,174.999994659424,6|0,1:2|0:0,0:0:0:0:
211,56,118350,1,0,0:0:0:0:
116,0,118480,2,0,P|123:41|125:94,1,87.499997329712,2|0,3:2|0:0,0:0:0:0:
79,356,118741,6,0,B|103:324|103:324|233:370,2,174.999994659424,10|2|2,0:0|0:0|0:0,0:0:0:0:
16,296,119393,1,0,0:0:0:0:
74,154,119524,2,0,P|78:198|95:256,1,87.499997329712,2|0,1:2|0:0,0:0:0:0:
194,182,119784,6,0,P|206:139|223:99,1,87.499997329712,2|0,0:0|0:0,0:0:0:0:
302,181,120045,2,0,P|333:150|368:124,1,87.499997329712,2|0,3:2|0:0,0:0:0:0:
379,263,120306,2,0,P|470:323|457:389,2,174.999994659424,10|2|2,0:0|0:0|0:0,0:0:0:0:
252,378,120958,5,0,3:0:0:0:
184,306,121089,1,2,0:0:0:0:
160,303,121176,1,2,0:0:0:0:
137,300,121263,1,2,0:0:0:0:
114,297,121350,1,2,0:0:0:0:
90,294,121437,1,2,0:0:0:0:
18,181,121610,5,0,3:0:0:0:
18,181,121741,1,0,3:0:0:0:
117,103,121871,2,0,P|140:139|148:182,1,87.499997329712,10|0,0:0|0:0,0:0:0:0:
245,58,122132,2,0,P|247:101|232:142,1,87.499997329712,2|0,3:2|0:0,0:0:0:0:
375,114,122393,2,0,P|355:152|322:181,1,87.499997329712,2|0,0:0|0:0,0:0:0:0:
394,329,122654,6,0,L|381:286,3,43.749998664856,2|2|2|2,1:2|0:0|0:0|0:0,0:0:0:0:
461,370,122915,2,0,P|376:345|291:326,1,174.999994659424,10|0,0:0|0:0,0:0:0:0:
201,367,123306,1,2,0:0:0:0:
157,209,123437,6,0,P|191:235|215:272,1,87.499997329712,10|0,0:0|0:0,0:0:0:0:
100,154,123697,2,0,P|59:170|16:172,1,87.499997329712,2|0,3:2|0:0,0:0:0:0:
176,130,123958,2,0,P|181:86|201:47,1,87.499997329712,2|0,3:2|0:0,0:0:0:0:
409,158,124219,6,0,B|385:126|385:126|255:172,1,174.999994659424,6|0,1:2|0:0,0:0:0:0:
358,222,124610,1,2,0:0:0:0:
358,222,124741,1,0,3:0:0:0:
13,317,125002,6,0,B|37:285|37:285|167:331,1,174.999994659424,2|0,3:2|0:0,0:0:0:0:
64,381,125393,1,2,0:0:0:0:
64,381,125524,1,0,3:0:0:0:
104,10,125784,6,0,B|136:34|136:34|90:164,1,174.999994659424,2|0,1:2|0:0,0:0:0:0:
40,61,126176,1,2,0:0:0:0:
40,61,126306,1,0,3:0:0:0:
445,69,126567,6,0,B|413:93|413:93|459:223,1,174.999994659424,2|0,3:2|0:0,0:0:0:0:
509,120,126958,1,2,0:0:0:0:
371,213,127089,1,0,3:0:0:0:
371,213,127350,5,0,3:0:0:0:
281,181,127480,1,0,3:0:0:0:
353,230,127610,5,0,3:0:0:0:
263,198,127741,1,0,3:0:0:0:
335,247,127871,5,0,3:0:0:0:
245,215,128002,1,0,3:0:0:0:
267,295,128132,5,8,0:0:0:0:
201,140,128263,1,0,3:0:0:0:
155,297,128393,5,0,3:0:0:0:
165,213,128524,1,0,3:0:0:0:
62,289,128654,5,0,3:0:0:0:
87,255,128784,1,0,3:0:0:0:
108,79,128915,5,2,1:2:0:0:
75,69,129176,1,2,0:0:0:0:
42,59,129437,1,2,0:0:0:0:
201,140,129697,5,0,1:0:0:0:
234,130,129784,1,2,0:0:0:0:
267,120,129871,1,2,0:0:0:0:
300,110,129958,1,2,0:0:0:0:
225,49,130219,1,2,0:0:0:0:
468,10,130480,6,0,P|431:103|411:267,1,250,6|0,1:2|0:0,0:0:0:0:
410,250,131263,2,0,P|440:252|466:269,1,62.5,2|0,0:0|0:0,0:0:0:0:
390,332,131524,2,0,P|364:348|333:351,1,62.5,2|0,0:0|0:0,0:0:0:0:
269,253,131784,2,0,P|299:255|325:272,1,62.5,2|0,0:0|0:0,0:0:0:0:
243,363,132045,6,0,B|183:319|117:354|117:354|65:368|3:312,1,250,2|0,0:0|3:0,0:0:0:0:
11,319,132828,1,2,3:2:0:0:
187,159,133350,6,0,P|165:136|158:106,1,62.5,2|0,0:0|0:0,0:0:0:0:
56,26,133610,2,0,P|134:129|249:74,1,250,2|0,3:2|0:0,0:0:0:0:
233,97,134393,2,0,P|263:104|294:107,1,62.5,2|0,0:0|0:0,0:0:0:0:
372,155,134654,2,0,P|403:151|433:144,1,62.5,2|0,0:0|0:0,0:0:0:0:
256,204,134915,2,0,P|286:211|317:214,1,62.5,2|0,0:0|0:0,0:0:0:0:
512,335,135176,6,0,P|403:287|314:364,1,250,2|0,0:0|0:0,0:0:0:0:
314,364,135958,5,2,3:2:0:0:
14,247,136741,6,0,B|100:214|107:292|205:271,1,187.5,2|0,3:2|0:0,0:0:0:0:
256,218,137263,1,2,0:0:0:0:
256,218,137524,2,0,B|199:139|205:76|205:76|253:129|328:112,1,250,2|0,3:2|0:0,0:0:0:0:
358,65,138306,5,2,3:2:0:0:
435,113,138567,1,2,0:0:0:0:
422,203,138828,1,2,0:0:0:0:
464,307,139089,2,0,B|476:279|510:281|510:281|409:248|425:336|324:307,1,250,2|0,3:2|0:0,0:0:0:0:
255,247,139871,5,2,3:2:0:0:
255,247,140393,1,2,0:0:0:0:
189,288,140524,1,2,0:0:0:0:
134,233,140654,2,0,P|131:143|188:96,2,125,2|0|2,0:0|3:0|0:0,0:0:0:0:
92,18,141437,6,0,P|154:98|254:112,1,208.333333333333,2|0,3:2|0:0,0:0:0:0:
304,62,141958,1,2,0:0:0:0:
319,57,142045,1,2,0:0:0:0:
335,55,142132,1,2,0:0:0:0:
351,59,142219,2,0,P|392:134|385:159,1,62.5,10|0,0:0|0:0,0:0:0:0:
306,258,142480,5,8,3:0:0:0:
306,258,142610,1,0,3:0:0:0:
388,279,142741,1,4,3:0:0:0:
388,279,142871,1,0,3:0:0:0:
266,359,143002,6,0,B|246:339|231:322|231:322|166:352|85:374,1,187.5,6|0,1:2|0:0,0:0:0:0:
29,273,143524,2,0,P|26:311|22:354,1,62.5,2|0,3:2|0:0,0:0:0:0:
115,233,143784,1,10,0:0:0:0:
115,233,143915,1,0,0:0:0:0:
35,188,144045,2,0,P|32:156|29:125,1,62.5,2|0,0:0|0:0,0:0:0:0:
29,125,144306,2,0,P|32:156|35:187,1,62.5,2|0,0:0|0:0,0:0:0:0:
157,314,144567,6,0,P|218:323|277:343,1,125,2|0,1:2|0:0,0:0:0:0:
361,307,144958,1,0,0:0:0:0:
320,229,145089,1,2,3:2:0:0:
320,229,145350,6,0,P|267:162|326:98,1,187.5,10|0,0:0|0:0,0:0:0:0:
397,140,145871,2,0,P|469:165|486:163,1,62.5,2|0,0:0|0:0,0:0:0:0:
401,0,146132,6,0,P|396:30|391:61,1,62.5,2|0,1:2|0:0,0:0:0:0:
244,113,146393,2,0,P|239:82|234:51,1,62.5,2|0,0:0|0:0,0:0:0:0:
93,3,146654,2,0,P|88:33|83:64,1,62.5,2|0,3:2|0:0,0:0:0:0:
7,182,146915,6,0,B|61:177|89:224|89:224|117:252|177:241,1,187.5,10|0,0:0|0:0,0:0:0:0:
251,270,147437,2,0,P|264:333|261:349,1,62.5,2|0,0:0|0:0,0:0:0:0:
307,200,147697,6,0,B|327:180|342:163|342:163|407:193|488:215,1,187.5,2|0,1:2|0:0,0:0:0:0:
372,264,148219,1,2,3:2:0:0:
372,264,148480,6,0,P|362:190|360:150,1,62.5,10|0,0:0|0:0,0:0:0:0:
303,142,148741,2,0,P|274:129|244:118,1,62.5,2|0,0:0|0:0,0:0:0:0:
385,118,149002,2,0,P|409:99|434:79,1,62.5,2|0,3:2|0:0,0:0:0:0:
317,0,149263,5,2,1:2:0:0:
317,0,149524,1,2,0:0:0:0:
250,39,149654,1,2,0:0:0:0:
181,6,149784,2,0,P|150:12|120:20,1,62.5,2|0,3:2|0:0,0:0:0:0:
22,77,150045,6,0,B|42:97|59:112|59:112|29:177|7:258,1,187.5,10|0,0:0|0:0,0:0:0:0:
141,296,150567,1,2,0:0:0:0:
141,296,150697,1,2,0:0:0:0:
66,379,150828,2,0,P|62:347|53:302,1,62.5,2|0,1:2|0:0,0:0:0:0:
150,234,151089,2,0,P|144:264|140:295,1,62.5,2|0,0:0|0:0,0:0:0:0:
231,383,151350,2,0,P|227:351|218:306,1,62.5,2|0,3:2|0:0,0:0:0:0:
249,181,151610,6,0,B|299:199|343:169|343:169|364:127|417:119,1,187.5,10|0,0:0|0:0,0:0:0:0:
478,175,152132,2,0,P|472:205|469:249,1,62.5,2|0,0:0|0:0,0:0:0:0:
329,362,152393,6,0,P|359:369|388:379,1,62.5,6|0,1:2|0:0,0:0:0:0:
227,259,152654,2,0,P|257:267|287:277,1,62.5,0|0,3:0|0:0,0:0:0:0:
107,322,152915,2,0,P|137:329|166:339,1,62.5,0|0,3:0|0:0,0:0:0:0:
44,241,153176,6,0,B|64:221|81:206|81:206|51:141|29:60,1,187.5,10|0,0:0|0:0,0:0:0:0:
89,9,153697,2,0,P|112:11|177:15,1,62.5,2|0,3:2|0:0,0:0:0:0:
361,77,153958,5,2,1:2:0:0:
311,143,154089,2,0,P|241:157|181:173,1,125,10|0,0:0|0:0,0:0:0:0:
135,233,154480,2,0,P|144:272|152:301,1,62.5,2|0,3:2|0:0,0:0:0:0:
319,380,154741,5,8,3:0:0:0:
346,271,154871,1,0,3:0:0:0:
404,348,155002,5,4,3:0:0:0:
266,286,155132,1,0,3:0:0:0:
408,193,155263,2,0,P|415:223|422:253,1,62.5,2|0,3:2|0:0,0:0:0:0:
492,84,155524,6,0,B|467:108|449:128|449:128|371:92|274:65,1,243.749988842011,6|0,1:2|0:0,0:0:0:0:
209,25,156045,2,0,P|199:46|199:69,1,46.8750017881394,2|0,0:0|0:0,0:0:0:0:
0,210,156306,6,0,B|24:234|42:254|42:254|120:218|217:191,1,243.749988842011,10|0,0:0|0:0,0:0:0:0:
283,151,156828,2,0,P|292:172|292:195,1,46.8750017881394,2|0,0:0|0:0,0:0:0:0:
249,347,157089,6,0,P|279:349|311:354,1,62.5,2|0,1:2|0:0,0:0:0:0:
140,275,157350,2,0,P|171:277|201:282,1,62.5,0|0,3:0|0:0,0:0:0:0:
44,335,157610,2,0,P|75:337|105:342,1,62.5,0|0,3:0|0:0,0:0:0:0:
0,252,157871,1,10,0:0:0:0:
0,252,158393,2,0,P|8:218|17:176,1,62.5,2|0,0:0|0:0,0:0:0:0:
26,85,158654,6,0,P|89:127|166:122,1,156.25,2|0,1:2|0:0,0:0:0:0:
185,102,159045,2,0,P|230:96|247:78,1,62.5,0|0,3:0|0:0,0:0:0:0:
266,5,159306,1,2,0:0:0:0:
374,69,159437,2,0,L|361:193,2,125,10|0|0,0:0|0:0|0:0,0:0:0:0:
286,146,160089,1,2,0:0:0:0:
406,270,160219,6,0,L|477:253,1,62.5,2|0,1:2|0:0,0:0:0:0:
343,370,160480,2,0,L|414:353,1,62.5,2|0,0:0|0:0,0:0:0:0:
266,278,160741,5,2,3:2:0:0:
266,278,160871,1,0,3:0:0:0:
266,278,161002,2,0,L|256:345,1,62.5,10|0,0:0|0:0,0:0:0:0:
152,382,161263,2,0,L|161:320,1,62.5,0|0,3:0|0:0,0:0:0:0:
69,262,161524,2,0,L|59:329,1,62.5,0|0,3:0|0:0,0:0:0:0:
0,179,161784,6,0,B|24:154|42:134|42:134|120:170|217:197,1,243.749988842011,2|0,1:2|0:0,0:0:0:0:
292,193,162306,2,0,P|291:216|282:237,1,46.8750017881394,2|0,0:0|0:0,0:0:0:0:
512,60,162567,6,0,B|487:35|469:15|469:15|391:51|294:78,1,243.749988842011,10|0,0:0|0:0,0:0:0:0:
219,74,163089,2,0,P|219:97|228:118,1,46.8750017881394,2|0,0:0|0:0,0:0:0:0:
368,284,163350,6,0,P|398:279|429:281,1,62.5,2|0,1:2|0:0,0:0:0:0:
292,330,163610,2,0,P|280:359|263:384,1,62.5,2|0,0:0|0:0,0:0:0:0:
291,241,163871,2,0,P|271:216|258:188,1,62.5,2|0,0:0|0:0,0:0:0:0:
367,284,164132,1,10,0:0:0:0:
121,342,164393,5,8,3:0:0:0:
55,282,164524,1,0,3:0:0:0:
136,264,164654,1,4,3:0:0:0:
202,319,164784,1,0,3:0:0:0:
348,235,164915,6,0,P|396:155|403:53,1,162.499992561341,6|0,1:2|0:0,0:0:0:0:
348,28,165306,1,2,0:0:0:0:
329,241,165437,2,0,P|355:210|370:173,1,81.2499962806703,0|0,3:0|0:0,0:0:0:0:
173,65,165697,2,0,P|281:112|323:106,2,162.499992561341,10|2|0,0:0|0:0|0:0,0:0:0:0:
173,65,166350,1,0,0:0:0:0:
75,156,166480,6,0,P|61:234|108:298,1,162.499992561341,2|0,1:2|0:0,0:0:0:0:
204,300,166871,1,2,0:0:0:0:
53,143,167002,2,0,P|32:187|33:238,1,81.2499962806703,0|0,3:0|0:0,0:0:0:0:
173,65,167263,2,0,P|95:70|40:14,2,162.499992561341,10|8|0,0:0|3:0|3:0,0:0:0:0:
320,229,168045,6,0,P|353:312|381:402,1,162.499992561341,6|0,1:2|0:0,0:0:0:0:
315,143,168437,2,0,P|398:110|488:82,1,162.499992561341,6|0,1:2|0:0,0:0:0:0:
192,155,168828,2,0,P|159:72|131:-18,1,162.499992561341,14|0,0:0|0:0,0:0:0:0:
197,241,169219,2,0,P|114:274|24:302,1,162.499992561341,14|0,0:0|0:0,0:0:0:0:
256,192,169610,5,10,0:0:0:0:
192,155,169871,5,0,1:0:0:0:
320,229,170002,1,0,3:0:0:0:
197,241,170132,5,0,1:0:0:0:
314,144,170263,1,0,3:0:0:0:
225,38,170393,2,0,P|140:24|71:86,1,162.499992561341,8|0,0:0|1:0,0:0:0:0:
91,265,170784,5,0,3:0:0:0:
0,212,170915,1,0,1:0:0:0:
91,159,171045,1,0,3:0:0:0:
205,320,171176,6,0,B|255:321|280:277|280:277|305:250|357:257,1,162.499992561341,10|0,0:0|1:0,0:0:0:0:
434,344,171567,1,0,3:0:0:0:
461,224,171697,1,0,1:0:0:0:
396,123,171828,1,0,3:0:0:0:
415,16,171958,1,8,0:0:0:0:
415,16,172219,5,2,0:0:0:0:
423,4,172350,5,2,0:0:0:0:
401,9,172480,5,2,0:0:0:0:
419,29,172610,5,2,0:0:0:0:
490,155,172741,6,0,P|394:232|280:163,1,187.500007152558,6|0,1:2|0:0,0:0:0:0:
172,103,173132,1,2,0:0:0:0:
266,49,173263,2,0,P|278:98|289:151,1,93.7500035762788,2|0,3:2|0:0,0:0:0:0:
65,281,173524,6,0,B|83:262|97:245|97:245|160:269|238:287,1,187.500007152558,10|0,0:0|0:0,0:0:0:0:
416,359,173915,2,0,L|391:268,2,93.7500035762788,2|0|2,3:2|0:0|3:2,0:0:0:0:
302,73,174306,6,0,B|321:91|338:105|338:105|314:168|296:246,1,187.500007152558,2|0,1:2|0:0,0:0:0:0:
225,362,174697,2,0,L|128:383,1,93.7500035762788,2|2,0:0|3:2,0:0:0:0:
76,110,174958,5,0,0:0:0:0:
6,236,175089,2,0,B|35:192|89:190|89:190|130:212|178:187,1,187.5,10|0,0:0|0:0,0:0:0:0:
331,55,175480,5,0,3:0:0:0:
330,166,175610,1,0,3:0:0:0:
233,111,175741,1,0,3:0:0:0:
496,162,175871,6,0,B|478:143|464:126|464:126|401:150|323:168,1,187.500007152558,2|0,1:2|0:0,0:0:0:0:
233,280,176263,1,2,0:0:0:0:
336,358,176393,2,0,P|344:311|345:252,1,93.7500035762788,2|0,3:2|0:0,0:0:0:0:
222,20,176654,6,0,P|159:127|72:94,1,187.500007152558,10|0,0:0|0:0,0:0:0:0:
0,64,177045,1,2,3:2:0:0:
0,64,177176,1,2,3:2:0:0:
93,4,177306,1,2,3:2:0:0:
23,185,177437,6,0,B|10:236|45:277|45:277|90:292|104:344,1,187.5,2|0,1:2|0:0,0:0:0:0:
23,360,177828,1,2,0:0:0:0:
129,231,177958,2,0,P|176:239|230:243,1,93.7500035762788,2|0,3:2|0:0,0:0:0:0:
512,251,178219,6,0,P|492:208|484:162,1,93.7500035762788,10|0,0:0|0:0,0:0:0:0:
429,302,178480,2,0,P|392:274|361:239,1,93.7500035762788,0|0,3:0|0:0,0:0:0:0:
388,384,178741,2,0,P|342:379|298:363,1,93.7500035762788,0|0,3:0|0:0,0:0:0:0:
23,185,179002,6,0,B|41:166|55:149|55:149|118:173|196:191,1,187.500007152558,2|0,1:2|0:0,0:0:0:0:
336,103,179393,1,2,0:0:0:0:
237,27,179524,2,0,P|238:78|247:133,1,93.7500035762788,0|2,0:0|0:0,0:0:0:0:
408,258,179784,6,0,P|363:234|311:213,1,93.7500035762788,10|0,0:0|0:0,0:0:0:0:
122,317,180045,2,0,P|165:290|208:255,1,93.7500035762788,2|0,3:2|0:0,0:0:0:0:
244,120,180306,2,0,P|238:73|237:27,1,93.7500035762788,0|0,3:0|0:0,0:0:0:0:
154,154,180567,5,8,3:0:0:0:
316,226,180697,1,0,3:0:0:0:
256,118,180828,5,4,3:0:0:0:
209,268,180958,1,0,3:0:0:0:
327,374,181089,2,0,P|419:332|427:302,1,93.7500035762788,2|0,1:2|0:0,0:0:0:0:
220,274,181350,2,0,P|128:316|120:346,1,93.7500035762788,10|0,0:0|0:0,0:0:0:0:
340,384,181610,2,0,P|432:342|440:312,1,93.7500035762788,2|0,1:2|0:0,0:0:0:0:
483,193,181871,1,8,3:0:0:0:
483,193,182002,1,8,3:0:0:0:
396,112,182132,5,10,0:0:0:0:
398,120,182197,1,2,0:0:0:0:
402,128,182263,1,2,0:0:0:0:
407,135,182328,1,2,0:0:0:0:
414,142,182393,2,0,B|431:103|477:107|477:107|339:62|361:181|223:142,1,318.750006079674,14|0,0:0|0:0,0:0:0:0:
81,257,182915,5,10,0:0:0:0:
70,260,182980,1,2,0:0:0:0:
59,262,183045,1,2,0:0:0:0:
48,261,183110,1,2,0:0:0:0:
38,256,183176,2,0,B|67:236|87:203|87:203|193:247|325:271,1,318.750006079674,14|0,0:0|0:0,0:0:0:0:
500,373,183697,5,0,1:0:0:0:
500,373,183958,6,0,P|468:306|484:277,1,62.5,8|0,3:0|0:0,0:0:0:0:
442,216,184219,6,0,P|344:232|337:245,1,74.9999977111817,8|0,3:0|0:0,0:0:0:0:
251,321,184480,6,0,P|223:220|254:180,1,93.7500035762788,4|0,3:0|0:0,0:0:0:0:
218,60,184741,5,8,3:0:0:0:
137,36,184871,1,8,3:0:0:0:
57,62,185002,1,4,3:0:0:0:
0,125,185132,1,4,3:0:0:0:
115,341,185263,6,0,B|133:322|147:305|147:305|210:329|288:347,1,187.500007152558,6|0,1:2|0:0,0:0:0:0:
481,306,185654,1,0,3:0:0:0:
364,188,185784,2,0,P|359:234|355:281,2,93.7500035762788,2|0|10,3:2|3:0|0:0,0:0:0:0:
430,137,186176,1,0,0:0:0:0:
327,89,186306,5,8,3:0:0:0:
176,123,186437,1,0,3:0:0:0:
176,123,186567,1,4,3:0:0:0:
30,161,186697,1,0,3:0:0:0:
186,38,186828,6,0,B|205:56|222:70|222:70|198:133|180:211,1,187.500007152558,6|0,1:2|0:0,0:0:0:0:
273,384,187219,1,2,0:0:0:0:
306,280,187350,2,0,L|187:299,1,93.7500035762788,2|0,3:2|0:0,0:0:0:0:
6,332,187610,1,10,0:0:0:0:
35,108,187871,5,2,3:2:0:0:
6,213,188002,1,0,3:0:0:0:
111,241,188132,1,0,3:0:0:0:
139,137,188263,1,0,3:0:0:0:
305,19,188393,6,0,B|286:37|269:51|269:51|293:114|311:192,1,187.500007152558,6|0,1:2|0:0,0:0:0:0:
253,341,188784,1,0,3:0:0:0:
253,341,188915,1,0,3:0:0:0:
223,238,189045,1,0,3:0:0:0:
364,281,189176,2,0,L|470:254,1,93.7500035762788,10|0,0:0|0:0,0:0:0:0:
252,340,189437,6,0,L|162:317,1,93.7500035762788,2|0,3:2|0:0,0:0:0:0:
0,234,189697,2,0,L|90:210,1,93.7500035762788,2|0,3:2|0:0,0:0:0:0:
283,34,189958,6,0,B|290:58|295:80|295:80|363:86|441:104,1,187.500007152558,6|0,1:2|0:0,0:0:0:0:
477,254,190350,1,2,0:0:0:0:
374,268,190480,2,0,L|399:169,1,93.7500035762788,2|0,3:2|0:0,0:0:0:0:
224,261,190741,6,0,P|235:310|243:353,1,93.7500035762788,10|0,0:0|0:0,0:0:0:0:
120,245,191002,2,0,P|131:294|139:337,1,93.7500035762788,2|0,3:2|0:0,0:0:0:0:
30,209,191263,2,0,L|7:204,4,23.4375008940697,2|2|2|2|2,0:0|0:0|0:0|0:0|0:0,0:0:0:0:
101,150,191524,6,0,B|108:126|113:104|113:104|181:98|259:80,1,187.500007152558,6|0,1:2|0:0,0:0:0:0:
427,154,191915,1,0,0:0:0:0:
363,25,192045,2,0,P|348:70|337:115,1,93.7500035762788,2|0,3:2|0:0,0:0:0:0:
398,296,192306,6,0,P|379:252|355:212,1,93.7500035762788,10|0,0:0|0:0,0:0:0:0:
226,353,192567,2,0,P|254:315|276:274,1,93.7500035762788,2|0,3:2|0:0,0:0:0:0:
125,194,192828,2,0,P|171:199|218:198,1,93.7500035762788,2|0,0:0|0:0,0:0:0:0:
101,9,193089,5,8,3:0:0:0:
35,124,193219,1,0,3:0:0:0:
7,32,193350,5,2,3:0:0:0:
140,102,193480,1,0,3:0:0:0:
106,21,193610,5,2,3:2:0:0:
40,136,193741,1,0,3:0:0:0:
93,253,193871,2,0,B|144:266|185:231|185:231|200:186|252:172,1,187.5,10|0,0:0|0:0,0:0:0:0:
409,239,194263,1,0,3:0:0:0:
313,337,194393,2,0,P|284:300|275:254,1,93.7500035762788,2|0,3:2|3:0,0:0:0:0:
421,1,194654,6,0,P|463:83|459:179,1,187.500007152558,6|0,1:2|0:0,0:0:0:0:
91,383,195045,2,0,P|48:300|53:205,1,187.500007152558,6|0,1:2|0:0,0:0:0:0:
478,256,195437,6,0,P|427:334|342:377,1,187.500007152558,14|0,0:0|0:0,0:0:0:0:
34,128,195828,2,0,P|84:49|169:6,1,187.500007152558,14|0,0:0|0:0,0:0:0:0:
317,224,196219,6,0,B|335:183|383:187|383:187|238:140|261:265|115:224,1,349.999989318848,6|0,1:2|3:0,0:0:0:0:
52,169,196871,1,0,0:0:0:0:
52,169,197002,2,0,P|43:126|59:100,1,74.9999977111817,10|0,0:0|0:0,0:0:0:0:
141,20,197263,2,0,P|157:53|147:88,1,74.9999977111817,2|0,0:0|0:0,0:0:0:0:
234,189,197524,2,0,P|225:146|240:119,1,74.9999977111817,2|0,0:0|0:0,0:0:0:0:
326,41,197784,5,2,1:2:0:0:
326,41,198045,5,2,0:0:0:0:
401,128,198176,1,2,3:2:0:0:
401,128,198437,5,2,0:0:0:0:
363,222,198567,1,2,3:2:0:0:
363,222,198828,5,2,0:0:0:0:
414,315,198958,1,2,3:2:0:0:
414,315,199219,5,2,0:0:0:0:
352,381,199350,2,0,L|228:360,1,125,10|0,0:0|0:0,0:0:0:0:
178,296,199741,1,2,0:0:0:0:
152,297,199871,1,2,0:0:0:0:
127,298,200002,1,2,0:0:0:0:
63,348,200132,5,2,3:2:0:0:
18,231,200393,1,2,0:0:0:0:
87,126,200654,1,2,0:0:0:0:
42,58,200915,6,0,P|95:88|157:89,1,125,2|0,1:2|0:0,0:0:0:0:
239,50,201306,2,0,L|232:112,1,62.5,2|0,0:0|0:0,0:0:0:0:
222,194,201567,1,0,0:0:0:0:
222,194,201697,2,0,P|304:222|353:194,1,125,10|0,0:0|0:0,0:0:0:0:
403,158,202089,2,0,L|388:90,1,62.5,2|0,0:0|0:0,0:0:0:0:
403,158,202350,1,2,0:0:0:0:
492,188,202480,6,0,P|431:272|426:358,1,187.5,6|0,1:2|0:0,0:0:0:0:
353,311,203002,1,2,0:0:0:0:
353,311,203132,1,2,0:0:0:0:
353,310,203263,2,0,P|400:270|479:293,2,125,10|2|2,0:0|0:0|0:0,0:0:0:0:
353,311,203915,1,0,0:0:0:0:
280,367,204045,6,0,L|200:357,1,62.5,2|0,1:2|0:0,0:0:0:0:
166,289,204306,1,0,0:0:0:0:
104,297,204437,2,0,L|183:287,1,62.5,2|0,3:2|0:0,0:0:0:0:
224,216,204697,1,0,0:0:0:0:
286,224,204828,2,0,L|206:214,1,62.5,10|0,0:0|0:0,0:0:0:0:
163,156,205089,1,2,0:0:0:0:
181,77,205219,1,2,0:0:0:0:
181,77,205610,5,2,3:2:0:0:
291,45,205741,1,2,0:0:0:0:
291,45,206002,5,2,0:0:0:0:
401,77,206132,1,2,3:2:0:0:
401,77,206393,5,2,0:0:0:0:
451,160,206524,1,2,3:2:0:0:
451,160,206784,5,2,0:0:0:0:
416,243,206915,1,2,3:2:0:0:
416,243,207176,5,2,1:2:0:0:
356,183,207306,2,0,P|302:153|241:160,1,125,10|0,0:0|3:0,0:0:0:0:
184,223,207697,2,0,P|188:260|198:296,1,62.5,2|0,0:0|0:0,0:0:0:0:
103,195,207958,2,0,P|111:166|120:112,1,62.5,10|0,0:0|0:0,0:0:0:0:
26,239,208219,5,2,0:0:0:0:
27,246,208284,1,2,0:0:0:0:
28,254,208350,1,2,0:0:0:0:
29,262,208415,1,2,0:0:0:0:
30,270,208480,1,2,0:0:0:0:
31,278,208545,1,2,0:0:0:0:
32,286,208610,1,2,0:0:0:0:
33,294,208676,1,2,0:0:0:0:
34,302,208741,6,0,B|135:255|147:369|253:311,1,187.5,6|0,1:2|0:0,0:0:0:0:
267,260,209263,2,0,P|263:226|247:193,1,62.5,2|0,3:2|0:0,0:0:0:0:
346,304,209524,1,10,0:0:0:0:
346,304,209784,6,0,P|425:346|448:368,1,62.5,2|0,0:0|0:0,0:0:0:0:
378,228,210045,2,0,P|457:270|480:292,1,62.5,2|0,0:0|0:0,0:0:0:0:
499,189,210306,2,0,P|444:159|384:139,1,125,2|0,1:2|0:0,0:0:0:0:
292,100,210697,1,2,0:0:0:0:
292,100,210828,2,0,L|307:169,1,62.5,2|0,3:2|0:0,0:0:0:0:
365,46,211089,1,10,0:0:0:0:
365,46,211350,6,0,P|340:29|294:16,1,62.5,2|0,0:0|0:0,0:0:0:0:
166,63,211610,2,0,P|195:56|237:33,1,62.5,2|0,0:0|0:0,0:0:0:0:
77,7,211871,2,0,P|61:126|41:199,1,187.5,2|0,1:2|0:0,0:0:0:0:
112,241,212393,2,0,P|87:263|37:282,1,62.5,2|0,3:2|0:0,0:0:0:0:
155,327,212654,6,0,P|188:340|228:361,1,62.5,10|0,0:0|0:0,0:0:0:0:
237,247,212915,2,0,P|259:274|283:312,1,62.5,2|0,0:0|0:0,0:0:0:0:
348,219,213176,2,0,P|353:254|355:299,1,62.5,2|0,0:0|0:0,0:0:0:0:
436,330,213437,6,0,P|491:256|485:164,1,187.5,2|0,1:2|0:0,0:0:0:0:
434,99,213958,2,0,L|372:108,1,62.5,2|0,3:2|0:0,0:0:0:0:
177,63,214219,5,10,0:0:0:0:
284,122,214350,1,2,0:0:0:0:
254,45,214480,6,0,L|281:40,4,15.625,2|2|2|2|2,0:0|0:0|0:0|0:0|0:0,0:0:0:0:
197,146,214741,5,2,3:2:0:0:
118,190,214871,1,0,3:0:0:0:
325,325,215002,6,0,P|357:388|353:413,1,62.5,6|0,1:2|0:0,0:0:0:0:
245,295,215263,2,0,P|174:291|154:275,1,62.5,2|0,3:2|0:0,0:0:0:0:
310,239,215524,2,0,P|348:179|372:170,1,62.5,2|0,3:2|0:0,0:0:0:0:
339,186,215784,2,0,P|318:209|309:239,1,62.5,2|0,3:2|0:0,0:0:0:0:
356,377,216045,1,2,1:2:0:0:
185,296,216176,1,2,3:2:0:0:
245,295,216306,2,0,P|174:291|154:275,1,62.5,14|0,0:0|0:0,0:0:0:0:
222,113,216567,6,0,P|303:71|336:76,1,81.2499962806703,2|0,1:2|0:0,0:0:0:0:
183,216,216828,2,0,P|178:307|157:333,1,81.2499962806703,2|0,3:2|0:0,0:0:0:0:
111,133,217089,2,0,P|34:82|22:52,1,81.2499962806703,2|0,3:2|0:0,0:0:0:0:
42,95,217350,2,0,P|72:121|111:133,1,81.2499962806703,2|0,3:2|0:0,0:0:0:0:
290,72,217610,1,2,1:2:0:0:
184,295,217741,1,2,3:2:0:0:
183,216,217871,2,0,P|178:307|157:333,1,81.2499962806703,14|0,0:0|0:0,0:0:0:0:
340,354,218132,5,2,0:0:0:0:
355,347,218219,1,2,0:0:0:0:
366,358,218306,1,2,0:0:0:0:
381,353,218393,1,2,0:0:0:0:
390,365,218480,1,2,0:0:0:0:
405,360,218567,1,2,0:0:0:0:
418,369,218654,2,0,P|469:308|466:229,2,162.499992561341,10|2|2,0:0|1:2|1:2,0:0:0:0:
358,63,219437,6,0,P|334:95|296:105,1,81.2499962806703,6|0,1:2|0:0,0:0:0:0:
286,30,219697,2,0,P|353:118|186:260,1,375.000014305115,6|0,3:2|0:0,0:0:0:0:
192,262,221002,5,2,3:2:0:0:
105,33,221263,1,10,0:0:0:0:
256,192,221393,12,0,222828,0:0:0:0:
128,103,234567,6,0,L|187:79,1,46.8750017881394,8|0,3:0|0:0,0:0:0:0:
234,133,234828,2,0,L|226:196,1,46.8750017881394,0|0,3:0|0:0,0:0:0:0:
155,209,235089,2,0,L|105:171,1,46.8750017881394,4|0,3:0|0:0,0:0:0:0:
234,133,235350,6,0,P|296:127|356:140,1,125,6|0,1:2|0:0,0:0:0:0:
451,141,235741,2,0,P|434:168|424:197,1,62.5,2|0,0:0|3:0,0:0:0:0:
424,197,236002,1,2,0:0:0:0:
335,260,236132,2,0,B|382:251|408:316|445:307,2,125,10|2|2,0:0|0:0|0:0,0:0:0:0:
335,260,236784,1,2,0:0:0:0:
275,202,236915,5,2,1:2:0:0:
210,320,237045,2,0,P|148:329|90:353,2,125,2|2|2,0:0|0:0|0:0,0:0:0:0:
210,320,237697,1,2,3:2:0:0:
48,192,237958,6,0,P|39:222|27:250,1,62.5,2|0,0:0|0:0,0:0:0:0:
122,145,238219,2,0,P|129:175|133:206,1,62.5,2|0,0:0|0:0,0:0:0:0:
241,155,238480,2,0,P|204:105|160:61,2,125,2|2|2,1:2|0:0|0:0,0:0:0:0:
241,247,239132,5,2,3:2:0:0:
241,247,239263,1,8,0:0:0:0:
372,288,239524,1,2,0:0:0:0:
460,184,239784,1,2,0:0:0:0:
326,86,240045,6,0,P|250:88|154:126,1,125,2|0,1:2|0:0,0:0:0:0:
144,157,240437,1,2,0:0:0:0:
144,157,240567,2,0,L|133:236,1,62.5,2|0,0:0|0:0,0:0:0:0:
77,83,240828,1,2,3:2:0:0:
77,83,241437,5,2,0:0:0:0:
64,82,241524,1,2,0:0:0:0:
54,86,241610,2,0,P|32:101|11:129,1,62.5,2|0,1:2|0:0,0:0:0:0:
37,225,241871,2,0,P|39:252|52:283,1,62.5,2|0,3:2|0:0,0:0:0:0:
136,346,242132,2,0,P|160:357|194:361,1,62.5,2|0,3:2|0:0,0:0:0:0:
37,225,242393,6,0,P|39:252|52:283,1,62.5,2|0,1:2|0:0,0:0:0:0:
136,346,242654,2,0,P|160:357|194:361,1,62.5,2|0,1:2|0:0,0:0:0:0:
310,316,242915,2,0,P|331:300|352:273,1,62.5,6|0,1:2|0:0,0:0:0:0:
136,346,243176,6,0,P|160:357|194:361,1,62.5,6|0,1:2|0:0,0:0:0:0:
310,316,243437,2,0,P|331:300|352:273,1,62.5,2|0,3:2|0:0,0:0:0:0:
395,142,243697,2,0,P|392:114|379:83,1,62.5,2|0,3:2|0:0,0:0:0:0:
310,316,243958,6,0,P|334:297|353:272,1,62.5,2|0,1:2|0:0,0:0:0:0:
395,142,244219,2,0,P|392:114|379:83,1,62.5,2|0,1:2|0:0,0:0:0:0:
267,15,244480,2,0,P|242:3|208:-1,1,62.5,6|0,1:2|0:0,0:0:0:0:
64,189,244741,5,2,1:2:0:0:
211,148,244871,1,14,0:0:0:0:
136,169,245263,5,14,0:0:0:0:
65,100,245524,5,2,1:2:0:0:
206,237,245654,1,10,0:0:0:0:
136,169,246045,5,14,0:0:0:0:
168,46,246306,5,2,1:2:0:0:
104,292,246437,2,0,L|122:351,1,62.5,14|0,0:0|0:0,0:0:0:0:
390,351,246697,2,0,L|408:292,1,62.5,14|0,0:0|0:0,0:0:0:0:
316,174,246958,5,2,3:2:0:0:
316,174,247089,2,0,L|188:189,2,125,10|0|0,0:2|3:0|3:0,0:0:0:0:
53,48,247871,5,6,1:2:0:0:
53,48,248002,1,0,3:0:0:0:
141,88,248132,1,0,3:0:0:0:
141,88,248263,1,0,3:0:0:0:
58,141,248393,2,0,P|32:180|28:226,1,93.7500035762788,0|0,3:0|0:0,0:0:0:0:
132,372,248654,5,2,1:2:0:0:
182,304,248784,1,0,3:0:0:0:
260,271,248915,1,0,3:0:0:0:
342,283,249045,1,0,3:0:0:0:
402,342,249176,2,0,P|457:258|449:228,1,93.7500035762788,0|0,3:0|0:0,0:0:0:0:
465,127,249437,5,2,1:2:0:0:
443,145,249567,1,0,3:0:0:0:
416,155,249697,1,0,3:0:0:0:
388,151,249828,1,0,3:0:0:0:
317,97,249958,2,0,P|316:51|348:18,1,93.7500035762788,0|0,3:0|0:0,0:0:0:0:
98,147,250219,5,10,3:2:0:0:
225,207,250350,1,0,3:0:0:0:
193,111,250480,1,2,3:2:0:0:
133,238,250610,1,0,3:0:0:0:
205,307,250741,1,2,3:2:0:0:
205,307,250871,1,0,3:0:0:0:
301,278,251002,5,2,1:2:0:0:
407,366,251132,1,2,3:2:0:0:
489,308,251263,1,0,3:0:0:0:
494,281,251393,1,0,3:0:0:0:
498,254,251524,1,0,3:0:0:0:
501,227,251654,1,0,3:0:0:0:
383,177,251784,5,10,0:0:0:0:
380,150,251915,1,0,3:0:0:0:
376,123,252045,1,2,3:2:0:0:
371,96,252176,1,0,3:0:0:0:
367,68,252306,1,2,3:2:0:0:
363,40,252437,1,0,3:0:0:0:
450,53,252567,5,2,1:2:0:0:
289,123,252697,1,2,3:2:0:0:
205,116,252828,1,0,3:0:0:0:
151,180,252958,1,0,3:0:0:0:
85,126,253089,1,0,3:0:0:0:
74,209,253219,1,0,3:0:0:0:
101,166,253350,5,8,3:2:0:0:
87,163,253480,1,0,3:0:0:0:
196,249,253610,5,8,3:0:0:0:
155,270,253741,1,0,3:0:0:0:
325,172,253871,5,4,3:0:0:0:
246,149,254002,1,0,3:0:0:0:
385,342,254132,5,6,1:2:0:0:
413,338,254263,1,0,3:0:0:0:
437,324,254393,1,0,3:0:0:0:
456,303,254524,1,0,3:0:0:0:
425,226,254654,2,0,P|457:135|470:133,1,93.7500035762788,0|0,3:0|0:0,0:0:0:0:
362,35,254915,5,2,1:2:0:0:
321,108,255045,1,0,3:0:0:0:
246,149,255176,1,0,3:0:0:0:
161,147,255306,1,0,3:0:0:0:
97,90,255437,2,0,P|100:44|131:10,1,93.7500035762788,0|0,3:0|0:0,0:0:0:0:
4,235,255697,5,4,1:2:0:0:
4,235,255828,1,0,3:0:0:0:
76,179,255958,1,0,3:0:0:0:
76,179,256089,1,0,3:0:0:0:
160,240,256219,2,0,P|166:285|151:330,1,93.7500035762788,0|0,3:0|0:0,0:0:0:0:
370,364,256480,5,2,1:2:0:0:
418,294,256610,1,0,3:0:0:0:
380,218,256741,1,0,3:0:0:0:
406,138,256871,1,0,3:0:0:0:
382,56,257002,1,0,3:0:0:0:
423,124,257132,1,0,3:0:0:0:
306,248,257263,5,6,1:2:0:0:
224,266,257393,1,0,3:0:0:0:
153,218,257524,1,0,3:0:0:0:
153,218,257654,1,0,3:0:0:0:
71,200,257784,1,0,3:0:0:0:
0,248,257915,1,0,3:0:0:0:
108,336,258045,5,8,3:2:0:0:
91,329,258176,1,0,3:0:0:0:
98,311,258306,1,0,3:0:0:0:
116,317,258437,1,0,3:0:0:0:
270,352,258567,5,6,1:2:0:0:
313,368,258697,1,0,3:0:0:0:
385,349,258828,1,12,3:2:0:0:
422,262,258958,1,0,3:0:0:0:
374,170,259089,1,0,3:0:0:0:
396,19,259219,5,8,3:0:0:0:
483,146,259350,1,0,3:0:0:0:
502,51,259480,5,4,3:0:0:0:
332,97,259610,1,0,3:0:0:0:
332,97,259871,5,2,0:0:0:0:
340,85,260002,5,2,0:0:0:0:
318,90,260132,5,2,0:0:0:0:
336,110,260263,5,2,0:0:0:0:
242,26,260393,6,0,B|236:51|232:73|232:73|166:83|89:106,1,187.500007152558,6|0,1:2|0:0,0:0:0:0:
3,231,260784,1,2,3:2:0:0:
104,203,260915,1,2,3:2:0:0:
34,42,261045,1,0,3:0:0:0:
205,180,261176,6,0,B|253:158|299:186|299:186|322:227|375:232,1,187.5,10|0,0:0|0:0,0:0:0:0:
502,144,261567,1,2,3:2:0:0:
382,36,261697,2,0,P|392:81|404:127,1,93.7500035762788,0|2,0:0|3:2,0:0:0:0:
341,373,261958,6,0,L|155:346,1,187.500007152558,2|0,1:2|0:0,0:0:0:0:
39,168,262350,1,2,3:2:0:0:
53,270,262480,1,2,3:2:0:0:
154,256,262610,1,0,3:0:0:0:
427,228,262741,2,0,B|408:246|393:262|393:262|331:235|255:213,2,187.500007152558,10|0|0,0:0|0:0|3:0,0:0:0:0:
478,299,263393,1,0,3:0:0:0:
433,25,263524,6,0,P|392:111|273:108,1,187.500007152558,2|0,1:2|0:0,0:0:0:0:
137,22,263915,1,2,3:2:0:0:
137,128,264045,1,2,3:2:0:0:
228,75,264176,1,0,3:0:0:0:
24,222,264306,6,0,B|42:203|57:187|57:187|119:214|195:236,1,187.500007152558,10|0,0:0|0:0,0:0:0:0:
392,352,264697,1,2,3:2:0:0:
257,383,264828,2,0,P|272:335|295:275,1,93.7500035762788,2|2,3:2|3:2,0:0:0:0:
406,23,265089,6,0,B|384:71|412:117|412:117|453:140|458:193,1,187.5,2|0,1:2|0:0,0:0:0:0:
508,81,265480,1,2,0:0:0:0:
364,194,265610,2,0,P|317:186|271:182,1,93.7500035762788,2|0,3:2|0:0,0:0:0:0:
0,113,265871,6,0,P|20:70|28:24,1,93.7500035762788,10|0,0:0|0:0,0:0:0:0:
83,164,266132,2,0,P|120:136|151:101,1,93.7500035762788,0|0,3:0|0:0,0:0:0:0:
124,246,266393,2,0,P|170:241|214:225,1,93.7500035762788,0|0,3:0|0:0,0:0:0:0:
0,369,266654,6,0,B|19:351|34:335|34:335|96:362|172:384,1,187.500007152558,2|0,1:2|0:0,0:0:0:0:
351,278,267045,1,2,3:2:0:0:
351,377,267176,1,2,3:2:0:0:
264,327,267306,1,2,3:2:0:0:
456,189,267437,6,0,P|490:219|506:263,1,93.7500035762788,10|0,0:0|0:0,0:0:0:0:
413,81,267697,2,0,P|455:-3|480:-15,1,93.7500035762788,2|0,3:2|0:0,0:0:0:0:
340,168,267958,2,0,P|246:173|223:157,1,93.7500035762788,0|0,3:0|0:0,0:0:0:0:
61,37,268219,5,8,3:0:0:0:
29,155,268350,1,0,3:0:0:0:
147,187,268480,1,4,3:0:0:0:
178,69,268610,1,0,3:0:0:0:
104,112,268741,1,2,1:2:0:0:
104,112,268871,1,0,0:0:0:0:
123,322,269002,6,0,P|88:290|68:248,1,93.7500035762788,10|0,0:0|0:0,0:0:0:0:
250,272,269263,2,0,P|260:226|286:187,1,93.7500035762788,2|0,1:2|0:0,0:0:0:0:
371,333,269524,2,0,P|415:319|462:322,1,93.7500035762788,8|8,3:0|3:0,0:0:0:0:
505,120,269784,5,10,0:0:0:0:
505,110,269850,1,2,0:0:0:0:
506,100,269915,1,2,0:0:0:0:
506,90,269980,1,2,0:0:0:0:
506,81,270045,2,0,P|364:16|217:66,1,318.750006079674,14|0,0:0|0:0,0:0:0:0:
7,266,270567,5,10,0:0:0:0:
8,276,270632,1,2,0:0:0:0:
9,286,270697,1,2,0:0:0:0:
10,296,270763,1,2,0:0:0:0:
11,307,270828,2,0,P|152:371|299:321,1,318.750006079674,14|0,0:0|0:0,0:0:0:0:
256,192,271350,5,0,1:0:0:0:
256,192,271610,6,0,P|283:176|297:148,1,62.5,8|0,3:0|0:0,0:0:0:0:
143,173,271871,6,0,P|143:219|169:258,1,93.7500035762788,8|0,3:0|0:0,0:0:0:0:
329,51,272132,6,0,P|283:25|231:28,1,106.250002026558,4|0,3:0|0:0,0:0:0:0:
298,347,272393,5,8,3:0:0:0:
395,320,272524,1,8,3:0:0:0:
444,232,272654,1,4,3:0:0:0:
447,131,272784,1,4,3:0:0:0:
226,51,272915,6,0,B|178:29|132:57|132:57|109:98|56:103,1,187.5,6|0,1:2|0:0,0:0:0:0:
48,19,273306,1,0,3:0:0:0:
170,152,273437,2,0,L|155:253,2,93.7500035762788,2|0|10,3:2|3:0|0:0,0:0:0:0:
170,152,273828,1,0,0:0:0:0:
304,274,273958,5,8,3:0:0:0:
466,210,274089,1,0,3:0:0:0:
335,157,274219,5,4,3:0:0:0:
439,319,274350,1,0,3:0:0:0:
277,377,274480,2,0,L|38:347,1,187.500007152558,6|0,1:2|0:0,0:0:0:0:
68,273,274871,1,2,0:0:0:0:
128,26,275002,1,2,3:2:0:0:
128,26,275263,5,10,0:0:0:0:
199,91,275393,1,2,3:2:0:0:
106,159,275524,2,0,P|58:153|3:138,1,93.7500035762788,2|0,3:2|3:0,0:0:0:0:
191,242,275784,2,0,P|239:236|294:221,1,93.7500035762788,0|0,3:0|3:0,0:0:0:0:
443,3,276045,6,0,B|424:21|408:36|408:36|435:98|457:174,1,187.500007152558,6|0,1:2|0:0,0:0:0:0:
372,247,276437,1,0,3:0:0:0:
488,362,276567,2,0,P|496:307|520:247,2,93.7500035762788,0|0|10,3:0|3:0|0:0,0:0:0:0:
251,363,276958,5,0,0:0:0:0:
345,375,277089,2,0,L|233:361,1,93.7500035762788,2|0,3:2|0:0,0:0:0:0:
63,285,277350,2,0,L|156:296,1,93.7500035762788,2|0,3:2|0:0,0:0:0:0:
307,75,277610,6,0,B|329:123|301:169|301:169|260:192|255:245,1,187.5,6|0,1:2|0:0,0:0:0:0:
326,293,278002,1,2,0:0:0:0:
326,293,278132,1,2,3:2:0:0:
175,201,278263,1,0,0:0:0:0:
391,127,278393,6,0,P|430:102|445:59,1,93.7500035762788,10|0,0:0|0:0,0:0:0:0:
229,95,278654,2,0,P|227:48|197:13,1,93.7500035762788,2|0,3:2|0:0,0:0:0:0:
73,131,278915,2,0,L|40:112,4,23.4375008940697,2|2|2|2|2,0:0|0:0|0:0|0:0|0:0,0:0:0:0:
193,227,279176,6,0,B|206:195|244:198|244:198|131:161|149:258|36:227,1,281.250010728836,6|0,1:2|0:0,0:0:0:0:
260,274,279697,2,0,P|285:368|280:384,1,93.7500035762788,2|0,3:2|0:0,0:0:0:0:
386,243,279958,6,0,P|466:195|483:199,1,93.7500035762788,10|0,0:0|0:0,0:0:0:0:
329,143,280219,2,0,P|336:97|368:64,1,93.7500035762788,2|0,3:2|0:0,0:0:0:0:
220,105,280480,2,0,P|203:61|214:17,1,93.7500035762788,2|0,0:0|0:0,0:0:0:0:
25,198,280741,5,8,3:0:0:0:
202,267,280871,1,0,3:0:0:0:
155,155,281002,5,2,3:0:0:0:
86,299,281132,1,0,3:0:0:0:
256,377,281263,2,0,P|297:362|321:295,1,93.7500035762788,2|0,3:2|3:0,0:0:0:0:
214,17,281524,6,0,P|203:61|220:105,1,93.7500035762788,10|0,0:0|0:0,0:0:0:0:
368,64,281784,2,0,P|336:97|329:143,1,93.7500035762788,0|0,0:0|3:0,0:0:0:0:
459,194,282045,2,0,P|415:207|386:243,1,93.7500035762788,2|0,3:2|3:0,0:0:0:0:
45,364,282306,6,0,L|231:341,1,187.500007152558,6|0,1:2|0:0,0:0:0:0:
467,20,282697,2,0,L|280:42,1,187.500007152558,6|0,1:2|0:0,0:0:0:0:
55,0,283089,6,0,L|77:186,1,187.500007152558,14|0,0:0|0:0,0:0:0:0:
457,384,283480,2,0,L|434:197,1,187.500007152558,14|0,0:0|0:0,0:0:0:0:
256,192,283871,5,6,1:2:0:0:
256,192,284132,2,0,P|291:214|330:225,1,81.2499962806703,2|0,3:2|0:0,0:0:0:0:
162,242,284393,2,0,P|126:260|97:289,1,81.2499962806703,2|0,3:2|0:0,0:0:0:0:
172,143,284654,2,0,P|185:27|231:-9,2,162.499992561341,2|2|2,3:2|0:0|0:0,0:0:0:0:
255,191,285306,1,2,0:0:0:0:
186,315,285437,6,0,P|101:274|9:257,1,187.5,2|0,0:0|0:0,0:0:0:0:
141,254,285958,2,0,P|118:274|109:304,1,62.5,2|0,0:0|0:0,0:0:0:0:
232,379,286219,1,2,0:0:0:0:
232,379,286350,2,0,P|254:358|263:328,2,62.5,2|0|0,0:0|0:0|0:0,0:0:0:0:
256,192,287002,12,0,288306,0:0:0:0:
256,192,288565,6,0,L|315:199,1,50,2|0,0:0|0:0,0:0:0:0:
401,155,289033,1,0,0:0:0:0:
407,110,289268,1,0,0:0:0:0:
378,79,289502,1,0,0:0:0:0:
333,75,289756,1,0,0:0:0:0:
235,25,290010,6,0,P|187:60|129:75,2,100,2|0|0,0:0|0:0|0:0,0:0:0:0:
266,123,291260,1,0,0:0:0:0:
302,149,291510,2,0,P|329:194|338:252,1,100,2|0,0:0|0:0,0:0:0:0:
275,296,292260,1,0,0:0:0:0:
241,270,292510,1,0,0:0:0:0:
197,259,292777,1,0,0:0:0:0:
135,328,293045,6,0,P|114:319|73:315,1,50,2|0,0:0|0:0,0:0:0:0:
22,354,293566,1,0,0:0:0:0:
22,354,294074,1,0,0:0:0:0:
96,209,294554,6,0,P|71:173|66:164,1,50,2|0,0:0|0:0,0:0:0:0:
108,104,295030,2,0,L|126:47,1,50,0|0,0:0|0:0,0:0:0:0:
210,54,295517,6,0,L|231:105,1,50,2|0,0:0|0:0,0:0:0:0:
291,155,296012,2,0,L|281:209,1,50
222,253,296516,1,0,0:0:0:0:
246,290,296766,1,0,0:0:0:0:
288,301,297016,1,0,0:0:0:0:
331,288,297272,1,0,0:0:0:0:
353,254,297528,5,2,0:0:0:0:
256,192,297672,12,0,303008,0:0:0:0:
