osu file format v14

[General]
AudioFilename: audio.mp3
AudioLeadIn: 0
PreviewTime: 60050
Countdown: 0
SampleSet: Soft
StackLeniency: 0.7
Mode: 0
LetterboxInBreaks: 0
WidescreenStoryboard: 0

[Editor]
Bookmarks: 71193,82336
DistanceSpacing: 0.4
BeatDivisor: 4
GridSize: 4
TimelineZoom: 1.1

[Metadata]
Title:FEARLESS HERO (TV Size)
TitleUnicode:FEARLESS HERO (TV Size)
Artist:Mizuki Nana
ArtistUnicode:水樹奈々
Creator:kunka
Version:apple's Extra
Source:DOG DAYS'
Tags:opening Little CloudSplash16 Akitoshi Corinn -laura- Shunao ShogunMoon Momochikun Kurantemelodii krt Firis Mistlud sekaii sekai-nyan Yasaija 714 Guy appleeaterx kunkakunkakunkakunka
BeatmapID:1673021
BeatmapSetID:786603

[Difficulty]
HPDrainRate:7
CircleSize:4
OverallDifficulty:8.3
ApproachRate:9.3
SliderMultiplier:1.8
SliderTickRate:1

[Events]
//Background and Video events
0,0,"BG.jpg",0,0
Video,0,"FEARLESS HERO.avi"
//Break Periods
//Storyboard Layer 0 (Background)
//Storyboard Layer 1 (Fail)
//Storyboard Layer 2 (Pass)
//Storyboard Layer 3 (Foreground)
//Storyboard Sound Samples

[TimingPoints]
2965,342.857142857143,4,2,1,40,1,0
4165,-100,4,2,1,70,0,0
14793,-100,4,2,1,5,0,0
14879,-100,4,2,1,50,0,0
15050,-100,4,2,1,5,0,0
15136,-100,4,2,1,50,0,0
15222,-100,4,2,1,5,0,0
15307,-181.818181818182,4,2,2,45,0,0
24393,-181.818181818182,4,2,1,60,0,0
25422,-100,4,2,1,60,0,0
26107,-117.647058823529,4,2,1,60,0,0
26279,-117.647058823529,4,2,1,55,0,0
31765,-117.647058823529,4,2,1,60,0,0
34507,-117.647058823529,4,2,1,70,0,0
37250,-117.647058823529,4,2,1,60,0,0
42736,-107.52688172043,4,2,1,50,0,0
56450,-107.52688172043,4,2,1,70,0,0
60393,-250,4,2,1,80,0,0
60736,-100,4,2,1,80,0,0
71365,-250,4,2,1,80,0,0
71879,-100,4,2,1,80,0,0
82336,-100,4,2,1,70,0,0

[Colours]
Combo1 : 255,128,255
Combo2 : 128,255,128
Combo3 : 128,255,255
Combo4 : 255,128,128
Combo5 : 255,255,128

[HitObjects]
316,178,3822,6,0,L|299:253,1,45,0|0,0:0|0:0,0:0:0:0:
376,314,3993,2,0,L|389:255,1,45,0|0,0:0|0:0,0:0:0:0:
222,168,4165,6,0,P|276:100|365:100,1,180,6|2,0:0|0:0,0:0:0:0:
237,359,4679,2,0,L|135:337,1,90,8|0,0:0|0:0,0:0:0:0:
38,113,5022,1,2,0:0:0:0:
163,246,5193,1,2,0:0:0:0:
163,246,5279,1,8,0:0:0:0:
163,246,5365,1,8,0:0:0:0:
37,376,5536,6,0,P|8:296|61:216,1,180,2|2,0:0|0:0,0:0:0:0:
162,41,6050,2,0,L|132:151,1,90,8|0,0:0|0:0,0:0:0:0:
286,261,6393,1,2,0:0:0:0:
286,261,6479,1,8,0:0:0:0:
286,261,6564,1,2,0:0:0:0:
363,85,6736,1,8,0:0:0:0:
234,173,6907,6,0,B|298:160|298:160|349:179|349:179|418:169,1,180,2|2,0:0|0:0,0:0:0:0:
138,127,7422,1,8,0:0:0:0:
464,97,7593,6,0,B|502:149|502:149|468:269,1,180,2|2,0:0|0:0,0:0:0:0:
421,14,8107,1,8,0:0:0:0:
235,348,8279,6,0,P|293:294|397:312,1,180,6|2,0:0|0:0,0:0:0:0:
234,173,8793,2,0,L|130:153,1,90,8|2,0:0|0:0,0:0:0:0:
52,126,9050,1,2,0:0:0:0:
63,138,9136,2,0,L|46:201,1,45,10|2,0:0|0:0,0:0:0:0:
153,297,9307,2,0,L|164:253,1,45,2|8,0:0|0:0,0:0:0:0:
248,70,9479,1,8,0:0:0:0:
248,70,9565,1,2,0:0:0:0:
248,70,9650,6,0,P|318:102|326:211,1,180,6|2,0:0|0:0,0:0:0:0:
231,365,10165,2,0,L|337:341,1,90,8|0,0:0|0:0,0:0:0:0:
493,234,10507,1,2,0:0:0:0:
413,382,10679,1,2,0:0:0:0:
413,382,10765,1,8,0:0:0:0:
413,382,10851,1,8,0:0:0:0:
178,162,11022,1,2,0:0:0:0:
253,44,11193,5,8,0:0:0:0:
312,316,11365,1,2,0:0:0:0:
184,187,11536,1,8,0:0:0:0:
444,115,11707,1,2,0:0:0:0:
220,294,11879,5,8,0:0:0:0:
220,294,11965,1,2,0:0:0:0:
220,294,12050,2,0,L|207:363,1,45,2|2,0:0|0:0,0:0:0:0:
32,228,12222,1,8,0:0:0:0:
32,228,12307,1,2,0:0:0:0:
32,228,12393,6,0,P|100:172|200:201,1,180,6|2,0:0|0:0,0:0:0:0:
375,377,12907,1,8,0:0:0:0:
383,331,12992,1,2,0:0:0:0:
392,287,13078,1,2,0:0:0:0:
400,243,13164,1,2,0:0:0:0:
410,200,13250,2,0,L|463:188,1,45,8|2,0:0|0:0,0:0:0:0:
210,67,13422,2,0,L|157:55,1,45,2|2,0:0|0:0,0:0:0:0:
332,30,13593,1,8,0:0:0:0:
332,30,13679,1,0,0:0:0:0:
332,30,13765,6,0,L|295:220,1,180,6|8,0:0|0:0,0:0:0:0:
256,372,14279,1,2,0:0:0:0:
225,357,14364,1,0,0:0:0:0:
195,342,14450,1,8,0:0:0:0:
165,327,14536,1,8,0:0:0:0:
135,312,14622,6,0,L|5:339,1,90,8|0,0:3|0:0,0:0:0:0:
100,211,14879,6,0,L|-5:231,1,90,8|0,0:3|0:0,0:0:0:0:
51,117,15136,6,0,L|-12:130,1,45,8|0,0:3|0:0,0:0:0:0:
211,58,15307,6,0,P|268:102|350:90,1,148.500004531861,6|0,0:0|0:0,0:0:0:0:
460,66,15993,2,0,L|401:47,2,49.5000015106202,2|0|0,0:0|0:0|0:0,0:0:0:0:
340,95,16507,1,0,0:0:0:0:
340,95,16679,6,0,P|375:154|370:200,1,99.0000030212403,0|0,0:0|0:0,0:0:0:0:
374,182,17193,1,0,0:0:0:0:
275,260,17365,2,0,L|342:247,1,49.5000015106202,2|0,0:0|0:0,0:0:0:0:
429,320,17707,2,0,L|362:307,1,49.5000015106202,0|0,0:0|0:0,0:0:0:0:
203,209,18050,6,0,L|176:317,1,99.0000030212403,0|0,0:0|0:0,0:0:0:0:
110,338,18565,1,0,0:0:0:0:
55,159,18736,1,2,0:0:0:0:
128,184,18907,2,0,L|58:196,1,49.5000015106202,0|0,0:0|0:0,0:0:0:0:
213,15,19250,1,0,0:0:0:0:
278,63,19422,6,0,L|265:117,1,49.5000015106202,2|0,0:0|0:0,0:0:0:0:
327,154,19679,1,0,0:0:0:0:
325,163,19765,2,0,L|313:211,1,49.5000015106202,0|0,0:0|0:0,0:0:0:0:
105,342,20107,1,2,0:0:0:0:
173,299,20279,1,0,0:0:0:0:
250,324,20450,2,0,L|235:385,1,49.5000015106202,0|0,0:0|0:0,0:0:0:0:
328,296,20793,6,0,P|392:308|428:348,1,99.0000030212403,0|0,0:0|0:0,0:0:0:0:
486,282,21307,1,0,0:0:0:0:
388,188,21479,1,2,0:0:0:0:
460,204,21650,2,0,L|412:212,1,49.5000015106202,0|0,0:0|0:0,0:0:0:0:
303,41,21993,1,0,0:0:0:0:
366,94,22165,6,0,L|464:74,1,99.0000030212403,0|0,0:0|0:0,0:0:0:0:
303,41,22679,1,0,0:0:0:0:
285,120,22850,2,0,L|270:174,1,49.5000015106202,2|0,0:0|0:0,0:0:0:0:
152,264,23193,1,0,0:0:0:0:
72,236,23365,1,0,0:0:0:0:
84,312,23536,6,0,L|188:292,1,99.0000030212403,0|0,0:0|0:0,0:0:0:0:
244,240,24050,1,0,0:0:0:0:
368,368,24222,1,2,0:0:0:0:
412,160,24393,1,8,0:3:0:0:
256,256,24565,1,8,0:3:0:0:
372,351,24736,1,0,0:0:0:0:
260,138,24907,5,8,0:0:0:0:
223,138,24992,1,8,0:0:0:0:
188,150,25078,1,8,0:0:0:0:
159,174,25164,1,0,0:0:0:0:
140,205,25249,1,8,0:0:0:0:
91,37,25422,6,0,P|62:93|64:138,1,90,6|0,0:0|0:0,0:0:0:0:
171,292,25765,1,8,0:0:0:0:
37,212,25936,1,8,0:0:0:0:
120,373,26107,1,8,0:0:0:0:
120,373,26193,1,8,0:0:0:0:
120,373,26279,6,0,P|180:326|260:340,1,153.000002918243,2|2,0:0|0:0,0:0:0:0:
336,374,26793,1,0,0:0:0:0:
300,129,26965,1,2,0:0:0:0:
222,163,27136,2,0,P|205:204|203:246,1,76.5000014591217,0|2,0:0|0:0,0:0:0:0:
375,64,27479,1,0,0:0:0:0:
375,64,27565,1,0,0:0:0:0:
375,64,27650,6,0,P|392:105|394:147,1,76.5000014591217,2|0,0:0|0:0,0:0:0:0:
345,251,27993,1,2,0:0:0:0:
483,155,28165,1,0,0:0:0:0:
416,314,28336,2,0,L|505:298,1,76.5000014591217,2|0,0:0|0:0,0:0:0:0:
300,129,28679,1,2,0:0:0:0:
222,163,28850,1,0,0:0:0:0:
222,163,28936,1,0,0:0:0:0:
222,163,29022,6,0,L|130:147,1,76.5000014591217,2|0,0:0|0:0,0:0:0:0:
22,290,29365,1,2,0:0:0:0:
99,358,29536,2,0,P|118:311|119:280,1,76.5000014591217,0|2,0:0|0:0,0:0:0:0:
66,109,29879,2,0,P|47:156|46:187,1,76.5000014591217,0|2,0:0|0:0,0:0:0:0:
211,339,30222,1,0,0:0:0:0:
293,295,30393,6,0,L|375:285,1,76.5000014591217,2|0,0:0|0:0,0:0:0:0:
376,294,30650,1,0,0:0:0:0:
383,303,30736,1,2,0:0:0:0:
345,162,30907,2,0,L|333:214,1,38.2500007295609,0|0,0:0|0:0,0:0:0:0:
315,82,31079,5,2,0:0:0:0:
351,72,31164,1,0,0:0:0:0:
388,81,31250,1,0,0:0:0:0:
416,107,31336,1,0,0:0:0:0:
429,142,31421,5,2,0:0:0:0:
453,144,31506,1,0,0:0:0:0:
475,138,31592,1,0,0:0:0:0:
493,122,31678,1,0,0:0:0:0:
499,98,31765,6,0,L|464:262,1,153.000002918243,6|2,0:0|0:0,0:0:0:0:
502,338,32279,1,0,0:0:0:0:
311,251,32450,2,0,P|352:230|406:230,1,76.5000014591217,2|0,0:0|0:0,0:0:0:0:
317,384,32793,2,0,P|279:378|246:359,1,76.5000014591217,2|0,0:0|0:0,0:0:0:0:
31,117,33136,5,6,0:0:0:0:
201,237,33307,1,8,0:0:0:0:
201,237,33393,1,8,0:0:0:0:
201,237,33479,2,0,L|186:299,1,38.2500007295609,2|0,0:0|0:0,0:0:0:0:
32,368,33650,5,8,0:0:0:0:
32,368,33736,1,8,0:0:0:0:
32,368,33822,2,0,L|23:330,1,38.2500007295609,10|8,0:0|0:0,0:0:0:0:
162,118,33994,5,10,0:0:0:0:
198,108,34079,1,8,0:0:0:0:
236,105,34165,1,10,0:0:0:0:
269,123,34251,1,8,0:0:0:0:
305,134,34336,1,8,0:0:0:0:
343,131,34422,1,8,0:0:0:0:
381,123,34508,5,4,0:0:0:0:
201,237,34679,1,2,0:0:0:0:
316,7,34850,1,8,0:0:0:0:
461,301,35022,6,0,P|404:250|311:267,1,153.000002918243,6|2,0:0|0:0,0:0:0:0:
328,266,35450,1,2,0:0:0:0:
323,278,35536,1,8,0:0:0:0:
32,164,35707,6,0,P|89:113|182:130,1,153.000002918243,6|8,0:0|0:0,0:0:0:0:
253,363,36222,1,8,0:0:0:0:
217,348,36307,1,2,0:0:0:0:
182,334,36393,1,2,0:0:0:0:
146,319,36479,1,2,0:0:0:0:
111,305,36565,2,0,L|136:219,1,76.5000014591217,8|8,0:0|0:0,0:0:0:0:
142,223,36822,1,0,0:0:0:0:
153,215,36907,1,8,0:0:0:0:
405,16,37079,2,0,L|397:69,1,38.2500007295609,2|2,0:0|0:0,0:0:0:0:
283,124,37251,6,0,B|384:115|323:149|435:140,1,153.000002918243,6|8,0:0|0:0,0:0:0:0:
482,66,37765,1,2,0:0:0:0:
315,205,37936,1,0,0:0:0:0:
393,260,38107,1,2,0:0:0:0:
222,217,38279,2,0,P|195:263|194:294,1,76.5000014591217,8|0,0:0|0:0,0:0:0:0:
373,364,38622,6,0,L|462:348,1,76.5000014591217,2|2,0:0|0:0,0:0:0:0:
456,341,38879,1,2,0:0:0:0:
465,332,38965,1,8,0:0:0:0:
213,197,39136,2,0,L|124:181,1,76.5000014591217,2|0,0:0|0:0,0:0:0:0:
14,286,39479,1,2,0:0:0:0:
14,286,39565,1,0,0:0:0:0:
14,286,39650,1,8,0:0:0:0:
127,93,39822,1,0,0:0:0:0:
38,95,39993,6,0,P|12:149|15:182,1,76.5000014591217,2|0,0:0|0:0,0:0:0:0:
138,281,40336,1,8,0:0:0:0:
222,216,40507,1,2,0:0:0:0:
135,163,40679,1,0,0:0:0:0:
285,299,40850,1,2,0:0:0:0:
128,370,41022,2,0,L|148:292,1,76.5000014591217,8|0,0:0|0:0,0:0:0:0:
299,132,41365,6,0,L|319:210,1,76.5000014591217,2|2,0:0|0:0,0:0:0:0:
241,61,41707,1,8,0:0:0:0:
450,49,41879,2,0,P|370:57|311:-6,1,153.000002918243,2|2,0:0|0:0,0:0:0:0:
67,182,42393,1,8,0:0:0:0:
91,152,42478,1,0,0:0:0:0:
124,135,42564,1,0,0:0:0:0:
162,132,42650,1,8,0:0:0:0:
198,145,42735,5,6,0:0:0:0:
153,245,42907,1,0,0:0:0:0:
38,68,43079,1,8,0:0:0:0:
28,314,43250,2,0,B|133:302|69:347|192:332,1,167.400005236359,2|2,0:0|0:0,0:0:0:0:
400,248,43765,1,8,0:0:0:0:
330,179,43936,1,0,0:0:0:0:
330,179,44022,1,0,0:0:0:0:
330,179,44107,6,0,P|302:238|303:263,1,83.7000026181794,2|2,0:0|0:0,0:0:0:0:
454,334,44450,1,8,0:0:0:0:
395,69,44622,2,0,L|223:102,1,167.400005236359,2|2,0:0|0:0,0:0:0:0:
34,222,45136,2,0,L|130:207,1,83.7000026181794,8|0,0:0|0:0,0:0:0:0:
165,36,45479,5,2,0:0:0:0:
276,183,45650,1,2,0:0:0:0:
276,183,45736,1,2,0:0:0:0:
276,183,45822,1,8,0:0:0:0:
66,84,45993,2,0,L|29:257,1,167.400005236359,2|2,0:0|0:0,0:0:0:0:
306,347,46507,1,8,0:0:0:0:
82,363,46679,6,0,P|127:313|240:326,1,167.400005236359,2|2,0:0|0:0,0:0:0:0:
447,197,47193,2,0,L|425:287,1,83.7000026181794,8|2,0:0|0:0,0:0:0:0:
432,288,47450,1,0,0:0:0:0:
439,298,47536,2,0,L|381:281,1,41.8500013090897,8|2,0:0|0:0,0:0:0:0:
331,221,47707,1,2,0:0:0:0:
495,108,47879,1,8,0:0:0:0:
318,31,48050,1,2,0:0:0:0:
318,31,48136,1,2,0:0:0:0:
318,31,48222,6,0,L|303:91,3,41.8500013090897,2|0|0|0,0:0|0:0|0:0|0:0,0:0:0:0:
213,21,48565,2,0,L|170:36,1,41.8500013090897,0|0,0:0|0:0,0:0:0:0:
213,175,48736,2,0,L|256:160,1,41.8500013090897,0|2,0:0|0:0,0:0:0:0:
133,131,48907,5,8,0:0:0:0:
111,153,48992,1,0,0:0:0:0:
96,180,49078,1,0,0:0:0:0:
88,211,49164,1,0,0:0:0:0:
90,242,49250,2,0,P|120:276|162:292,1,83.7000026181794,0|2,0:0|0:0,0:0:0:0:
342,233,49593,5,2,0:0:0:0:
224,354,49765,1,8,0:0:0:0:
224,354,49850,1,0,0:0:0:0:
224,354,49936,1,0,0:0:0:0:
248,136,50107,1,0,0:0:0:0:
332,363,50279,5,8,0:0:0:0:
487,246,50450,1,0,0:0:0:0:
335,94,50622,1,0,0:0:0:0:
421,332,50793,1,8,0:3:0:0:
421,332,50879,1,0,0:0:0:0:
421,332,50965,6,0,P|365:279|272:291,1,167.400005236359,2|0,0:0|0:0,0:0:0:0:
100,357,51479,1,2,0:0:0:0:
100,357,51565,1,2,0:0:0:0:
100,357,51650,2,0,L|135:218,1,125.550003927269,8|0,0:0|0:0,0:0:0:0:
136,220,51993,2,0,L|181:209,2,41.8500013090897,0|0|8,0:0|0:0|0:3,0:0:0:0:
294,22,52336,5,6,0:0:0:0:
133,104,52507,1,2,0:0:0:0:
167,101,52592,1,0,0:0:0:0:
202,102,52678,1,0,0:0:0:0:
233,117,52764,1,0,0:0:0:0:
265,130,52849,1,2,0:0:0:0:
300,134,52935,1,2,0:0:0:0:
335,133,53022,6,0,L|322:190,1,41.8500013090897,2|0,0:0|0:0,0:0:0:0:
427,253,53193,2,0,L|440:196,1,41.8500013090897,8|0,0:3|0:0,0:0:0:0:
337,328,53365,1,8,0:0:0:0:
297,314,53450,1,8,0:0:0:0:
256,316,53536,1,2,0:0:0:0:
217,332,53622,1,2,0:0:0:0:
188,362,53707,5,6,0:0:0:0:
237,232,53879,1,0,0:0:0:0:
237,232,53965,1,2,0:0:0:0:
237,232,54050,1,8,0:0:0:0:
13,232,54222,2,0,P|68:228|129:260,1,125.550003927269,2|0,0:0|0:0,0:0:0:0:
137,268,54565,1,2,0:0:0:0:
205,60,54736,2,0,P|176:123|176:147,1,83.7000026181794,8|2,0:0|0:0,0:0:0:0:
337,328,55079,5,2,0:0:0:0:
477,243,55250,1,0,0:0:0:0:
477,243,55336,1,2,0:0:0:0:
477,243,55422,1,8,0:0:0:0:
368,125,55593,2,0,L|346:211,1,83.7000026181794,2|0,0:0|0:0,0:0:0:0:
445,355,55936,1,2,0:0:0:0:
212,212,56107,1,8,0:0:0:0:
482,99,56279,1,8,0:0:0:0:
231,335,56450,5,12,0:0:0:0:
298,21,56622,1,0,0:0:0:0:
298,21,56707,1,2,0:0:0:0:
298,21,56793,1,2,0:0:0:0:
0,207,56965,6,0,L|91:189,1,83.7000026181794,12|2,0:0|0:0,0:0:0:0:
90,198,57222,1,2,0:0:0:0:
97,205,57307,1,2,0:0:0:0:
340,119,57479,1,8,0:0:0:0:
299,129,57564,1,8,0:3:0:0:
259,121,57650,1,8,0:3:0:0:
225,97,57736,1,8,0:3:0:0:
205,61,57821,1,2,0:0:0:0:
373,208,57993,5,12,0:0:0:0:
103,99,58165,1,12,0:0:0:0:
448,23,58336,1,2,0:0:0:0:
448,23,58422,1,2,0:0:0:0:
448,23,58507,6,0,L|435:75,1,41.8500013090897,8|2,0:0|0:0,0:0:0:0:
284,260,58679,2,0,L|271:208,1,41.8500013090897,10|2,0:0|0:0,0:0:0:0:
486,229,58850,1,2,0:0:0:0:
486,229,58936,1,2,0:0:0:0:
486,229,59022,6,0,L|451:363,1,125.550003927269,6|2,0:0|0:0,0:0:0:0:
449,363,59365,1,2,0:0:0:0:
299,129,59536,1,8,0:0:0:0:
360,349,59707,6,0,B|241:342|309:380|185:373,1,167.400005236359,6|0,0:0|0:0,0:0:0:0:
125,337,60222,1,0,0:0:0:0:
244,217,60393,6,0,L|222:299,1,72,6|2,0:0|0:0,0:0:0:0:
348,144,60907,6,0,P|404:104|480:120,1,135,8|0,0:0|0:0,0:0:0:0:
476,120,61250,1,2,0:0:0:0:
216,28,61422,1,2,0:0:0:0:
216,28,61507,1,2,0:0:0:0:
216,28,61593,1,8,0:0:0:0:
256,120,61765,6,0,B|129:135|217:171|93:183,1,180,2|2,0:0|0:0,0:0:0:0:
84,172,62193,1,0,0:0:0:0:
72,160,62279,2,0,L|48:256,1,90,8|0,0:0|0:0,0:0:0:0:
303,375,62622,1,2,0:0:0:0:
303,375,62707,1,8,0:0:0:0:
303,375,62793,1,2,0:0:0:0:
280,208,62965,1,8,0:0:0:0:
84,344,63136,1,0,0:0:0:0:
84,344,63222,1,0,0:0:0:0:
84,344,63307,6,0,P|156:284|248:304,1,180,2|8,0:0|0:0,0:0:0:0:
431,370,63822,2,0,P|447:318|447:278,1,90,2|0,0:0|0:0,0:0:0:0:
291,222,64165,1,2,0:0:0:0:
492,124,64336,1,8,0:0:0:0:
212,40,64507,6,0,B|272:28|272:28|320:48|320:48|386:40,1,180,6|2,0:0|0:0,0:0:0:0:
172,160,65022,1,8,0:0:0:0:
328,356,65193,1,2,0:0:0:0:
328,356,65279,1,2,0:0:0:0:
328,356,65365,2,0,L|340:304,1,45,8|0,0:0|0:0,0:0:0:0:
482,144,65536,2,0,L|492:187,1,45,0|0,0:0|0:0,0:0:0:0:
438,282,65707,1,8,0:0:0:0:
438,282,65793,1,0,0:0:0:0:
438,282,65879,6,0,P|386:222|282:226,1,180,6|2,0:0|0:0,0:0:0:0:
56,307,66393,2,0,L|146:287,1,90,8|0,0:0|0:0,0:0:0:0:
256,119,66736,1,2,0:0:0:0:
225,369,66907,1,2,0:0:0:0:
225,369,66993,1,8,0:0:0:0:
225,369,67079,1,8,0:0:0:0:
76,203,67250,6,0,P|71:144|160:65,1,180,2|2,0:0|0:0,0:0:0:0:
290,221,67765,1,8,0:0:0:0:
165,159,67936,1,0,0:0:0:0:
331,38,68108,1,2,0:0:0:0:
331,38,68194,1,8,0:0:0:0:
331,38,68279,1,2,0:0:0:0:
163,182,68450,1,8,0:0:0:0:
393,287,68622,1,0,0:0:0:0:
127,356,68793,5,6,0:0:0:0:
297,206,68965,1,2,0:0:0:0:
41,92,69136,1,8,0:0:0:0:
246,361,69307,1,0,0:0:0:0:
246,361,69392,1,0,0:0:0:0:
246,361,69478,1,8,0:0:0:0:
211,9,69650,5,6,0:0:0:0:
44,263,69822,1,0,0:0:0:0:
395,179,69993,6,0,P|347:122|234:132,1,180,6|6,0:0|0:0,0:0:0:0:
131,353,70507,1,8,0:0:0:0:
296,234,70679,1,6,0:0:0:0:
296,234,70765,1,8,0:0:0:0:
296,234,70850,1,8,0:0:0:0:
31,72,71022,2,0,L|45:135,1,45,8|8,0:0|0:0,0:0:0:0:
141,211,71193,2,0,L|152:167,1,45,8|8,0:0|0:0,0:0:0:0:
163,48,71365,6,0,L|239:30,1,72,6|2,0:0|0:0,0:0:0:0:
484,119,71879,6,0,P|445:78|350:90,1,135,8|0,0:0|0:0,0:0:0:0:
363,85,72222,1,2,0:0:0:0:
469,311,72393,1,2,0:0:0:0:
469,311,72479,1,8,0:0:0:0:
469,311,72565,1,8,0:0:0:0:
384,258,72736,6,0,P|292:259|224:345,1,180,2|2,0:0|0:0,0:0:0:0:
224,328,73165,1,0,0:0:0:0:
216,340,73250,2,0,L|115:323,1,90,8|0,0:0|0:0,0:0:0:0:
12,91,73593,1,2,0:0:0:0:
182,226,73765,1,2,0:0:0:0:
19,354,73936,1,8,0:0:0:0:
156,116,74107,1,8,0:0:0:0:
156,116,74193,1,8,0:0:0:0:
156,116,74279,6,0,B|277:110|201:152|331:146,1,180,2|8,0:0|0:0,0:0:0:0:
417,279,74793,2,0,L|395:369,1,90,2|0,0:0|0:0,0:0:0:0:
280,240,75136,1,2,0:0:0:0:
427,97,75307,1,8,0:0:0:0:
206,25,75479,6,0,P|126:21|58:103,1,180,6|2,0:0|0:0,0:0:0:0:
272,261,75993,1,8,0:0:0:0:
44,184,76165,1,2,0:0:0:0:
44,184,76250,1,2,0:0:0:0:
44,184,76336,1,8,0:0:0:0:
217,53,76507,1,2,0:0:0:0:
175,342,76679,1,8,0:0:0:0:
291,288,76850,1,8,0:0:0:0:
291,288,76936,1,8,0:0:0:0:
291,288,77022,6,0,B|354:276|354:276|403:296|403:296|475:287,1,180,6|8,0:0|0:0,0:0:0:0:
322,158,77536,2,0,L|224:174,1,90,2|0,0:0|0:0,0:0:0:0:
320,36,77879,1,2,0:0:0:0:
420,200,78050,1,8,0:0:0:0:
156,116,78222,1,2,0:0:0:0:
156,116,78307,1,0,0:0:0:0:
156,116,78393,6,0,P|108:156|108:284,1,180,2|8,0:0|0:0,0:0:0:0:
316,356,78907,1,2,0:0:0:0:
189,245,79079,1,0,0:0:0:0:
352,119,79250,1,2,0:0:0:0:
308,375,79421,1,8,0:0:0:0:
186,264,79593,1,2,0:0:0:0:
446,170,79765,5,12,0:0:0:0:
247,39,79936,1,2,0:0:0:0:
316,356,80107,1,2,0:0:0:0:
97,218,80279,6,0,P|155:159|250:171,1,180,12|2,0:0|0:0,0:0:0:0:
423,369,80793,1,12,0:0:0:0:
349,61,80965,6,0,B|332:122|332:122|344:172|344:172|322:244,1,180,2|8,0:0|0:0,0:0:0:0:
245,168,81479,1,2,0:0:0:0:
430,126,81650,1,2,0:0:0:0:
107,53,81822,1,12,0:0:0:0:
107,53,81907,1,0,0:0:0:0:
107,53,81993,6,0,L|95:104,1,45,0|0,0:0|0:0,0:0:0:0:
134,224,82164,2,0,L|146:173,1,45,0|0,0:0|0:0,0:0:0:0:
85,360,82336,6,0,P|139:314|244:332,1,180,6|2,0:0|0:0,0:0:0:0:
492,192,82850,2,0,L|394:179,1,90,8|0,0:0|0:0,0:0:0:0:
192,77,83193,1,2,0:0:0:0:
354,299,83365,1,2,0:0:0:0:
354,299,83451,1,8,0:0:0:0:
354,299,83537,1,8,0:0:0:0:
338,116,83707,6,0,B|218:127|295:165|166:173,1,180,2|2,0:0|0:0,0:0:0:0:
50,69,84222,1,8,0:0:0:0:
164,271,84393,1,0,0:0:0:0:
17,183,84565,1,2,0:0:0:0:
17,183,84651,1,8,0:0:0:0:
17,183,84737,1,2,0:0:0:0:
184,54,84907,1,8,0:0:0:0:
215,349,85079,6,0,P|131:355|65:276,1,180,2|2,0:0|0:0,0:0:0:0:
300,378,85593,1,8,0:0:0:0:
281,105,85765,6,0,B|251:149|251:149|269:278,1,180,2|2,0:0|0:0,0:0:0:0:
371,48,86279,1,8,0:0:0:0:
507,355,86450,6,0,P|447:291|360:296,1,180,6|2,0:0|0:0,0:0:0:0:
158,134,86965,1,8,0:0:0:0:
225,374,87136,1,2,0:0:0:0:
268,274,87307,5,8,0:0:0:0:
223,281,87393,1,2,0:0:0:0:
180,294,87479,1,2,0:0:0:0:
145,321,87564,1,8,0:0:0:0:
114,353,87650,1,8,0:0:0:0:
70,363,87736,1,2,0:0:0:0:
25,365,87822,6,0,L|48:263,1,90,6|0,0:0|0:0,0:0:0:0:
231,183,88165,1,2,0:0:0:0:
26,133,88336,5,8,0:0:0:0:
225,374,88507,1,0,0:0:0:0:
50,256,88679,1,2,0:0:0:0:
245,164,88850,1,2,0:0:0:0:
245,164,88935,1,8,0:0:0:0:
245,164,89021,1,8,0:0:0:0:
87,23,89193,1,2,0:0:0:0:
174,276,89365,5,8,0:0:0:0:
416,187,89536,1,2,0:0:0:0:
175,32,89707,1,8,0:0:0:0:
431,215,89879,1,2,0:0:0:0:
431,215,89965,1,2,0:0:0:0:
431,215,90050,1,8,0:0:0:0:
172,304,90222,1,2,0:0:0:0:
362,36,90393,1,8,0:0:0:0:
362,36,90479,1,2,0:0:0:0:
362,36,90565,6,0,L|315:237,1,180,6|2,0:0|0:0,0:0:0:0:
76,377,91079,2,0,L|59:308,1,45,8|2,0:0|0:0,0:0:0:0:
34,128,91250,2,0,L|17:197,1,45,2|2,0:0|0:0,0:0:0:0:
130,230,91422,5,8,0:0:0:0:
172,217,91507,1,2,0:0:0:0:
215,229,91593,1,2,0:0:0:0:
247,260,91679,1,2,0:0:0:0:
278,291,91765,1,8,0:0:0:0:
321,302,91851,1,0,0:0:0:0:
364,290,91936,6,0,L|346:385,1,90,6|0,0:0|0:0,0:0:0:0:
247,154,92279,1,2,0:0:0:0:
247,154,92365,1,2,0:0:0:0:
247,154,92450,1,8,0:0:0:0:
445,191,92622,1,0,0:0:0:0:
90,36,92793,5,8,0:0:0:0:
168,372,92965,1,2,0:0:0:0:
407,82,93136,5,2,0:0:0:0:
23,171,93307,1,6,0:0:0:0:
