osu file format v14

[General]
AudioFilename: audio.mp3
AudioLeadIn: 0
PreviewTime: 60050
Countdown: 0
SampleSet: Soft
StackLeniency: 0.7
Mode: 0
LetterboxInBreaks: 0
WidescreenStoryboard: 1

[Editor]
DistanceSpacing: 0.9
BeatDivisor: 4
GridSize: 4
TimelineZoom: 2.999999

[Metadata]
Title:FEARLESS HERO (TV Size)
TitleUnicode:FEARLESS HERO (TV Size)
Artist:Mizuki Nana
ArtistUnicode:水樹奈々
Creator:kunka
Version:Yasai's Extra
Source:DOG DAYS'
Tags:opening Little CloudSplash16 Akitoshi Corinn -laura- Shunao ShogunMoon Momochikun Kurantemelodii krt Firis Mistlud sekaii sekai-nyan Yasaija 714 Guy appleeaterx kunkakunkakunkakunka
BeatmapID:1659075
BeatmapSetID:786603

[Difficulty]
HPDrainRate:7
CircleSize:4.3
OverallDifficulty:8.5
ApproachRate:9.3
SliderMultiplier:1.6
SliderTickRate:1

[Events]
//Background and Video events
0,0,"BG.jpg",0,0
Video,0,"FEARLESS HERO.avi"
//Break Periods
//Storyboard Layer 0 (Background)
//Storyboard Layer 1 (Fail)
//Storyboard Layer 2 (Pass)
//Storyboard Layer 3 (Foreground)
//Storyboard Sound Samples

[TimingPoints]
2965,342.857142857143,4,2,1,50,1,0
4165,-90.9090909090909,4,2,1,70,0,0
9650,-90.9090909090909,4,2,1,75,0,0
15307,-125,4,2,1,75,0,0
15650,-125,4,2,2,40,0,0
24393,-125,4,2,2,40,0,0
24479,-125,4,2,2,5,0,0
24565,-125,4,2,2,40,0,0
24650,-125,4,2,2,5,0,0
24736,-125,4,2,2,40,0,0
24822,-125,4,2,2,5,0,0
24907,-100,4,2,1,60,0,0
25850,-100,4,2,1,5,0,0
25936,-100,4,2,1,60,0,0
30479,-100,4,2,1,5,0,0
30565,-100,4,2,1,60,0,0
31165,-100,4,2,1,5,0,0
31250,-100,4,2,1,60,0,0
31765,-100,4,2,1,65,0,0
37250,-100,4,2,1,60,0,0
42136,-100,4,2,1,5,0,0
42222,-100,4,2,1,60,0,0
42307,-100,4,2,1,5,0,0
42393,-100,4,2,1,60,0,0
48222,-111.111111111111,4,2,1,50,0,0
53707,-100,4,2,1,60,0,0
60050,-86.9565217391304,4,2,1,75,0,0
60393,-86.9565217391304,4,2,1,75,0,1
60907,-76.9230769230769,4,2,1,75,0,1
61765,-83.3333333333333,4,2,1,75,0,1
82336,-90.9090909090909,4,2,1,70,0,0
87822,-90.9090909090909,4,2,1,75,0,0

[Colours]
Combo1 : 255,128,255
Combo2 : 128,255,128
Combo3 : 128,255,255
Combo4 : 255,128,128
Combo5 : 255,255,128

[HitObjects]
97,92,3822,5,0,0:0:0:0:
91,115,3907,1,0,0:0:0:0:
84,138,3993,2,0,L|98:209,1,40,0|0,0:0|0:0,0:0:0:0:
177,263,4165,6,0,B|199:142|199:142|181:76,1,176.000005371094,6|2,0:0|0:0,0:0:0:0:
2,221,4679,2,0,P|50:218|105:219,1,88.000002685547,8|0,0:0|0:0,0:0:0:0:
229,350,5022,1,2,0:0:0:0:
96,320,5193,1,2,0:0:0:0:
96,320,5279,1,8,0:0:0:0:
96,320,5365,1,8,0:0:0:0:
242,239,5536,6,0,P|201:164|248:63,1,176.000005371094,2|2,0:0|0:0,0:0:0:0:
350,18,6050,1,8,0:0:0:0:
336,184,6222,1,0,0:0:0:0:
482,89,6393,1,2,0:0:0:0:
485,115,6479,1,8,0:0:0:0:
488,141,6565,1,2,0:0:0:0:
448,243,6736,1,8,0:0:0:0:
348,57,6907,6,0,B|297:72|232:73|232:73|207:55|170:54,1,176.000005371094,2|2,0:0|0:0,0:0:0:0:
38,97,7422,1,8,0:0:0:0:
208,198,7593,2,0,P|213:247|233:298,1,88.000002685547,2|0,0:0|0:0,0:0:0:0:
318,160,7936,1,2,0:0:0:0:
129,134,8107,1,8,0:0:0:0:
200,359,8279,6,0,P|292:316|360:346,1,176.000005371094,6|2,0:0|0:0,0:0:0:0:
225,283,8793,2,0,P|211:241|208:198,1,88.000002685547,8|2,0:0|0:0,0:0:0:0:
301,26,9136,1,10,0:0:0:0:
326,32,9222,1,2,0:0:0:0:
351,38,9307,1,2,0:0:0:0:
376,45,9393,1,8,0:0:0:0:
401,52,9479,1,8,0:0:0:0:
508,173,9650,6,0,P|374:169|316:180,1,176.000005371094,6|2,0:0|0:0,0:0:0:0:
190,234,10165,2,0,P|261:241|309:256,1,88.000002685547,8|0,0:0|0:0,0:0:0:0:
386,321,10507,1,2,0:0:0:0:
194,377,10679,1,2,0:0:0:0:
198,350,10765,1,8,0:0:0:0:
202,324,10850,1,8,0:0:0:0:
54,376,11022,2,0,P|32:314|24:260,1,88.000002685547,2|8,0:0|0:0,0:0:0:0:
76,113,11365,5,2,0:0:0:0:
76,113,11450,1,2,0:0:0:0:
76,113,11536,1,8,0:0:0:0:
188,228,11707,1,2,0:0:0:0:
188,228,11793,1,2,0:0:0:0:
188,228,11879,6,0,L|241:220,1,44.0000013427735,8|2,0:0|0:0,0:0:0:0:
325,134,12050,2,0,L|368:140,1,44.0000013427735,2|2,0:0|0:0,0:0:0:0:
461,232,12222,2,0,L|514:224,1,44.0000013427735,8|2,0:0|0:0,0:0:0:0:
480,60,12393,6,0,P|372:34|296:36,1,176.000005371094,6|2,0:0|0:0,0:0:0:0:
116,81,12907,1,8,0:0:0:0:
121,115,12993,1,2,0:0:0:0:
126,149,13079,2,0,L|182:136,1,44.0000013427735,2|2,0:0|0:0,0:0:0:0:
318,193,13250,2,0,L|275:183,1,44.0000013427735,8|2,0:0|0:0,0:0:0:0:
126,235,13422,2,0,L|182:248,1,44.0000013427735,2|2,0:0|0:0,0:0:0:0:
321,280,13593,2,0,L|278:289,1,44.0000013427735,8|0,0:0|0:0,0:0:0:0:
121,332,13765,6,0,P|42:288|50:181,1,176.000005371094,6|8,0:0|0:0,0:0:0:0:
168,139,14279,2,0,P|161:202|155:249,1,88.000002685547,2|8,0:0|0:0,0:0:0:0:
157,226,14536,1,8,0:0:0:0:
157,226,14622,5,8,0:3:0:0:
17,24,14879,1,8,0:3:0:0:
280,28,15136,1,8,0:3:0:0:
168,139,15307,6,0,L|92:132,2,64,6|0|0,0:0|0:0|0:0,0:0:0:0:
260,194,15822,2,0,P|255:229|256:266,1,64,0|2,0:0|0:0,0:0:0:0:
350,308,16165,2,0,P|366:241|358:188,1,96,0|0,0:0|0:0,0:0:0:0:
354,184,16507,2,0,P|425:194|493:184,1,128,0|0,0:0|0:0,0:0:0:0:
501,95,17022,2,0,P|493:59|479:25,1,64,0|0,0:0|0:0,0:0:0:0:
391,19,17365,2,0,P|379:48|373:80,1,64,2|0,0:0|0:0,0:0:0:0:
354,184,17707,2,0,P|425:194|477:189,1,96,0|0,0:0|0:0,0:0:0:0:
480,187,18050,6,0,P|478:245|480:268,1,64,0|0,0:0|0:0,0:0:0:0:
498,348,18393,1,0,0:0:0:0:
498,348,18565,2,0,P|422:333|361:335,2,128
396,245,19422,6,0,L|400:166,1,64,2|0,0:0|0:0,0:0:0:0:
399,181,19679,1,0,0:0:0:0:
399,181,19765,1,0,0:0:0:0:
325,121,19936,1,0,0:0:0:0:
239,183,20107,2,0,L|242:246,1,64,2|0,0:0|0:0,0:0:0:0:
242,246,20364,1,0,0:0:0:0:
242,246,20450,1,0,0:0:0:0:
173,328,20622,1,0,0:0:0:0:
86,235,20793,6,0,P|117:233|154:224,1,64,0|0,0:0|0:0,0:0:0:0:
239,183,21136,1,0,0:0:0:0:
239,183,21307,2,0,P|220:118|213:45,2,128,0|0|0,0:0|0:0|0:0,0:0:0:0:
303,256,22165,1,0,0:0:0:0:
245,330,22336,1,0,0:0:0:0:
245,330,22507,2,0,L|176:326,1,64,0|0,0:0|0:0,0:0:0:0:
92,277,22850,2,0,P|83:231|82:206,1,64,2|0,0:0|0:0,0:0:0:0:
82,117,23193,2,0,P|84:85|91:53,1,64,0|0,0:0|0:0,0:0:0:0:
208,21,23536,6,0,P|325:31|365:27,1,128,0|0,0:0|0:0,0:0:0:0:
444,17,24050,2,0,P|448:58|452:101,1,64,0|2,0:0|0:0,0:0:0:0:
387,169,24393,6,0,L|380:219,1,32,0|0,0:0|0:0,0:0:0:0:
277,274,24565,2,0,L|270:224,1,32,8|0,0:3|0:0,0:0:0:0:
163,171,24736,2,0,L|156:221,1,32,0|0,0:0|0:0,0:0:0:0:
120,329,24907,5,8,0:0:0:0:
16,133,25079,1,8,0:0:0:0:
232,89,25250,1,8,0:0:0:0:
33,240,25422,2,0,P|90:221|165:246,1,120,6|0,0:0|0:0,0:0:0:0:
216,300,25765,2,0,L|264:293,1,40,8|0,0:0|0:0,0:0:0:0:
429,260,25936,1,8,0:0:0:0:
329,147,26107,1,8,0:0:0:0:
329,147,26193,1,8,0:0:0:0:
329,147,26279,6,0,P|284:154|240:157,1,80,2|0,0:0|0:0,0:0:0:0:
145,74,26622,1,2,0:0:0:0:
276,20,26793,1,0,0:0:0:0:
137,116,26965,2,0,P|147:172|147:220,1,80,2|0,0:0|0:0,0:0:0:0:
57,301,27307,1,2,0:0:0:0:
57,301,27393,1,0,0:0:0:0:
57,301,27479,1,0,0:0:0:0:
205,262,27650,6,0,P|197:309|197:354,1,80,2|0,0:0|0:0,0:0:0:0:
315,378,27993,1,2,0:0:0:0:
322,258,28165,1,0,0:0:0:0:
452,357,28336,2,0,L|495:353,2,40,2|0|0,0:0|0:0|0:0,0:0:0:0:
315,378,28679,2,0,L|219:372,1,80,2|0,0:0|0:0,0:0:0:0:
106,292,29022,6,0,P|97:218|101:188,1,80,2|0,0:0|0:0,0:0:0:0:
177,96,29365,1,2,0:0:0:0:
309,165,29536,2,0,L|216:176,1,80,0|2,0:0|0:0,0:0:0:0:
404,87,29879,2,0,L|311:76,1,80,0|2,0:0|0:0,0:0:0:0:
475,179,30222,1,0,0:0:0:0:
329,290,30393,6,0,L|325:251,1,40,2|0,0:0|0:0,0:0:0:0:
452,256,30565,1,0,0:0:0:0:
448,287,30650,1,0,0:0:0:0:
444,318,30736,1,2,0:0:0:0:
340,381,30907,1,0,0:0:0:0:
182,290,31079,6,0,L|187:251,1,40,2|0,0:0|0:0,0:0:0:0:
247,116,31250,1,0,0:0:0:0:
251,147,31335,1,0,0:0:0:0:
255,178,31421,1,2,0:0:0:0:
153,82,31593,1,0,0:0:0:0:
328,40,31765,6,0,P|405:71|424:153,1,160,6|2,0:0|0:0,0:0:0:0:
352,278,32279,1,0,0:0:0:0:
488,211,32450,1,2,0:0:0:0:
462,356,32622,1,0,0:0:0:0:
365,184,32793,2,0,P|324:179|272:183,1,80,2|0,0:0|0:0,0:0:0:0:
99,205,33136,6,0,L|111:294,1,80,6|8,0:0|0:0,0:0:0:0:
109,284,33393,1,8,0:0:0:0:
109,284,33479,1,2,0:0:0:0:
222,351,33650,1,8,0:0:0:0:
48,369,33822,2,0,L|34:321,1,40,10|8,0:0|0:0,0:0:0:0:
148,261,33993,2,0,L|162:213,1,40,10|8,0:0|0:0,0:0:0:0:
43,158,34165,1,10,0:0:0:0:
37,126,34250,1,8,0:0:0:0:
31,94,34336,1,8,0:0:0:0:
25,62,34422,1,8,0:0:0:0:
20,30,34507,6,0,P|94:48|172:34,1,120,4|0,0:0|0:0,0:0:0:0:
239,22,34850,2,0,L|225:74,1,40,8|0,0:0|0:0,0:0:0:0:
146,143,35022,2,0,L|161:233,1,80,6|0,0:0|0:0,0:0:0:0:
320,299,35365,1,2,0:0:0:0:
326,259,35450,1,2,0:0:0:0:
333,220,35536,1,8,0:0:0:0:
199,304,35707,6,0,B|116:338|117:270|32:305,1,160,6|8,0:0|0:0,0:0:0:0:
159,221,36222,1,8,0:0:0:0:
270,364,36393,1,2,0:0:0:0:
270,364,36479,1,2,0:0:0:0:
270,364,36565,1,8,0:0:0:0:
333,220,36736,1,8,0:0:0:0:
224,160,36907,1,8,0:0:0:0:
451,133,37079,1,2,0:0:0:0:
451,133,37165,1,2,0:0:0:0:
451,133,37250,6,0,L|442:221,1,80,6|0,0:0|0:0,0:0:0:0:
402,334,37593,1,8,0:0:0:0:
233,211,37765,1,2,0:0:0:0:
337,136,37936,1,0,0:0:0:0:
273,334,38107,1,2,0:0:0:0:
121,185,38279,2,0,P|73:185|33:198,1,80,8|0,0:0|0:0,0:0:0:0:
10,297,38622,5,2,0:0:0:0:
194,280,38793,1,2,0:0:0:0:
198,264,38879,1,2,0:0:0:0:
203,248,38965,1,8,0:0:0:0:
110,105,39136,2,0,L|122:193,2,80,2|0|2,0:0|0:0|0:0,0:0:0:0:
246,10,39650,1,8,0:0:0:0:
345,160,39822,1,0,0:0:0:0:
345,160,39907,1,0,0:0:0:0:
345,160,39993,6,0,P|402:177|448:176,1,80,2|0,0:0|0:0,0:0:0:0:
336,54,40336,1,8,0:0:0:0:
243,177,40507,2,0,L|153:191,2,80,2|0|2,0:0|0:0|0:0,0:0:0:0:
359,258,41022,1,8,0:0:0:0:
214,261,41193,1,0,0:0:0:0:
381,345,41365,6,0,P|437:330|478:326,1,80,2|2,0:0|0:0,0:0:0:0:
289,376,41707,1,8,0:0:0:0:
359,258,41879,2,0,P|361:202|359:164,1,80,2|0,0:0|0:0,0:0:0:0:
223,110,42222,2,0,L|231:155,1,40,2|0,0:0|0:0,0:0:0:0:
249,244,42393,1,8,0:0:0:0:
227,254,42479,1,0,0:0:0:0:
203,259,42565,1,0,0:0:0:0:
179,255,42650,1,8,0:0:0:0:
156,246,42736,6,0,P|104:230|18:314,1,160,6|8,0:0|0:0,0:0:0:0:
184,354,43250,2,0,P|139:338|94:346,1,80,2|0,0:0|0:0,0:0:0:0:
327,291,43593,2,0,P|284:296|241:331,1,80,2|8,0:0|0:0,0:0:0:0:
426,348,43936,1,0,0:0:0:0:
426,348,44022,1,0,0:0:0:0:
426,348,44107,6,0,L|432:262,1,80,2|2,0:0|0:0,0:0:0:0:
382,113,44450,1,8,0:0:0:0:
278,195,44622,2,0,B|197:226|197:161|105:194,1,160,2|2,0:0|0:0,0:0:0:0:
22,312,45136,2,0,P|78:305|113:282,1,80,8|0,0:0|0:0,0:0:0:0:
238,121,45479,5,2,0:0:0:0:
287,324,45650,1,2,0:0:0:0:
287,324,45736,1,2,0:0:0:0:
287,324,45822,1,8,0:0:0:0:
122,188,45993,2,0,B|197:161|197:226|278:195,1,160,2|2,0:0|0:0,0:0:0:0:
321,106,46507,1,8,0:0:0:0:
156,265,46679,6,0,P|77:259|40:185,1,160,2|2,0:0|0:0,0:0:0:0:
92,49,47193,1,8,0:0:0:0:
122,188,47365,1,2,0:0:0:0:
122,188,47450,1,0,0:0:0:0:
122,188,47536,2,0,L|177:179,1,40,8|2,0:0|0:0,0:0:0:0:
247,111,47707,2,0,L|302:120,1,40,2|0,0:0|0:0,0:0:0:0:
384,182,47879,1,8,0:0:0:0:
279,305,48050,1,2,0:0:0:0:
277,280,48136,1,2,0:0:0:0:
275,258,48222,6,0,L|429:284,1,143.999995605469,2|0,0:0|0:0,0:0:0:0:
505,222,48736,1,0,0:0:0:0:
505,222,48822,1,2,0:0:0:0:
505,222,48907,2,0,L|515:132,1,71.9999978027344,8|0,0:0|0:0,0:0:0:0:
451,66,49250,1,0,0:0:0:0:
410,176,49422,1,2,0:0:0:0:
360,48,49593,6,0,P|310:39|285:36,1,71.9999978027344,2|8,0:0|0:0,0:0:0:0:
266,58,49850,2,0,P|261:93|254:129,1,71.9999978027344
234,155,50107,1,0,0:0:0:0:
94,260,50279,1,8,0:0:0:0:
94,260,50450,2,0,P|186:268|234:312,1,143.999995605469,0|8,0:0|0:3,0:0:0:0:
245,332,50879,1,0,0:0:0:0:
245,332,50965,6,0,L|328:317,1,71.9999978027344,2|0,0:0|0:0,0:0:0:0:
497,241,51479,1,2,0:0:0:0:
497,241,51565,1,2,0:0:0:0:
497,241,51650,2,0,L|387:220,1,107.999996704102,8|0,0:0|0:0,0:0:0:0:
390,220,51993,2,0,P|407:174|406:134,1,71.9999978027344,0|8,0:0|0:3,0:0:0:0:
328,29,52336,6,0,L|234:44,1,71.9999978027344,6|2,0:0|0:0,0:0:0:0:
256,40,52593,1,0,0:0:0:0:
256,40,52679,1,0,0:0:0:0:
301,144,52850,1,2,0:0:0:0:
155,80,53022,1,2,0:0:0:0:
159,101,53107,1,0,0:0:0:0:
163,122,53193,1,8,0:3:0:0:
167,143,53279,1,0,0:0:0:0:
171,164,53365,2,0,L|161:210,1,35.9999989013672,8|8,0:0|0:0,0:0:0:0:
63,247,53536,2,0,L|73:293,1,35.9999989013672,2|2,0:0|0:0,0:0:0:0:
176,354,53707,6,0,P|248:335|308:346,1,120,6|2,0:0|0:0,0:0:0:0:
384,367,54050,1,8,0:0:0:0:
285,183,54222,2,0,P|283:236|295:271,2,80,2|0|2,0:0|0:0|0:0,0:0:0:0:
365,104,54736,1,8,0:0:0:0:
452,213,54907,1,2,0:0:0:0:
429,44,55079,6,0,B|357:61|357:61|307:49,1,120,2|2,0:0|0:0,0:0:0:0:
227,16,55422,1,8,0:0:0:0:
129,141,55593,2,0,L|231:123,1,80,2|0,0:0|0:0,0:0:0:0:
323,169,55936,1,2,0:0:0:0:
187,246,56107,1,8,0:0:0:0:
225,363,56279,1,8,0:0:0:0:
51,260,56450,5,12,0:0:0:0:
294,269,56622,1,0,0:0:0:0:
293,292,56707,1,2,0:0:0:0:
292,316,56793,1,2,0:0:0:0:
135,349,56965,2,0,L|145:255,1,80,12|2,0:0|0:0,0:0:0:0:
143,269,57222,1,2,0:0:0:0:
143,269,57307,1,2,0:0:0:0:
242,185,57479,1,8,0:0:0:0:
73,117,57650,1,8,0:3:0:0:
73,117,57736,1,8,0:3:0:0:
73,117,57822,1,2,0:0:0:0:
214,27,57993,5,12,0:0:0:0:
276,285,58165,1,12,0:0:0:0:
112,194,58336,1,2,0:0:0:0:
112,194,58422,1,2,0:0:0:0:
112,194,58507,6,0,L|150:185,1,40,8|2,0:0|0:0,0:0:0:0:
381,118,58679,1,10,0:0:0:0:
369,160,58765,1,2,0:0:0:0:
365,203,58850,1,2,0:0:0:0:
373,246,58936,1,2,0:0:0:0:
393,284,59022,6,0,B|372:358|372:358|328:380,1,120,6|2,0:0|0:0,0:0:0:0:
239,365,59365,2,0,L|228:293,1,40,2|0,0:0|0:0,0:0:0:0:
169,211,59536,2,0,L|162:250,1,40,8|0,0:0|0:0,0:0:0:0:
25,344,59707,6,0,P|0:296|62:218,1,160,6|0,0:0|0:0,0:0:0:0:
27,71,60393,6,0,B|118:35|119:102|213:70,1,184.000003509522,6|2,0:0|0:0,0:0:0:0:
433,22,60907,6,0,P|419:98|416:158,1,103.999995239258,8|0,0:0|0:0,0:0:0:0:
482,314,61250,1,2,0:0:0:0:
284,181,61422,1,2,0:0:0:0:
284,181,61507,1,2,0:0:0:0:
284,181,61593,1,8,0:0:0:0:
216,367,61765,6,0,B|259:343|259:343|358:354|358:354|412:320,1,191.999994140625,2|2,0:0|0:0,0:0:0:0:
476,190,62279,2,0,B|429:178|429:178|372:198,1,95.9999970703126,8|0,0:0|0:0,0:0:0:0:
206,273,62622,1,2,0:0:0:0:
159,261,62707,1,8,0:0:0:0:
131,221,62793,1,2,0:0:0:0:
127,172,62879,1,0,0:0:0:0:
150,129,62965,1,8,0:0:0:0:
281,30,63136,1,0,0:0:0:0:
391,220,63307,6,0,P|393:274|384:319,1,95.9999970703126,2|2,0:0|0:0,0:0:0:0:
216,367,63650,1,8,0:0:0:0:
96,190,63822,2,0,B|191:156|191:224|288:190,1,191.999994140625,2|2,0:0|0:0,0:0:0:0:
493,90,64336,1,8,0:0:0:0:
199,5,64507,6,0,B|171:67|171:67|194:216,1,191.999994140625,6|2,0:0|0:0,0:0:0:0:
189,189,64936,1,0,0:0:0:0:
189,189,65022,1,8,0:0:0:0:
385,315,65193,2,0,L|389:261,2,47.9999985351563,2|2|8,0:0|0:0|0:0,0:0:0:0:
161,353,65536,1,0,0:0:0:0:
161,353,65622,1,0,0:0:0:0:
161,353,65707,2,0,L|157:299,1,47.9999985351563,8|0,0:0|0:0,0:0:0:0:
119,127,65879,6,0,P|245:110|318:119,1,191.999994140625,6|2,0:0|0:0,0:0:0:0:
492,211,66393,1,8,0:0:0:0:
280,236,66565,2,0,P|293:308|297:360,1,95.9999970703126,0|2,0:0|0:0,0:0:0:0:
75,281,66907,1,2,0:0:0:0:
75,281,66993,1,8,0:0:0:0:
75,281,67079,2,0,L|79:229,1,47.9999985351563,8|0,0:0|0:0,0:0:0:0:
142,73,67250,6,0,B|162:197|162:197|178:157|201:140,1,191.999994140625,2|2,0:0|0:0,0:0:0:0:
365,141,67765,2,0,P|386:185|394:244,1,95.9999970703126,8|0,0:0|0:0,0:0:0:0:
316,345,68107,1,2,0:0:0:0:
277,341,68193,1,8,0:0:0:0:
238,337,68279,1,2,0:0:0:0:
199,334,68365,1,0,0:0:0:0:
161,331,68450,1,8,0:0:0:0:
37,260,68622,2,0,P|30:232|34:188,1,47.9999985351563,0|0,0:0|0:0,0:0:0:0:
122,87,68793,5,6,0:0:0:0:
347,162,68965,1,2,0:0:0:0:
121,328,69136,1,8,0:0:0:0:
234,74,69307,1,0,0:0:0:0:
234,74,69393,1,0,0:0:0:0:
234,74,69479,1,8,0:0:0:0:
381,243,69650,2,0,L|480:234,1,95.9999970703126,6|0,0:0|0:0,0:0:0:0:
260,292,69993,6,0,P|213:232|90:236,1,191.999994140625,6|6,0:0|0:0,0:0:0:0:
6,357,70507,1,8,0:0:0:0:
17,103,70679,2,0,L|129:117,1,95.9999970703126,6|8,0:0|0:0,0:0:0:0:
261,237,71022,1,8,0:0:0:0:
308,231,71107,1,8,0:0:0:0:
355,226,71193,1,8,0:0:0:0:
402,221,71279,1,8,0:0:0:0:
449,213,71365,6,0,B|469:148|456:74|456:74|384:42,1,191.999994140625,6|2,0:0|0:0,0:0:0:0:
197,123,71879,2,0,L|296:106,1,95.9999970703126,8|0,0:0|0:0,0:0:0:0:
129,36,72222,1,2,0:0:0:0:
193,222,72393,1,2,0:0:0:0:
193,222,72479,1,8,0:0:0:0:
193,222,72565,2,0,L|185:289,1,47.9999985351563,8|0,0:0|0:0,0:0:0:0:
74,373,72736,6,0,B|66:317|40:281|40:281|32:232|77:186,1,191.999994140625,2|2,0:0|0:0,0:0:0:0:
267,174,73250,2,0,P|315:194|372:201,1,95.9999970703126,8|0,0:0|0:0,0:0:0:0:
478,63,73593,1,2,0:0:0:0:
283,10,73765,1,2,0:0:0:0:
443,227,73936,1,8,0:0:0:0:
145,202,74107,1,8,0:0:0:0:
145,202,74193,1,8,0:0:0:0:
145,202,74279,6,0,P|152:255|157:304,1,95.9999970703126,2|2,0:0|0:0,0:0:0:0:
22,380,74622,1,8,0:0:0:0:
285,359,74793,2,0,P|299:298|306:239,1,95.9999970703126,2|0,0:0|0:0,0:0:0:0:
295,63,75136,1,2,0:0:0:0:
145,202,75307,1,8,0:0:0:0:
380,266,75479,6,0,P|465:238|470:134,1,191.999994140625,6|2,0:0|0:0,0:0:0:0:
349,15,75993,6,0,P|346:74|362:144,1,95.9999970703126,8|2,0:0|0:0,0:0:0:0:
402,184,76250,1,2,0:0:0:0:
402,184,76336,2,0,P|408:231|404:279,1,95.9999970703126,8|2,0:0|0:0,0:0:0:0:
257,364,76679,1,8,0:0:0:0:
214,357,76765,1,0,0:0:0:0:
171,350,76850,1,8,0:0:0:0:
128,344,76936,1,8,0:0:0:0:
85,337,77022,5,6,0:0:0:0:
275,219,77193,1,2,0:0:0:0:
43,117,77365,1,8,0:0:0:0:
293,48,77536,2,0,P|304:101|301:146,1,95.9999970703126,2|0,0:0|0:0,0:0:0:0:
74,216,77879,1,2,0:0:0:0:
257,364,78050,1,8,0:0:0:0:
189,141,78222,1,2,0:0:0:0:
189,141,78307,1,0,0:0:0:0:
189,141,78393,5,2,0:0:0:0:
70,342,78565,1,2,0:0:0:0:
310,272,78736,1,8,0:0:0:0:
74,216,78907,1,2,0:0:0:0:
383,148,79079,2,0,L|397:250,1,95.9999970703126,0|2,0:0|0:0,0:0:0:0:
475,309,79336,1,0,0:0:0:0:
475,309,79422,2,0,L|488:213,1,95.9999970703126,8|2,0:0|0:0,0:0:0:0:
426,34,79765,5,12,0:0:0:0:
220,216,79936,1,2,0:0:0:0:
220,216,80022,1,0,0:0:0:0:
220,216,80107,1,2,0:0:0:0:
128,31,80279,6,0,P|192:19|239:22,1,95.9999970703126,12|2,0:0|0:0,0:0:0:0:
78,176,80622,1,2,0:0:0:0:
390,55,80793,1,12,0:0:0:0:
202,350,80965,6,0,P|97:363|34:288,1,191.999994140625,2|8,0:0|0:0,0:0:0:0:
220,142,81479,1,2,0:0:0:0:
133,283,81650,1,2,0:0:0:0:
103,73,81822,1,12,0:0:0:0:
149,59,81907,1,0,0:0:0:0:
196,58,81993,1,0,0:0:0:0:
243,70,82079,1,0,0:0:0:0:
289,84,82164,1,0,0:0:0:0:
336,87,82250,1,0,0:0:0:0:
384,79,82336,6,0,P|366:162|365:261,1,176.000005371094,6|2,0:0|0:0,0:0:0:0:
480,331,82850,1,8,0:0:0:0:
301,369,83022,1,0,0:0:0:0:
488,246,83193,1,2,0:0:0:0:
269,260,83365,1,2,0:0:0:0:
262,230,83450,1,8,0:0:0:0:
255,199,83536,1,8,0:0:0:0:
190,347,83707,6,0,B|147:338|147:338|66:363|66:363|8:351,1,176.000005371094,2|2,0:0|0:0,0:0:0:0:
11,175,84222,2,0,B|52:159|52:159|116:181,1,88.000002685547,8|0,0:0|0:0,0:0:0:0:
269,260,84565,2,0,L|259:217,2,44.0000013427735,2|8|2,0:0|0:0|0:0,0:0:0:0:
379,356,84907,1,8,0:0:0:0:
334,172,85079,6,0,P|260:131|178:183,1,176.000005371094,2|2,0:0|0:0,0:0:0:0:
127,325,85593,1,8,0:0:0:0:
11,175,85765,2,0,P|19:127|34:86,1,88.000002685547,2|0,0:0|0:0,0:0:0:0:
194,20,86107,1,2,0:0:0:0:
259,217,86279,1,8,0:0:0:0:
480,74,86450,6,0,P|488:162|490:254,1,176.000005371094,6|2,0:0|0:0,0:0:0:0:
490,249,86879,1,0,0:0:0:0:
490,249,86965,1,8,0:0:0:0:
365,362,87136,1,2,0:0:0:0:
352,161,87307,1,8,0:0:0:0:
332,126,87393,1,2,0:0:0:0:
300,101,87479,1,2,0:0:0:0:
260,93,87565,1,8,0:0:0:0:
221,100,87650,1,8,0:0:0:0:
190,125,87736,1,2,0:0:0:0:
173,161,87822,6,0,P|190:221|196:335,1,176.000005371094,6|2,0:0|0:0,0:0:0:0:
48,231,88336,1,8,0:0:0:0:
267,181,88507,1,0,0:0:0:0:
69,37,88679,2,0,L|77:133,1,88.000002685547,2|2,0:0|0:0,0:0:0:0:
76,124,88936,1,8,0:0:0:0:
76,124,89022,1,8,0:0:0:0:
262,32,89193,1,2,0:0:0:0:
152,175,89365,5,8,0:0:0:0:
409,193,89536,1,2,0:0:0:0:
157,362,89707,1,8,0:0:0:0:
464,269,89879,1,2,0:0:0:0:
464,269,89965,1,2,0:0:0:0:
464,269,90050,6,0,L|478:206,1,44.0000013427735,8|2,0:0|0:0,0:0:0:0:
301,189,90222,2,0,L|291:146,1,44.0000013427735,2|2,0:0|0:0,0:0:0:0:
496,117,90393,2,0,L|510:54,1,44.0000013427735,8|2,0:0|0:0,0:0:0:0:
262,32,90565,6,0,P|157:25|75:72,1,176.000005371094,6|2,0:0|0:0,0:0:0:0:
54,256,91079,1,8,0:0:0:0:
93,250,91165,1,2,0:0:0:0:
131,242,91250,2,0,L|196:254,1,44.0000013427735,2|2,0:0|0:0,0:0:0:0:
351,312,91422,2,0,L|286:300,1,44.0000013427735,8|2,0:0|0:0,0:0:0:0:
129,348,91593,2,0,L|194:336,1,44.0000013427735,2|2,0:0|0:0,0:0:0:0:
353,206,91765,2,0,L|288:218,1,44.0000013427735,8|0,0:0|0:0,0:0:0:0:
86,148,91936,6,0,P|66:64|103:20,1,132.00000402832,6|0,0:0|0:0,0:0:0:0:
185,13,92279,1,2,0:0:0:0:
223,23,92365,1,2,0:0:0:0:
260,33,92450,1,8,0:0:0:0:
174,175,92622,1,0,0:0:0:0:
426,45,92793,5,8,0:0:0:0:
498,308,92965,1,2,0:0:0:0:
278,105,93136,1,2,0:0:0:0:
206,368,93308,1,6,0:0:0:0:
