osu file format v14

[General]
AudioFilename: audio.mp3
AudioLeadIn: 0
PreviewTime: 60050
Countdown: 0
SampleSet: Soft
StackLeniency: 0.7
Mode: 0
LetterboxInBreaks: 0
WidescreenStoryboard: 1

[Editor]
DistanceSpacing: 1
BeatDivisor: 4
GridSize: 4
TimelineZoom: 1.6

[Metadata]
Title:FEARLESS HERO (TV Size)
TitleUnicode:FEARLESS HERO (TV Size)
Artist:Mizuki Nana
ArtistUnicode:水樹奈々
Creator:kunka
Version:Little's Easy
Source:DOG DAYS'
Tags:opening Little CloudSplash16 Akitoshi Corinn -laura- Shunao ShogunMoon Momochikun Kurantemelodii krt Firis Mistlud sekaii sekai-nyan Yasaija 714 Guy appleeaterx kunkakunkakunkakunka
BeatmapID:1661795
BeatmapSetID:786603

[Difficulty]
HPDrainRate:2
CircleSize:2.8
OverallDifficulty:2.5
ApproachRate:3
SliderMultiplier:0.9
SliderTickRate:1

[Events]
//Background and Video events
0,0,"BG.jpg",0,0
Video,0,"FEARLESS HERO.avi"
//Break Periods
2,15507,23467
//Storyboard Layer 0 (Background)
//Storyboard Layer 1 (Fail)
//Storyboard Layer 2 (Pass)
//Storyboard Layer 3 (Foreground)
//Storyboard Sound Samples

[TimingPoints]
2965,342.857142857143,4,2,1,70,1,0
15307,-100,4,2,1,50,0,0
24907,-100,4,2,1,70,0,0
60393,-100,4,2,1,75,0,1
82336,-100,4,2,1,70,0,0

[Colours]
Combo1 : 255,128,255
Combo2 : 128,255,128
Combo3 : 128,255,255
Combo4 : 255,128,128
Combo5 : 255,255,128

[HitObjects]
375,95,4165,6,0,P|413:148|408:214,1,135,4|8,0:0|0:0,0:0:0:0:
344,276,5022,2,0,L|210:292,1,135,2|2,0:0|0:0,0:0:0:0:
128,256,5879,1,2,0:0:0:0:
200,204,6222,2,0,P|208:160|192:112,1,90,0|8,0:0|0:0,0:0:0:0:
136,48,6907,6,0,P|214:86|298:57,1,180,4|2,0:0|0:0,0:0:0:0:
388,48,7936,1,2,0:0:0:0:
428,128,8279,2,0,L|406:306,1,180,4|2,0:0|0:0,0:0:0:0:
228,336,9650,6,0,P|189:282|194:216,1,135,4|8,0:0|0:0,0:0:0:0:
264,160,10507,2,0,B|272:112|272:112|248:28,1,135,2|2,0:0|0:0,0:0:0:0:
160,24,11365,1,2,0:0:0:0:
108,96,11707,2,0,P|67:115|17:112,1,90,0|0,0:0|0:0,0:0:0:0:
12,204,12393,6,0,L|145:220,1,135,4|8,0:0|0:0,0:0:0:0:
232,248,13250,2,0,P|285:209|351:214,2,135,4|4|2,3:0|0:0|0:0,0:0:0:0:
248,336,14622,2,0,P|288:355|332:353,1,90,2|0,0:0|0:0,0:0:0:0:
420,332,15307,1,4,0:0:0:0:
164,144,24907,6,0,B|78:135|78:135|32:151,2,135,4|4|8,0:0|0:0|0:0,0:0:0:0:
252,128,26279,6,0,L|275:41,1,90,2|2,0:0|0:0,0:0:0:0:
364,44,26965,2,0,L|379:132,1,90,2|2,0:0|0:0,0:0:0:0:
460,172,27650,2,0,P|484:255|431:323,1,180,2|2,0:0|0:0,0:0:0:0:
344,340,28679,1,2,0:0:0:0:
260,308,29022,6,0,B|216:302|173:325|173:325|136:292|93:287,1,180,2|2,0:0|0:0,0:0:0:0:
4,292,30050,1,2,0:0:0:0:
44,212,30393,2,0,P|45:167|26:127,1,90,2|2,0:0|0:0,0:0:0:0:
96,68,31079,2,0,P|134:90|179:93,1,90,2|2,0:0|0:0,0:0:0:0:
268,112,31765,6,0,P|356:97|446:90,1,180,4|2,0:0|0:0,0:0:0:0:
512,152,32793,1,2,0:0:0:0:
452,220,33136,2,0,P|437:262|434:307,1,90,4|2,0:0|0:0,0:0:0:0:
344,316,33822,2,0,P|335:271|315:231,1,90,2|2,0:0|0:0,0:0:0:0:
232,196,34507,6,0,P|174:228|109:214,1,135,4|4,0:0|0:0,0:0:0:0:
52,144,35365,1,0,0:0:0:0:
116,80,35707,2,0,B|163:69|163:69|247:88,1,135,4|8,0:0|0:0,0:0:0:0:
336,104,36565,2,0,L|425:93,1,90,12|12,0:0|0:0,0:0:0:0:
480,164,37250,6,0,P|420:227|333:225,1,180,4|0,0:0|0:0,0:0:0:0:
252,184,38279,1,8,0:0:0:0:
176,232,38622,2,0,L|159:365,2,135,2|2|8,0:0|0:0|0:0,0:0:0:0:
116,164,39993,6,0,P|74:149|29:146,1,90,2|8,0:0|0:0,0:0:0:0:
20,56,40679,2,0,P|65:47|105:27,1,90,0|8,0:0|0:0,0:0:0:0:
196,28,41365,2,0,B|239:33|276:66|276:66|319:43|363:49,1,180,2|0,0:0|0:0,0:0:0:0:
444,88,42393,1,8,0:0:0:0:
464,176,42736,6,0,P|461:220|446:263,1,90,4|8,0:0|0:0,0:0:0:0:
360,292,43422,2,0,P|317:276|272:274,1,90,0|8,0:0|0:0,0:0:0:0:
184,280,44107,2,0,L|50:296,2,135,2|2|8,0:0|0:0|0:0,0:0:0:0:
224,200,45479,6,0,P|228:134|189:80,1,135,2|2,0:0|0:0,0:0:0:0:
104,56,46336,1,2,0:0:0:0:
44,124,46679,2,0,P|39:189|78:243,1,135,4|8,0:0|0:0,0:0:0:0:
164,268,47536,2,0,L|153:357,1,90,8|8,0:0|0:0,0:0:0:0:
244,356,48222,6,0,L|265:177,1,180,4|8,0:0|0:0,0:0:0:0:
124,68,49593,2,0,P|54:119|56:206,1,180,2|8,0:0|0:0,0:0:0:0:
200,316,50965,6,0,B|288:348|288:284|376:316,2,180,2|8|4,0:0|0:0|0:0,0:0:0:0:
136,252,52679,1,0,0:0:0:0:
200,188,53022,2,0,P|242:175|286:183,1,90,8|8,0:0|0:0,0:0:0:0:
368,220,53707,6,0,P|421:151|397:68,1,180,4|0,0:0|0:0,0:0:0:0:
316,28,54736,1,8,0:0:0:0:
232,60,55079,2,0,P|188:57|145:42,1,90,2|8,0:0|0:0,0:0:0:0:
60,72,55765,2,0,P|45:114|41:159,1,90,0|8,0:0|0:0,0:0:0:0:
100,228,56450,6,0,B|147:240|147:240|232:223,1,135,4|4,0:0|0:0,0:0:0:0:
316,192,57307,1,0,0:0:0:0:
392,240,57650,2,0,P|422:298|409:363,2,135,2|4|4,0:0|0:0|3:0,0:0:0:0:
316,192,59022,6,0,L|305:102,1,90,4|2,0:0|0:0,0:0:0:0:
214,102,59707,2,0,L|203:191,1,90,4|2,0:0|0:0,0:0:0:0:
148,264,60393,6,0,P|83:277|24:246,1,135,4|8,0:0|0:0,0:0:0:0:
0,160,61250,2,0,L|10:70,1,90,0|8,0:0|0:0,0:0:0:0:
92,32,61936,2,0,B|152:52|152:52|267:32,1,180,0|2,0:0|0:0,0:0:0:0:
356,48,62965,1,8,0:0:0:0:
416,116,63307,6,0,P|412:160|396:202,1,90,2|8,0:0|0:0,0:0:0:0:
313,233,63993,2,0,P|270:218|225:214,1,90,0|8,0:0|0:0,0:0:0:0:
136,224,64679,2,0,P|83:155|107:72,1,180,0|2,0:0|0:0,0:0:0:0:
188,32,65707,1,8,0:0:0:0:
272,64,66050,6,0,P|286:106|290:151,1,90,0|8,0:0|0:0,0:0:0:0:
226,214,66736,2,0,P|211:256|207:301,1,90,2|8,0:0|0:0,0:0:0:0:
276,356,67422,2,0,B|337:370|337:370|450:340,1,180,0|2,0:0|0:0,0:0:0:0:
484,256,68450,1,8,0:0:0:0:
416,200,68793,6,0,P|351:187|292:218,1,135,4|0,0:0|0:0,0:0:0:0:
228,280,69650,1,2,0:0:0:0:
144,248,69993,2,0,P|127:206|123:161,1,90,4|2,0:0|0:0,0:0:0:0:
188,100,70679,2,0,P|230:117|275:121,1,90,8|8,0:0|0:0,0:0:0:0:
356,84,71365,6,0,P|420:70|479:101,1,135,4|8,0:0|0:0,0:0:0:0:
512,184,72222,2,0,L|502:274,1,90,2|8,0:0|0:0,0:0:0:0:
440,340,72907,1,0,0:0:0:0:
352,316,73250,1,8,0:0:0:0:
272,356,73593,2,0,P|228:364|185:351,1,90,2|8,0:0|0:0,0:0:0:0:
116,292,74279,6,0,L|106:202,1,90,2|8,0:0|0:0,0:0:0:0:
188,160,74965,2,0,L|198:70,1,90,0|8,0:0|0:0,0:0:0:0:
116,32,75650,2,0,P|38:73|27:158,1,180,0|8,0:0|0:0,0:0:0:0:
106,202,76679,1,8,0:0:0:0:
192,236,77022,6,0,L|282:226,1,90,4|8,0:0|0:0,0:0:0:0:
308,312,77707,2,0,L|218:322,1,90,2|8,0:0|0:0,0:0:0:0:
128,332,78393,2,0,P|86:315|41:311,1,90,2|8,0:0|0:0,0:0:0:0:
20,224,79079,2,0,P|64:219|106:202,1,90,2|8,0:0|0:0,0:0:0:0:
188,160,79765,6,0,P|252:146|311:177,1,135,4|4,0:0|0:0,0:0:0:0:
348,260,80622,1,2,0:0:0:0:
291,329,80965,2,0,P|226:342|167:311,1,135,2|2,0:0|0:0,0:0:0:0:
128,228,81822,1,4,0:0:0:0:
250,172,82336,6,0,B|258:124|258:124|234:40,1,135,4|8,0:0|0:0,0:0:0:0:
144,40,83193,2,0,P|95:84|85:150,1,135,2|2,0:0|0:0,0:0:0:0:
128,228,84050,1,2,0:0:0:0:
216,248,84393,2,0,P|259:234|304:234,1,90,0|8,0:0|0:0,0:0:0:0:
384,272,85079,6,0,P|345:192|374:110,1,180,4|2,0:0|0:0,0:0:0:0:
428,40,86107,1,0,0:0:0:0:
340,24,86450,2,0,B|252:56|252:-8|164:24,1,180,4|0,0:0|0:0,0:0:0:0:
132,200,87822,6,0,P|190:230|255:217,1,135,4|8,0:0|0:0,0:0:0:0:
340,180,88679,2,0,P|404:166|463:197,1,135,2|2,0:0|0:0,0:0:0:0:
508,276,89536,1,2,0:0:0:0:
440,336,89879,2,0,P|397:348|353:340,1,90,8|0,0:0|0:0,0:0:0:0:
268,312,90565,6,0,B|221:298|221:298|135:311,1,135,4|8,0:0|0:0,0:0:0:0:
48,288,91422,2,0,P|17:229|30:164,2,135,8|4|8,0:0|0:0|0:0,0:0:0:0:
136,311,92793,2,0,B|221:298|221:298|268:312,1,135,2|4,0:0|0:0,0:0:0:0:
