osu file format v14

[General]
AudioFilename: audio.mp3
AudioLeadIn: 0
PreviewTime: 60050
Countdown: 0
SampleSet: Soft
StackLeniency: 0.7
Mode: 0
LetterboxInBreaks: 0
WidescreenStoryboard: 1

[Editor]
DistanceSpacing: 1
BeatDivisor: 4
GridSize: 32
TimelineZoom: 1.6

[Metadata]
Title:FEARLESS HERO (TV Size)
TitleUnicode:FEARLESS HERO (TV Size)
Artist:Mizuki Nana
ArtistUnicode:水樹奈々
Creator:kunka
Version:Laura's Normal
Source:DOG DAYS'
Tags:opening Little CloudSplash16 Akitoshi Corinn -laura- Shunao ShogunMoon Momochikun Kurantemelodii krt Firis Mistlud sekaii sekai-nyan Yasaija 714 Guy appleeaterx kunkakunkakunkakunka
BeatmapID:1659037
BeatmapSetID:786603

[Difficulty]
HPDrainRate:4
CircleSize:3.2
OverallDifficulty:4
ApproachRate:5
SliderMultiplier:1
SliderTickRate:1

[Events]
//Background and Video events
0,0,"BG.jpg",0,0
Video,0,"FEARLESS HERO.avi"
//Break Periods
2,15507,23707
//Storyboard Layer 0 (Background)
//Storyboard Layer 1 (Fail)
//Storyboard Layer 2 (Pass)
//Storyboard Layer 3 (Foreground)
//Storyboard Sound Samples

[TimingPoints]
2965,342.857142857143,4,2,1,50,1,0
4165,-100,4,2,1,70,0,0
9650,-100,4,2,1,75,0,0
15650,-111.111111111111,4,2,2,40,0,0
24907,-100,4,2,1,60,0,0
31765,-100,4,2,1,65,0,0
37250,-100,4,2,1,60,0,0
42136,-100,4,2,1,5,0,0
42222,-100,4,2,1,60,0,0
48222,-100,4,2,1,50,0,0
53707,-100,4,2,1,60,0,0
60393,-100,4,2,1,75,0,1
82336,-100,4,2,1,70,0,0
87822,-100,4,2,1,75,0,0

[Colours]
Combo1 : 255,128,255
Combo2 : 128,255,128
Combo3 : 128,255,255
Combo4 : 255,128,128
Combo5 : 255,255,128

[HitObjects]
124,162,4165,6,0,P|191:149|233:157,1,100,6|2,0:0|0:0,0:0:0:0:
268,172,4679,1,8,0:0:0:0:
332,248,5022,2,0,L|393:245,2,50,2|2|8,0:0|0:0|0:0,0:0:0:0:
294,281,5536,2,0,L|187:275,1,100,2|2,0:0|0:0,0:0:0:0:
144,271,6050,1,8,0:0:0:0:
62,213,6393,2,0,L|1:216,2,50,2|2|8,0:0|0:0|0:0,0:0:0:0:
102,182,6907,6,0,P|139:165|197:162,1,100,2|2,0:0|0:0,0:0:0:0:
250,178,7422,1,8,0:0:0:0:
250,178,7593,2,0,P|298:185|352:170,1,100,2|2,0:0|0:0,0:0:0:0:
395,152,8107,1,8,0:0:0:0:
395,152,8279,2,0,B|414:197|414:197|406:257,1,100,6|2,0:0|0:0,0:0:0:0:
397,296,8793,1,8,0:0:0:0:
302,328,9136,2,0,L|307:377,2,50,10|2|8,0:0|0:0|0:0,0:0:0:0:
272,287,9650,6,0,P|219:299|166:289,1,100,6|2,0:0|0:0,0:0:0:0:
129,269,10165,1,8,0:0:0:0:
74,185,10507,2,0,L|15:188,2,50,2|2|8,0:0|0:0|0:0,0:0:0:0:
117,158,11022,2,0,P|162:169|223:151,1,100,2|2,0:0|0:0,0:0:0:0:
256,130,11536,1,8,0:0:0:0:
317,50,11879,2,0,L|368:54,2,50,8|2|8,0:0|0:0|0:0,0:0:0:0:
274,24,12393,6,0,P|221:28|159:34,1,100,6|2,0:0|0:0,0:0:0:0:
124,39,12907,1,8,0:0:0:0:
60,116,13250,2,0,L|9:112,2,50,8|2|8,0:0|0:0|0:0,0:0:0:0:
101,143,13765,2,0,B|149:161|149:161|200:151,1,100,6|8,0:0|0:0,0:0:0:0:
245,140,14279,1,2,0:0:0:0:
335,98,14622,2,0,P|330:57|325:18,2,75,8|8|8,0:3|0:3|0:3,0:0:0:0:
364,138,15307,5,6,0:0:0:0:
129,153,24907,6,0,L|69:157,2,50,8|8|8,0:0|0:0|0:0,0:0:0:0:
179,154,25422,2,0,P|227:167|278:155,1,100,6|8,0:0|0:0,0:0:0:0:
317,129,25936,1,8,0:0:0:0:
297,30,26279,6,0,L|190:27,1,100,2|2,0:0|0:0,0:0:0:0:
96,28,26965,1,2,0:0:0:0:
33,105,27307,1,2,0:0:0:0:
60,201,27650,2,0,P|108:216|167:203,1,100,2|2,0:0|0:0,0:0:0:0:
227,137,28336,1,2,0:0:0:0:
327,137,28679,1,2,0:0:0:0:
397,207,29022,6,0,L|388:320,1,100,2|2,0:0|0:0,0:0:0:0:
308,365,29707,1,2,0:0:0:0:
208,354,30050,1,2,0:0:0:0:
149,273,30393,2,0,P|96:281|36:263,2,100,2|2|2,0:0|0:0|0:0,0:0:0:0:
230,214,31422,1,2,0:0:0:0:
273,123,31765,6,0,L|388:129,1,100,6|2,0:0|0:0,0:0:0:0:
472,138,32450,1,2,0:0:0:0:
506,231,32793,1,6,0:0:0:0:
447,311,33136,2,0,P|402:324|336:309,1,100,6|2,0:0|0:0,0:0:0:0:
264,264,33822,2,0,L|192:268,1,50,10|10,0:0|0:0,0:0:0:0:
167,285,34165,2,0,L|95:281,1,50,10|8,0:0|0:0,0:0:0:0:
67,278,34507,6,0,P|52:222|68:170,1,100,4|8,0:0|0:0,0:0:0:0:
85,137,35022,2,0,P|129:150|186:138,1,100,6|2,0:0|0:0,0:0:0:0:
226,115,35536,1,8,0:0:0:0:
226,115,35707,2,0,L|327:122,1,100,6|8,0:0|0:0,0:0:0:0:
375,129,36222,1,8,0:0:0:0:
452,192,36565,2,0,P|463:242|443:302,1,100,8|8,0:0|0:0,0:0:0:0:
364,339,37250,6,0,B|266:349|266:349|202:310,2,150,6|2|8,0:0|0:0|0:0,0:0:0:0:
451,288,38622,2,0,P|378:239|314:251,2,150,2|2|8,0:0|0:0|0:0,0:0:0:0:
364,339,39993,6,0,L|250:350,1,100,2|8,0:0|0:0,0:0:0:0:
215,358,40507,2,0,P|151:364|87:312,1,150,2|8,0:0|0:0,0:0:0:0:
54,217,41365,2,0,L|4:220,2,50,2|2|8,0:0|0:0|0:0,0:0:0:0:
99,195,41879,2,0,P|148:209|210:194,1,100,2|2,0:0|0:0,0:0:0:0:
238,174,42393,1,8,0:0:0:0:
331,210,42736,6,0,L|343:324,1,100,6|8,0:0|0:0,0:0:0:0:
345,359,43250,2,0,P|390:373|460:360,1,100,2|2,0:0|0:0,0:0:0:0:
487,347,43765,1,8,0:0:0:0:
512,250,44107,2,0,L|500:136,1,100,2|8,0:0|0:0,0:0:0:0:
494,100,44622,2,0,P|449:86|379:99,1,100,2|2,0:0|0:0,0:0:0:0:
349,108,45136,1,8,0:0:0:0:
267,165,45479,6,0,L|273:235,2,50,2|2|8,0:0|0:0|0:0,0:0:0:0:
232,128,45993,2,0,P|181:142|127:131,1,100,2|2,0:0|0:0,0:0:0:0:
92,121,46507,1,8,0:0:0:0:
92,121,46679,2,0,L|84:233,1,100,2|2,0:0|0:0,0:0:0:0:
80,270,47193,1,8,0:0:0:0:
147,344,47536,2,0,P|194:357|259:340,1,100,8|8,0:0|0:0,0:0:0:0:
317,279,48222,6,0,B|340:174|276:191|308:83,1,200,2|8,0:0|0:0,0:0:0:0:
392,30,49250,1,0,0:0:0:0:
476,83,49593,2,0,B|508:190|444:173|467:278,1,200,2|8,0:0|0:0,0:0:0:0:
393,346,50622,1,0,0:0:0:0:
317,279,50965,6,0,B|248:271|248:271|201:291|201:291|108:273,1,200,2|8,0:0|0:0,0:0:0:0:
44,213,51993,2,0,P|39:171|41:146,1,50,0|8,0:0|0:3,0:0:0:0:
46,113,52336,2,0,P|134:140|241:95,1,200,6|2,0:0|0:0,0:0:0:0:
298,28,53365,1,8,0:0:0:0:
388,69,53707,6,0,P|392:117|396:174,1,100,6|8,0:0|0:0,0:0:0:0:
424,210,54222,2,0,P|420:258|416:315,1,100,2|2,0:0|0:0,0:0:0:0:
410,359,54736,1,8,0:0:0:0:
310,369,55079,2,0,P|261:351|208:355,1,100,2|8,0:0|0:0,0:0:0:0:
166,368,55593,2,0,P|166:318|168:268,1,100,2|2,0:0|0:0,0:0:0:0:
172,218,56107,1,8,0:0:0:0:
172,117,56450,6,0,P|92:103|57:112,1,100,12|2,0:0|0:0,0:0:0:0:
29,128,56965,2,0,L|21:246,1,100,12|2,0:0|0:0,0:0:0:0:
20,282,57479,1,8,0:0:0:0:
20,282,57650,2,0,P|100:296|135:287,1,100,8|12,0:3|0:0,0:0:0:0:
164,274,58165,1,12,0:0:0:0:
245,217,58507,2,0,L|241:154,2,50,8|10|2,0:0|0:0|0:0,0:0:0:0:
279,253,59022,6,0,P|323:245|388:242,1,100,6|2,0:0|0:0,0:0:0:0:
432,244,59536,1,8,0:0:0:0:
432,244,59707,2,0,P|445:185|434:144,1,100,6|0,0:0|0:0,1:0:0:0:
375,67,60393,6,0,B|323:77|323:77|259:62,1,100,6|2,0:0|0:0,0:0:0:0:
229,51,60907,1,8,0:0:0:0:
164,127,61250,2,0,L|168:232,1,100,2|8,0:0|0:0,0:0:0:0:
169,277,61765,2,0,P|119:293|65:283,1,100,2|2,0:0|0:0,0:0:0:0:
27,263,62279,1,8,0:0:0:0:
9,164,62622,2,0,L|13:108,1,50,2|2,0:0|0:0,0:0:0:0:
19,64,62965,1,8,0:0:0:0:
111,24,63307,6,0,P|173:42|219:31,1,100,2|8,0:0|0:0,0:0:0:0:
254,20,63822,2,0,L|359:24,1,100,2|2,0:0|0:0,0:0:0:0:
408,31,64336,1,8,0:0:0:0:
408,31,64507,2,0,B|425:79|425:79|409:132,1,100,6|2,0:0|0:0,0:0:0:0:
393,173,65022,1,8,0:0:0:0:
318,239,65365,2,0,L|324:302,2,50,8|0|8,0:0|0:0|0:0,0:0:0:0:
291,196,65879,6,0,P|229:204|192:195,1,100,6|2,0:0|0:0,0:0:0:0:
154,173,66393,1,8,0:0:0:0:
154,173,66565,2,0,L|48:179,1,100,0|2,0:0|0:0,0:0:0:0:
8,189,67079,1,8,0:0:0:0:
8,189,67250,2,0,B|1:241|1:241|15:291,1,100,2|2,0:0|0:0,0:0:0:0:
34,332,67765,1,8,0:0:0:0:
130,358,68107,2,0,L|194:354,1,50,2|2,0:0|0:0,0:0:0:0:
225,333,68450,2,0,L|289:337,1,50,8|0,0:0|0:0,0:0:0:0:
325,338,68793,6,0,B|341:291|341:291|325:230,1,100,6|8,0:0|0:0,0:0:0:0:
306,197,69307,1,6,0:0:0:0:
216,151,69650,1,6,0:0:0:0:
131,204,69993,2,0,P|81:212|21:190,1,100,6|6,0:0|0:0,0:0:0:0:
4,166,70507,1,8,0:0:0:0:
4,166,70679,2,0,P|9:107|11:65,1,100,6|8,0:0|0:0,0:0:0:0:
20,21,71193,1,8,0:0:0:0:
20,21,71365,6,0,B|67:36|67:36|127:32,1,100,6|2,0:0|0:0,0:0:0:0:
167,27,71879,1,8,0:0:0:0:
258,66,72222,2,0,P|272:118|263:167,1,100,2|8,0:0|0:0,0:0:0:0:
235,203,72736,2,0,P|221:255|230:304,1,100,2|2,0:0|0:0,0:0:0:0:
245,346,73250,1,8,0:0:0:0:
341,372,73593,2,0,L|397:367,1,50,2|2,0:0|0:0,0:0:0:0:
440,364,73936,1,8,0:0:0:0:
502,286,74279,6,0,P|509:236|495:189,1,100,2|8,0:0|0:0,0:0:0:0:
464,149,74793,2,0,P|414:156|367:142,1,100,2|2,0:0|0:0,0:0:0:0:
325,127,75307,1,8,0:0:0:0:
325,127,75479,2,0,B|277:142|277:142|215:131,1,100,6|2,0:0|0:0,0:0:0:0:
179,122,75993,1,8,0:0:0:0:
82,148,76336,1,8,0:0:0:0:
55,244,76679,1,8,0:0:0:0:
99,333,77022,6,0,P|165:348|207:337,1,100,6|8,0:0|0:0,0:0:0:0:
237,314,77536,2,0,P|242:243|244:209,1,100,2|2,0:0|0:0,0:0:0:0:
249,164,78050,1,8,0:0:0:0:
293,74,78393,2,0,P|359:59|401:70,1,100,2|8,0:0|0:0,0:0:0:0:
477,113,79079,1,0,0:0:0:0:
502,209,79422,1,8,0:0:0:0:
458,299,79765,6,0,L|356:291,1,100,12|2,0:0|0:0,0:0:0:0:
308,287,80279,2,0,P|246:301|199:289,1,100,12|2,0:0|0:0,0:0:0:0:
169,277,80793,1,12,0:0:0:0:
169,277,80965,2,0,L|163:176,1,100,2|8,0:0|0:0,0:0:0:0:
156,127,81479,1,2,0:0:0:0:
82,58,81822,2,0,L|87:4,2,50,12|0|0,0:0|0:0|0:0,0:0:0:0:
49,96,82336,6,0,P|51:140|54:196,1,100,6|2,0:0|0:0,0:0:0:0:
55,246,82850,1,8,0:0:0:0:
125,316,83193,2,0,P|124:338|122:366,2,50,2|2|8,0:0|0:0|0:0,0:0:0:0:
155,275,83707,2,0,P|197:259|270:269,1,100,2|2,0:0|0:0,0:0:0:0:
299,276,84222,1,8,0:0:0:0:
386,325,84565,2,0,P|385:347|383:375,2,50,2|2|8,0:0|0:0|0:0,0:0:0:0:
420,289,85079,6,0,L|412:183,1,100,2|2,0:0|0:0,0:0:0:0:
408,144,85593,1,8,0:0:0:0:
408,144,85765,2,0,P|340:156|306:146,1,100,2|2,0:0|0:0,0:0:0:0:
271,129,86279,1,8,0:0:0:0:
271,129,86450,2,0,B|223:143|223:143|168:133,1,100,6|2,0:0|0:0,0:0:0:0:
126,117,86965,1,8,0:0:0:0:
48,53,87307,2,0,L|-9:57,2,50,8|2|8,0:0|0:0|0:0,0:0:0:0:
90,25,87822,6,0,B|145:16|145:16|196:27,1,100,6|2,0:0|0:0,0:0:0:0:
235,41,88336,1,8,0:0:0:0:
324,85,88679,2,0,L|392:81,2,50,2|2|8,0:0|0:0|0:0,0:0:0:0:
293,124,89193,2,0,P|278:173|291:234,1,100,2|2,0:0|0:0,0:0:0:0:
301,267,89707,1,8,0:0:0:0:
354,351,90050,2,0,L|422:347,2,50,8|2|8,0:0|0:0|0:0,0:0:0:0:
309,375,90565,6,0,P|255:369|202:363,1,100,6|2,0:0|0:0,0:0:0:0:
159,357,91079,1,8,0:0:0:0:
73,305,91422,2,0,L|13:311,2,50,8|2|8,0:0|0:0|0:0,0:0:0:0:
114,277,91936,2,0,B|132:231|132:231|123:174,1,100,6|2,0:0|0:0,0:0:0:0:
117,131,92450,1,8,0:0:0:0:
89,34,92793,2,0,L|34:37,2,50,8|2|2,0:0|0:0|0:0,0:0:0:0:
137,20,93307,5,6,0:0:0:0:
