osu file format v14

[General]
AudioFilename: audio.mp3
AudioLeadIn: 0
PreviewTime: 60050
Countdown: 0
SampleSet: Soft
StackLeniency: 0.7
Mode: 0
LetterboxInBreaks: 0
WidescreenStoryboard: 0

[Editor]
DistanceSpacing: 1
BeatDivisor: 4
GridSize: 4
TimelineZoom: 2.999999

[Metadata]
Title:FEARLESS HERO (TV Size)
TitleUnicode:FEARLESS HERO (TV Size)
Artist:Mizuki Nana
ArtistUnicode:水樹奈々
Creator:kunka
Version:Guy's Extra
Source:DOG DAYS'
Tags:opening Little CloudSplash16 Akitoshi Corinn -laura- Shunao ShogunMoon Momochikun Kurantemelodii krt Firis Mistlud sekaii sekai-nyan Yasaija 714 Guy appleeaterx kunkakunkakunkakunka
BeatmapID:1658821
BeatmapSetID:786603

[Difficulty]
HPDrainRate:7
CircleSize:3.8
OverallDifficulty:8.5
ApproachRate:9.3
SliderMultiplier:1.8
SliderTickRate:1

[Events]
//Background and Video events
0,0,"BG.jpg",0,0
Video,0,"FEARLESS HERO.avi"
//Break Periods
//Storyboard Layer 0 (Background)
//Storyboard Layer 1 (Fail)
//Storyboard Layer 2 (Pass)
//Storyboard Layer 3 (Foreground)
//Storyboard Sound Samples

[TimingPoints]
2965,342.857142857143,4,2,1,50,1,0
4165,-100,4,2,1,70,0,0
15307,-133.333333333333,4,2,2,50,0,0
24907,-100,4,2,1,70,0,0
59707,-200,4,2,1,50,0,0
60307,-200,4,2,1,20,0,0
60393,-83.3333333333333,4,2,1,75,0,1
60907,-100,4,2,1,75,0,1
71365,-83.3333333333333,4,2,1,75,0,1
71879,-100,4,2,1,75,0,1
81222,-100,4,2,1,20,0,1
81307,-100,4,2,1,75,0,1
82336,-100,4,2,1,70,0,0

[Colours]
Combo1 : 255,128,255
Combo2 : 128,255,128
Combo3 : 128,255,255
Combo4 : 255,128,128
Combo5 : 255,255,128

[HitObjects]
474,278,3822,6,0,L|430:270,1,45
346,197,3993,2,0,L|302:205,1,45
245,304,4165,6,0,P|182:242|94:264,1,180,4|2,0:0|0:0,0:0:0:0:
99,259,4593,1,0,0:0:0:0:
99,259,4679,1,8,0:0:0:0:
283,180,4850,1,0,0:0:0:0:
70,124,5022,1,2,0:0:0:0:
371,73,5193,1,8,0:0:0:0:
371,73,5279,1,8,0:0:0:0:
371,73,5365,1,8,0:0:0:0:
162,321,5536,6,0,P|94:310|67:305,1,90,2|0,0:0|0:0,0:0:0:0:
315,194,5879,2,0,P|247:183|220:178,1,90,2|8,0:0|0:0,0:0:0:0:
143,82,6222,1,0,0:0:0:0:
263,306,6393,1,8,0:0:0:0:
263,306,6479,1,8,0:0:0:0:
263,306,6565,1,8,0:0:0:0:
415,156,6736,1,8,0:0:0:0:
383,372,6907,6,0,P|292:355|200:335,1,180,4|2,0:0|0:0,0:0:0:0:
72,297,7422,1,8,0:0:0:0:
289,234,7593,2,0,P|287:183|282:139,1,90,2|0,0:0|0:0,0:0:0:0:
121,78,7936,1,2,0:0:0:0:
143,252,8107,1,8,0:0:0:0:
282,144,8279,6,0,P|370:137|475:131,1,180,4|2,0:0|0:0,0:0:0:0:
314,354,8793,2,0,L|258:350,1,45,8|0,0:0|0:0,0:0:0:0:
168,338,8965,1,0,0:0:0:0:
159,294,9050,1,0,0:0:0:0:
159,248,9136,1,8,0:0:0:0:
167,203,9222,1,8,0:0:0:0:
179,160,9307,1,8,0:0:0:0:
184,115,9393,1,8,0:0:0:0:
180,69,9479,1,8,0:0:0:0:
68,265,9650,6,0,P|156:272|261:278,1,180,4|2,0:0|0:0,0:0:0:0:
318,161,10165,1,8,0:0:0:0:
339,335,10336,1,0,0:0:0:0:
316,148,10507,1,2,0:0:0:0:
167,356,10679,1,0,0:0:0:0:
167,356,10765,1,0,0:0:0:0:
167,356,10850,1,8,0:0:0:0:
424,219,11022,6,0,P|429:174|431:126,1,90,2|8,0:0|0:0,0:0:0:0:
289,296,11365,1,2,0:0:0:0:
260,124,11536,1,8,0:0:0:0:
292,311,11707,1,0,0:0:0:0:
358,57,11879,1,2,0:0:0:0:
358,57,11965,1,0,0:0:0:0:
358,57,12050,2,0,P|326:64|304:68,1,45
280,178,12222,2,0,P|252:164|234:152,1,45,8|0,0:0|0:0,0:0:0:0:
146,225,12393,6,0,P|134:146|123:40,1,180,4|2,0:0|0:0,0:0:0:0:
101,304,12907,1,8,0:0:0:0:
154,310,12993,1,8,0:0:0:0:
203,288,13079,1,8,0:0:0:0:
229,240,13165,1,8,0:0:0:0:
231,186,13250,2,0,P|226:158|222:124,1,45,4|8,3:0|0:0,0:0:0:0:
362,49,13422,1,8,0:0:0:0:
362,49,13507,1,8,0:0:0:0:
362,49,13593,1,4,3:0:0:0:
414,344,13765,6,0,P|326:339|225:321,1,180,4|8,0:0|0:0,0:0:0:0:
140,101,14279,1,2,0:0:0:0:
377,165,14450,1,0,0:0:0:0:
246,206,14622,2,0,P|239:134|236:56,2,135,2|2|2,0:0|0:0|0:0,0:0:0:0:
360,276,15307,6,0,L|496:266,1,135.000005149842,4|0,0:0|0:0,0:0:0:0:
266,340,15822,1,0,0:0:0:0:
266,340,15993,2,0,P|254:278|250:252,2,67.5000025749208,2|0|0,0:0|0:0|0:0,0:0:0:0:
304,189,16507,6,0,P|229:234|160:240,1,135.000005149842
81,186,17022,1,0,0:0:0:0:
176,121,17193,1,0,0:0:0:0:
72,194,17365,1,2,0:0:0:0:
72,194,17707,6,0,P|72:161|81:125,1,67.5000025749208
205,88,18050,2,0,P|212:120|213:154,1,67.5000025749208
213,265,18393,2,0,P|250:257|280:240,1,67.5000025749208
345,151,18736,1,2,0:0:0:0:
474,188,18907,1,0,0:0:0:0:
330,146,19079,1,0,0:0:0:0:
488,193,19250,1,0,0:0:0:0:
381,78,19422,5,0,0:0:0:0:
407,170,19593,1,0,0:0:0:0:
407,170,19679,1,0,0:0:0:0:
407,170,19765,1,0,0:0:0:0:
358,252,19936,1,0,0:0:0:0:
263,263,20107,5,2,0:0:0:0:
187,204,20279,1,0,0:0:0:0:
187,204,20365,1,0,0:0:0:0:
187,204,20450,1,0,0:0:0:0:
179,108,20622,1,0,0:0:0:0:
252,45,20793,6,0,L|335:57,1,67.5000025749208
380,269,21136,2,0,L|297:257,1,67.5000025749208
179,144,21479,1,2,0:0:0:0:
179,144,21650,2,0,L|331:166,1,135.000005149842
436,129,22165,5,0,0:0:0:0:
398,257,22336,1,0,0:0:0:0:
442,117,22507,1,0,0:0:0:0:
394,268,22679,1,0,0:0:0:0:
292,156,22850,5,2,0:0:0:0:
136,194,23022,1,0,0:0:0:0:
303,154,23193,1,0,0:0:0:0:
123,198,23365,1,0,0:0:0:0:
332,82,23536,6,0,P|369:113|380:152,1,67.5000025749208
269,209,23879,2,0,P|284:169|304:152,1,67.5000025749208
349,217,24222,1,2,0:0:0:0:
208,132,24393,1,0,0:0:0:0:
342,300,24565,1,0,0:0:0:0:
306,33,24736,1,0,0:0:0:0:
101,340,24907,5,4,0:0:0:0:
101,340,24993,1,0,0:0:0:0:
101,340,25079,1,0,0:0:0:0:
101,340,25165,1,0,0:0:0:0:
101,340,25250,1,8,0:0:0:0:
402,300,25422,2,0,P|394:184|388:117,1,180,4|0,0:0|0:0,0:0:0:0:
129,47,25936,1,8,0:0:0:0:
310,203,26107,1,8,0:0:0:0:
310,203,26193,1,8,0:0:0:0:
310,203,26279,6,0,P|308:255|305:300,1,90,2|0,0:0|0:0,0:0:0:0:
201,347,26622,1,2,0:0:0:0:
163,138,26793,1,0,0:0:0:0:
205,358,26965,2,0,P|249:352|298:342,1,90,2|0,0:0|0:0,0:0:0:0:
160,128,27307,2,0,P|116:134|67:144,1,90,2|0,0:0|0:0,0:0:0:0:
235,239,27650,5,2,0:0:0:0:
254,37,27822,1,0,0:0:0:0:
234,251,27993,1,2,0:0:0:0:
330,105,28165,1,0,0:0:0:0:
81,157,28336,2,0,P|84:209|87:251,1,90,2|0,0:0|0:0,0:0:0:0:
341,357,28679,2,0,P|344:312|346:267,1,90,2|0,0:0|0:0,0:0:0:0:
236,86,29022,5,2,0:0:0:0:
260,303,29193,1,0,0:0:0:0:
234,74,29365,1,2,0:0:0:0:
262,315,29536,1,0,0:0:0:0:
314,130,29707,1,2,0:0:0:0:
175,334,29879,1,0,0:0:0:0:
322,127,30050,2,0,L|414:138,1,90,2|0,0:0|0:0,0:0:0:0:
102,271,30393,5,2,0:0:0:0:
122,110,30565,1,0,0:0:0:0:
122,110,30650,1,0,0:0:0:0:
122,110,30736,1,2,0:0:0:0:
276,60,30907,1,0,0:0:0:0:
124,299,31079,1,2,0:0:0:0:
211,129,31250,1,0,0:0:0:0:
211,129,31336,1,0,0:0:0:0:
211,129,31422,1,2,0:0:0:0:
403,101,31593,1,0,0:0:0:0:
146,317,31765,6,0,P|142:271|139:218,1,90,4|0,0:0|0:0,0:0:0:0:
362,173,32107,1,2,0:0:0:0:
80,81,32279,1,0,0:0:0:0:
377,178,32450,1,2,0:0:0:0:
108,243,32622,1,0,0:0:0:0:
443,120,32793,2,0,P|460:162|458:210,1,90,2|0,0:0|0:0,0:0:0:0:
272,349,33136,1,4,0:0:0:0:
329,203,33307,5,0,0:0:0:0:
281,182,33393,1,0,0:0:0:0:
230,188,33479,1,2,0:0:0:0:
190,221,33565,1,0,0:0:0:0:
172,270,33650,1,0,0:0:0:0:
183,321,33736,1,0,0:0:0:0:
219,358,33822,2,0,P|263:354|275:352,1,45,2|0,0:0|0:0,0:0:0:0:
445,326,33993,1,0,0:0:0:0:
441,278,34079,1,0,0:0:0:0:
437,231,34165,1,2,0:0:0:0:
433,183,34250,1,0,0:0:0:0:
429,136,34336,1,0,0:0:0:0:
426,89,34422,1,0,0:0:0:0:
422,41,34507,5,4,0:0:0:0:
323,344,34679,1,0,0:0:0:0:
79,139,34850,1,8,0:0:0:0:
483,209,35022,2,0,P|474:272|468:308,1,90,4|0,0:0|0:0,0:0:0:0:
122,347,35365,1,0,0:0:0:0:
122,347,35450,1,0,0:0:0:0:
122,347,35536,1,8,0:0:0:0:
225,63,35707,6,0,B|339:49|339:49|406:91,1,180,4|8,0:0|0:0,0:0:0:0:
364,345,36222,1,8,0:0:0:0:
315,339,36307,1,0,0:0:0:0:
265,332,36393,1,0,0:0:0:0:
63,98,36565,1,12,0:0:0:0:
117,370,36736,1,0,0:0:0:0:
117,370,36822,1,0,0:0:0:0:
117,370,36907,1,12,0:0:0:0:
281,246,37079,1,0,0:0:0:0:
255,202,37165,1,0,0:0:0:0:
234,156,37250,6,0,P|240:97|248:64,1,90,4|0,0:0|0:0,0:0:0:0:
365,264,37593,5,8,0:0:0:0:
175,227,37765,1,2,0:0:0:0:
377,266,37936,1,0,0:0:0:0:
239,110,38107,1,2,0:0:0:0:
266,328,38279,1,8,0:0:0:0:
236,93,38450,1,0,0:0:0:0:
270,344,38622,6,0,P|329:337|374:328,1,90,2|0,0:0|0:0,0:0:0:0:
383,320,38879,1,0,0:0:0:0:
405,307,38965,1,8,0:0:0:0:
182,166,39136,1,2,0:0:0:0:
182,166,39479,1,2,0:0:0:0:
283,211,39650,1,8,0:0:0:0:
113,83,39822,1,0,0:0:0:0:
110,315,39993,6,0,P|165:312|203:306,1,90,2|0,0:0|0:0,0:0:0:0:
399,189,40336,1,8,0:0:0:0:
321,338,40507,1,2,0:0:0:0:
364,101,40679,2,0,P|409:103|454:110,1,90,0|2,0:0|0:0,0:0:0:0:
311,346,41022,2,0,P|266:344|221:337,1,90,8|0,0:0|0:0,0:0:0:0:
137,178,41365,5,2,0:0:0:0:
411,225,41536,1,0,0:0:0:0:
124,175,41707,1,8,0:0:0:0:
335,123,41879,2,0,P|322:215|311:312,1,180,2|2,0:0|0:0,0:0:0:0:
420,167,42393,1,8,0:0:0:0:
430,118,42478,1,0,0:0:0:0:
414,70,42564,1,0,0:0:0:0:
377,37,42650,1,0,0:0:0:0:
328,27,42736,6,0,P|244:51|151:60,1,180,4|8,0:0|0:0,0:0:0:0:
128,168,43250,2,0,P|82:142|57:115,1,90,2|0,0:0|0:0,0:0:0:0:
148,270,43593,2,0,P|194:244|219:217,1,90,2|8,0:0|0:0,0:0:0:0:
277,91,43936,1,0,0:0:0:0:
305,325,44107,5,2,0:0:0:0:
305,325,44279,2,0,L|394:313,1,90,2|8,0:0|0:0,0:0:0:0:
212,207,44622,2,0,L|34:230,1,180,2|2,0:0|0:0,0:0:0:0:
287,79,45136,1,8,0:0:0:0:
287,79,45479,5,2,0:0:0:0:
33,230,45650,1,0,0:0:0:0:
33,230,45736,1,0,0:0:0:0:
33,230,45822,1,8,0:0:0:0:
200,339,45993,2,0,P|208:285|213:247,1,90,2|0,0:0|0:0,0:0:0:0:
120,83,46336,1,2,0:0:0:0:
127,281,46507,1,8,0:0:0:0:
299,178,46679,6,0,B|346:167|346:167|483:198,1,180,4|2,0:0|0:0,0:0:0:0:
237,237,47193,2,0,P|220:200|221:145,1,90,8|2,0:0|0:0,0:0:0:0:
243,108,47450,1,0,0:0:0:0:
284,91,47536,1,8,0:0:0:0:
329,90,47622,1,0,0:0:0:0:
371,104,47708,1,2,0:0:0:0:
407,131,47793,1,0,0:0:0:0:
431,169,47879,1,8,0:0:0:0:
441,213,47965,1,0,0:0:0:0:
435,257,48050,1,4,3:0:0:0:
415,297,48136,1,0,0:0:0:0:
382,329,48222,6,0,P|225:303|180:298,1,180,4|0,0:0|0:0,0:0:0:0:
176,188,48736,1,0,0:0:0:0:
176,188,48822,1,0,0:0:0:0:
176,188,48907,2,0,P|128:214|99:245,1,90,8|0,0:0|0:0,0:0:0:0:
102,352,49250,1,0,0:0:0:0:
54,160,49422,1,2,0:0:0:0:
106,362,49593,1,2,0:0:0:0:
184,86,49765,6,0,P|259:84|302:177,1,180,8|0,0:0|0:0,0:0:0:0:
292,278,50279,1,8,0:0:0:0:
181,257,50450,1,0,0:0:0:0:
122,350,50622,1,0,0:0:0:0:
188,248,50793,2,0,L|141:257,1,45
284,364,50965,6,0,P|337:348|367:238,1,180,2|0,0:0|0:0,0:0:0:0:
230,96,51479,1,0,0:0:0:0:
230,96,51565,1,0,0:0:0:0:
230,96,51650,2,0,P|239:153|247:188,1,90,8|8,0:0|0:0,0:0:0:0:
280,256,51907,1,0,0:0:0:0:
292,278,51993,1,8,0:0:0:0:
460,156,52165,5,0,0:0:0:0:
455,204,52250,1,0,0:0:0:0:
450,253,52336,1,4,0:0:0:0:
366,102,52507,2,0,L|347:288,1,180,8|8,0:0|0:0,0:0:0:0:
279,328,52936,1,8,0:0:0:0:
267,350,53022,1,8,0:0:0:0:
206,96,53193,1,2,0:0:0:0:
417,267,53365,1,8,0:0:0:0:
367,287,53450,1,8,0:0:0:0:
312,287,53536,1,8,0:0:0:0:
259,273,53622,1,8,0:0:0:0:
222,234,53707,6,0,P|230:137|239:85,1,135,4|0,0:0|0:0,0:0:0:0:
257,21,54050,1,8,0:0:0:0:
259,316,54222,2,0,P|180:311|136:225,1,180,2|2,0:0|0:0,0:0:0:0:
174,43,54736,1,8,0:0:0:0:
222,234,54907,1,2,0:0:0:0:
378,119,55079,6,0,P|386:189|392:273,1,135,2|0,0:0|0:0,0:0:0:0:
400,335,55422,1,8,0:0:0:0:
231,203,55593,2,0,P|140:219|39:228,1,180,2|2,0:0|0:0,0:0:0:0:
181,104,56107,1,8,0:0:0:0:
284,302,56279,1,8,0:0:0:0:
425,54,56450,5,4,0:0:0:0:
390,257,56622,1,8,0:0:0:0:
390,257,56707,1,8,0:0:0:0:
390,257,56793,1,8,0:0:0:0:
143,178,56965,5,4,0:0:0:0:
371,362,57136,1,8,0:0:0:0:
371,362,57222,1,8,0:0:0:0:
371,362,57307,1,8,0:0:0:0:
407,151,57479,2,0,L|358:161,1,45,2|0,0:0|0:0,0:0:0:0:
266,275,57650,2,0,L|217:265,1,45,2|0,0:0|0:0,0:0:0:0:
70,234,57822,1,2,0:0:0:0:
256,32,57993,5,4,0:0:0:0:
256,352,58165,1,4,0:0:0:0:
256,352,58507,5,4,0:0:0:0:
271,305,58593,1,0,0:0:0:0:
279,256,58679,1,4,3:0:0:0:
268,201,58765,1,0,0:0:0:0:
248,145,58850,1,2,0:0:0:0:
237,87,58936,1,0,0:0:0:0:
256,32,59022,1,4,0:0:0:0:
174,245,59193,5,2,0:0:0:0:
174,245,59279,1,2,0:0:0:0:
174,245,59365,2,0,P|184:273|197:292,1,45,2|0,0:0|0:0,0:0:0:0:
293,317,59536,2,0,P|311:337|329:349,1,45,8|0,0:0|0:0,0:0:0:0:
443,348,59707,6,0,L|435:180,1,157.5,2|0,0:0|0:0,0:0:0:0:
429,105,60393,6,0,P|354:72|305:190,1,215.999993408203,4|2,0:0|0:0,0:0:0:0:
305,344,60907,2,0,P|261:337|215:333,1,90,8|0,0:0|0:0,0:0:0:0:
34,211,61250,2,0,P|78:204|124:200,1,90,2|0,0:0|0:0,0:0:0:0:
179,141,61507,1,0,0:0:0:0:
203,151,61593,1,8,0:0:0:0:
304,312,61765,6,0,P|286:195|283:129,1,180,4|2,0:0|0:0,0:0:0:0:
331,2,62279,1,8,0:0:0:0:
381,249,62450,1,0,0:0:0:0:
189,145,62622,1,2,0:0:0:0:
189,145,62707,1,0,0:0:0:0:
189,145,62793,1,0,0:0:0:0:
440,175,62965,1,8,0:0:0:0:
197,294,63136,1,0,0:0:0:0:
94,47,63307,5,2,0:0:0:0:
282,153,63479,2,0,P|278:205|275:242,1,90,0|8,0:0|0:0,0:0:0:0:
105,346,63822,2,0,P|101:294|98:257,1,90,2|0,0:0|0:0,0:0:0:0:
88,136,64165,1,2,0:0:0:0:
259,359,64336,1,8,0:0:0:0:
432,78,64507,6,0,L|340:85,1,90,4|0,0:0|0:0,0:0:0:0:
213,268,64850,1,2,0:0:0:0:
257,26,65022,1,8,0:0:0:0:
312,182,65193,2,0,L|317:231,1,45,2|0,0:0|0:0,0:0:0:0:
280,336,65365,1,2,0:0:0:0:
226,364,65450,1,0,0:0:0:0:
166,354,65536,1,2,0:0:0:0:
123,311,65622,1,0,0:0:0:0:
115,250,65707,1,8,0:0:0:0:
394,109,65879,6,0,P|403:220|403:306,1,180,4|2,0:0|0:0,0:0:0:0:
269,132,66393,1,8,0:0:0:0:
269,132,66565,2,0,P|275:85|285:37,1,90,0|2,0:0|0:0,0:0:0:0:
284,255,66907,1,0,0:0:0:0:
242,245,66993,1,0,0:0:0:0:
200,232,67079,1,8,0:0:0:0:
394,109,67250,6,0,P|402:153|408:197,1,90,2|0,0:0|0:0,0:0:0:0:
220,321,67593,1,2,0:0:0:0:
283,43,67765,1,8,0:0:0:0:
306,267,67936,1,0,0:0:0:0:
83,218,68107,1,2,0:0:0:0:
83,218,68193,1,0,0:0:0:0:
83,218,68279,1,0,0:0:0:0:
294,141,68450,1,8,0:0:0:0:
248,360,68622,1,0,0:0:0:0:
160,73,68793,5,4,0:0:0:0:
453,119,68965,1,0,0:0:0:0:
78,225,69136,1,8,0:0:0:0:
321,30,69307,2,0,L|279:15,2,45,2|0|0,0:0|0:0|0:0,0:0:0:0:
225,267,69650,2,0,P|229:311|233:356,1,90,2|8,0:0|0:0,0:0:0:0:
89,178,69993,6,0,P|84:133|81:89,1,90,4|0,0:0|0:0,0:0:0:0:
103,317,70336,1,2,0:0:0:0:
204,71,70507,1,8,0:0:0:0:
422,224,70679,1,8,0:0:0:0:
422,224,70765,1,8,0:0:0:0:
422,224,70850,2,0,L|419:268,1,45,8|0,0:0|0:0,0:0:0:0:
328,310,71022,1,8,0:0:0:0:
276,282,71107,1,8,0:0:0:0:
217,283,71193,1,8,0:0:0:0:
167,314,71279,1,8,0:0:0:0:
139,365,71365,6,0,P|132:247|120:144,1,215.999993408203,4|2,0:0|0:0,0:0:0:0:
265,43,71879,2,0,P|308:37|359:32,1,90,8|0,0:0|0:0,0:0:0:0:
454,216,72222,2,0,P|411:210|360:205,1,90,2|0,0:0|0:0,0:0:0:0:
293,161,72479,1,0,0:0:0:0:
266,170,72565,1,8,0:0:0:0:
137,35,72736,6,0,P|130:134|129:222,1,180,4|2,0:0|0:0,0:0:0:0:
146,350,73250,1,8,0:0:0:0:
34,181,73422,1,0,0:0:0:0:
275,275,73593,1,2,0:0:0:0:
175,73,73765,1,0,0:0:0:0:
143,368,73936,1,8,0:0:0:0:
422,232,74107,5,0,0:0:0:0:
422,232,74193,1,0,0:0:0:0:
422,232,74279,1,2,0:0:0:0:
262,138,74450,1,0,0:0:0:0:
273,324,74622,1,8,0:0:0:0:
432,229,74793,2,0,P|437:174|437:134,1,90,2|0,0:0|0:0,0:0:0:0:
246,124,75136,5,2,0:0:0:0:
262,340,75307,1,8,0:0:0:0:
445,222,75479,2,0,P|441:143|340:114,1,180,4|2,0:0|0:0,0:0:0:0:
82,57,75993,5,8,0:0:0:0:
376,184,76165,1,2,0:0:0:0:
372,188,76251,1,0,0:0:0:0:
368,192,76337,1,8,0:0:0:0:
175,354,76507,1,2,0:0:0:0:
296,44,76679,1,8,0:0:0:0:
402,352,76850,5,2,0:0:0:0:
352,346,76936,1,0,0:0:0:0:
302,338,77022,2,0,P|288:275|283:237,1,90,4|0,0:0|0:0,0:0:0:0:
297,120,77365,1,8,0:0:0:0:
160,274,77536,1,2,0:0:0:0:
308,109,77707,2,0,L|402:117,1,90,0|2,0:0|0:0,0:0:0:0:
149,280,78050,2,0,L|55:272,1,90,8|0,0:0|0:0,0:0:0:0:
194,103,78393,5,2,0:0:0:0:
318,281,78565,1,0,0:0:0:0:
185,92,78736,2,0,L|91:100,1,90,8|2,0:0|0:0,0:0:0:0:
327,292,79079,2,0,L|421:284,1,90,0|2,0:0|0:0,0:0:0:0:
352,108,79422,1,8,0:0:0:0:
160,276,79593,1,0,0:0:0:0:
410,48,79765,5,4,0:0:0:0:
306,347,79936,1,2,0:0:0:0:
75,131,80107,1,8,0:0:0:0:
318,355,80279,2,0,P|324:286|324:244,1,90,4|0,0:0|0:0,0:0:0:0:
230,56,80622,5,2,0:0:0:0:
115,326,80793,1,12,0:0:0:0:
439,187,80965,2,0,P|434:118|424:52,1,135,2|0,0:0|0:0,0:0:0:0:
424,52,81307,1,8,0:0:0:0:
389,297,81479,1,2,0:0:0:0:
389,297,81650,1,2,0:0:0:0:
239,132,81822,1,4,0:0:0:0:
201,99,81907,1,0,0:0:0:0:
153,90,81993,1,0,0:0:0:0:
106,106,82079,1,0,0:0:0:0:
74,143,82165,1,0,0:0:0:0:
65,192,82250,1,0,0:0:0:0:
83,237,82336,6,0,P|183:236|270:222,1,180,4|2,0:0|0:0,0:0:0:0:
304,110,82850,1,8,0:0:0:0:
342,312,83022,1,0,0:0:0:0:
302,94,83193,1,2,0:0:0:0:
459,231,83365,1,8,0:0:0:0:
454,275,83450,1,8,0:0:0:0:
449,319,83536,1,8,0:0:0:0:
223,150,83707,6,0,P|210:86|217:31,1,90,2|0,0:0|0:0,0:0:0:0:
372,222,84050,2,0,P|371:266|360:310,1,90,2|8,0:0|0:0,0:0:0:0:
107,358,84393,1,0,0:0:0:0:
285,252,84565,1,8,0:0:0:0:
285,252,84650,1,8,0:0:0:0:
285,252,84736,1,8,0:0:0:0:
61,127,84907,1,8,0:0:0:0:
108,371,85079,6,0,L|303:360,1,180,4|2,0:0|0:0,0:0:0:0:
465,282,85593,1,8,0:0:0:0:
305,166,85765,2,0,P|310:221|317:262,1,90,2|0,0:0|0:0,0:0:0:0:
465,282,86107,1,2,0:0:0:0:
209,267,86279,1,8,0:0:0:0:
431,73,86450,6,0,P|421:162|407:251,1,180,4|2,0:0|0:0,0:0:0:0:
125,339,86965,2,0,L|117:289,1,45,8|0,0:0|0:0,0:0:0:0:
104,188,87136,1,0,0:0:0:0:
142,153,87222,1,0,0:0:0:0:
193,140,87307,1,8,0:0:0:0:
243,152,87393,1,8,0:0:0:0:
282,187,87479,1,8,0:0:0:0:
300,235,87565,1,8,0:0:0:0:
294,287,87650,1,8,0:0:0:0:
110,346,87822,6,0,P|87:175|84:133,1,180,4|0,0:0|0:0,0:0:0:0:
343,82,88336,1,8,0:0:0:0:
195,243,88507,1,0,0:0:0:0:
352,72,88679,1,2,0:0:0:0:
40,174,88850,1,8,0:0:0:0:
40,174,88936,1,8,0:0:0:0:
40,174,89022,1,8,0:0:0:0:
271,348,89193,6,0,P|333:340|373:335,1,90,2|8,0:0|0:0,0:0:0:0:
141,363,89536,1,2,0:0:0:0:
484,322,89707,1,8,0:0:0:0:
200,262,89879,1,2,0:0:0:0:
417,62,90050,6,0,P|424:104|414:136,1,45,8|0,0:0|0:0,0:0:0:0:
370,235,90222,2,0,P|345:254|293:262,1,45
200,262,90393,2,0,P|168:244|148:223,1,45,8|0,0:0|0:0,0:0:0:0:
36,118,90565,6,0,P|64:244|68:335,1,180,4|2,0:0|0:0,0:0:0:0:
133,128,91079,1,8,0:0:0:0:
161,169,91164,1,8,0:0:0:0:
204,195,91250,1,8,0:0:0:0:
253,202,91336,1,8,0:0:0:0:
301,188,91421,1,8,0:0:0:0:
340,155,91507,1,8,0:0:0:0:
361,110,91593,1,8,0:0:0:0:
362,59,91679,1,8,0:0:0:0:
342,13,91764,1,4,3:0:0:0:
317,313,91936,6,0,L|119:295,1,180,4|2,0:0|0:0,0:0:0:0:
48,288,92365,1,0,0:0:0:0:
48,288,92450,2,0,P|50:224|53:184,1,90,8|0,0:0|0:0,0:0:0:0:
57,96,92793,5,2,0:0:0:0:
455,56,92965,1,2,0:0:0:0:
46,98,93136,1,2,0:0:0:0:
466,54,93307,1,4,0:0:0:0:
