osu file format v14

[General]
AudioFilename: audio.mp3
AudioLeadIn: 0
PreviewTime: 60050
Countdown: 0
SampleSet: Soft
StackLeniency: 0.2
Mode: 0
LetterboxInBreaks: 0
WidescreenStoryboard: 1

[Editor]
DistanceSpacing: 1
BeatDivisor: 4
GridSize: 8
TimelineZoom: 2.3

[Metadata]
Title:FEARLESS HERO (TV Size)
TitleUnicode:FEARLESS HERO (TV Size)
Artist:Mizuki Nana
ArtistUnicode:水樹奈々
Creator:kunka
Version:Firis' Light Insane
Source:DOG DAYS'
Tags:opening Little CloudSplash16 Akitoshi Corinn -laura- Shunao ShogunMoon Momochikun Kurantemelodii krt Firis Mistlud sekaii sekai-nyan Yasaija 714 Guy appleeaterx kunkakunkakunkakunka
BeatmapID:1670170
BeatmapSetID:786603

[Difficulty]
HPDrainRate:6
CircleSize:4
OverallDifficulty:7
ApproachRate:8.5
SliderMultiplier:1.8
SliderTickRate:1

[Events]
//Background and Video events
0,0,"BG.jpg",0,0
Video,0,"FEARLESS HERO.avi"
//Break Periods
//Storyboard Layer 0 (Background)
//Storyboard Layer 1 (Fail)
//Storyboard Layer 2 (Pass)
//Storyboard Layer 3 (Foreground)
//Storyboard Sound Samples

[TimingPoints]
2965,342.857142857143,4,2,1,50,1,0
4165,-100,4,2,1,70,0,0
9650,-100,4,2,1,75,0,0
15650,-200,4,2,2,40,0,0
24393,-125,4,2,2,40,0,0
24479,-125,4,2,2,5,0,0
24565,-125,4,2,2,40,0,0
24650,-125,4,2,2,5,0,0
24736,-125,4,2,2,40,0,0
24822,-125,4,2,2,5,0,0
24907,-100,4,2,1,60,0,0
30479,-100,4,2,1,5,0,0
30565,-100,4,2,1,60,0,0
31165,-100,4,2,1,5,0,0
31250,-100,4,2,1,60,0,0
31765,-100,4,2,1,65,0,0
37250,-133.333333333333,4,2,1,60,0,0
42136,-133.333333333333,4,2,1,5,0,0
42222,-133.333333333333,4,2,1,60,0,0
42307,-133.333333333333,4,2,1,5,0,0
42393,-100,4,2,1,60,0,0
48222,-200,4,2,1,50,0,0
53707,-100,4,2,1,60,0,0
60050,-200,4,2,1,75,0,0
60393,-90.9090909090909,4,2,1,75,0,1
69650,-76.9230769230769,4,2,1,75,0,1
69993,-90.9090909090909,4,2,1,75,0,1
71022,-90.9090909090909,4,2,1,75,0,0
71365,-90.9090909090909,4,2,1,75,0,1
82336,-100,4,2,1,70,0,0
87822,-100,4,2,1,75,0,0
93307,-133.333333333333,4,2,1,75,0,0

[Colours]
Combo1 : 255,128,255
Combo2 : 128,255,128
Combo3 : 128,255,255
Combo4 : 255,128,128
Combo5 : 255,255,128

[HitObjects]
478,128,3822,5,0,0:0:0:0:
476,114,3907,1,0,0:0:0:0:
475,101,3993,1,0,0:0:0:0:
474,87,4079,1,0,0:0:0:0:
498,56,4165,6,0,B|453:77|411:43|411:43|368:13|321:36,1,180,6|2,0:0|0:0,0:0:0:0:
278,100,4678,1,8,0:0:0:0:
308,178,4850,2,0,P|343:151|360:110,1,90,0|2,0:0|0:0,0:0:0:0:
247,21,5193,2,0,P|211:47|194:88,1,90,2|8,0:0|0:0,0:0:0:0:
340,254,5536,6,0,B|295:275|253:241|253:241|210:211|163:234,1,180,2|2,0:0|0:0,0:0:0:0:
120,297,6050,1,8,0:0:0:0:
204,308,6222,2,0,P|259:238|218:158,1,180,0|2,0:0|0:0,0:0:0:0:
141,151,6736,1,8,0:0:0:0:
36,284,6907,6,0,P|69:366|158:371,1,180,2|2,0:0|0:0,0:0:0:0:
204,308,7422,1,8,0:0:0:0:
85,221,7593,6,0,B|130:200|172:234|172:234|215:264|262:241,1,180,2|2,0:0|0:0,0:0:0:0:
225,162,8107,1,8,0:0:0:0:
286,322,8279,6,0,P|340:256|307:177,1,180,6|2,0:0|0:0,0:0:0:0:
225,162,8793,1,8,0:0:0:0:
340,254,8965,2,0,L|390:268,2,45,2|0|10,0:0|0:0|0:0,0:0:0:0:
172,254,9307,2,0,L|122:268,2,45,2|8|8,0:0|0:0|0:0,0:0:0:0:
278,97,9650,6,0,P|183:90|141:160,1,180,6|2,0:0|0:0,0:0:0:0:
225,162,10165,1,8,0:0:0:0:
187,88,10336,2,0,P|133:73|91:87,1,90,0|2,0:0|0:0,0:0:0:0:
225,162,10679,2,0,P|277:180|320:169,1,90,2|8,0:0|0:0,0:0:0:0:
456,195,11022,6,0,P|419:153|377:141,1,90,2|8,0:0|0:0,0:0:0:0:
297,259,11365,2,0,P|341:253|376:226,1,90,2|8,0:0|0:0,0:0:0:0:
321,88,11707,2,0,P|303:129|309:173,1,90,2|8,0:0|0:0,0:0:0:0:
446,282,12050,1,2,0:0:0:0:
459,280,12135,1,2,0:0:0:0:
472,279,12221,1,8,0:0:0:0:
486,278,12307,1,2,0:0:0:0:
512,249,12393,6,0,P|452:267|434:383,1,180,6|2,0:0|0:0,0:0:0:0:
505,334,12907,1,8,0:0:0:0:
371,311,13079,1,2,0:0:0:0:
357,309,13164,1,2,0:0:0:0:
344,308,13250,1,8,0:0:0:0:
330,307,13336,1,2,0:0:0:0:
293,323,13422,1,2,0:0:0:0:
279,323,13507,1,2,0:0:0:0:
266,324,13593,1,8,0:0:0:0:
252,325,13679,1,0,0:0:0:0:
220,303,13765,6,0,P|181:359|65:329,1,180,6|8,0:0|0:0,0:0:0:0:
138,285,14279,1,2,0:0:0:0:
279,370,14450,1,8,0:0:0:0:
279,370,14536,1,8,0:0:0:0:
279,370,14622,2,0,L|431:356,2,135,8|8|8,0:3|0:3|0:3,0:0:0:0:
198,220,15307,5,6,0:0:0:0:
198,220,15993,2,0,P|258:208|289:220,1,90,2|0,0:0|0:0,0:0:0:0:
356,259,16507,1,0,0:0:0:0:
356,259,16850,2,0,P|344:199|356:168,1,90,0|0,0:0|0:0,0:0:0:0:
429,213,17365,1,2,0:0:0:0:
243,293,18050,6,0,P|163:299|116:252,1,135,0|0,0:0|0:0,0:0:0:0:
121,178,18736,1,2,0:0:0:0:
121,178,19250,2,0,L|16:168,1,90,0|0,0:0|0:0,0:0:0:0:
0,91,19765,1,0,0:0:0:0:
164,106,20107,1,2,0:0:0:0:
4,251,20793,6,0,L|152:262,1,135,0|0,0:0|0:0,0:0:0:0:
223,268,21479,1,2,0:0:0:0:
223,268,21993,2,0,P|243:323|236:360,1,90,0|0,0:0|0:0,0:0:0:0:
158,326,22507,1,0,0:0:0:0:
324,296,22850,1,2,0:0:0:0:
168,145,23536,6,0,P|213:196|274:190,1,135,0|0,0:0|0:0,0:0:0:0:
344,145,24222,1,2,0:0:0:0:
395,248,24393,6,0,P|437:235|485:235,2,72,8|8|0,0:3|0:3|0:0,0:0:0:0:
330,374,24907,5,8,0:0:0:0:
256,248,25079,1,8,0:0:0:0:
182,374,25250,1,8,0:0:0:0:
256,168,25422,1,6,0:0:0:0:
256,168,25765,5,8,0:0:0:0:
256,328,25936,1,8,0:0:0:0:
117,248,26107,1,8,0:0:0:0:
117,248,26193,1,8,0:0:0:0:
117,248,26279,6,0,P|101:180|120:141,2,90,2|0|2,0:0|0:0|0:0,0:0:0:0:
191,283,26793,1,0,0:0:0:0:
183,198,26965,1,2,0:0:0:0:
175,113,27136,2,0,P|139:85|95:79,1,90,0|2,0:0|0:0,0:0:0:0:
183,198,27479,6,0,P|238:167|238:57,1,180,0|0,0:0|0:0,0:0:0:0:
167,28,27993,1,2,0:0:0:0:
291,127,28165,2,0,B|336:148|378:114|378:114|421:84|468:107,1,180,0|0,0:0|0:0,0:0:0:0:
512,168,28679,2,0,P|471:185|426:180,1,90,2|0,0:0|0:0,0:0:0:0:
325,51,29022,6,0,P|373:126|296:209,1,180,2|2,0:0|0:0,0:0:0:0:
304,277,29536,2,0,P|268:250|250:209,1,90,0|2,0:0|0:0,0:0:0:0:
205,139,29879,2,0,P|246:122|291:127,1,90,0|2,0:0|0:0,0:0:0:0:
332,197,30222,1,0,0:0:0:0:
183,358,30393,5,2,0:0:0:0:
130,291,30565,1,0,0:0:0:0:
130,291,30650,1,0,0:0:0:0:
130,291,30736,2,0,P|184:274|221:284,1,90,2|0,0:0|0:0,0:0:0:0:
329,358,31079,1,2,0:0:0:0:
382,291,31250,1,0,0:0:0:0:
382,291,31336,1,0,0:0:0:0:
382,291,31422,2,0,P|328:274|291:284,1,90,2|0,0:0|0:0,0:0:0:0:
102,370,31765,6,0,P|49:308|96:214,1,180,6|2,0:0|0:0,0:0:0:0:
140,163,32279,2,0,P|157:124|130:90,1,90,0|2,0:0|0:0,0:0:0:0:
63,141,32622,1,0,0:0:0:0:
157,248,32793,2,0,L|264:241,1,90,2|0,0:0|0:0,0:0:0:0:
303,153,33136,6,0,L|255:148,3,45,6|0|8|8,0:0|0:0|0:0|0:0,0:0:0:0:
230,169,33479,2,0,L|225:217,3,45,2|0|8|0,0:0|0:0|0:0|0:0,0:0:0:0:
246,242,33822,2,0,L|294:247,3,45,10|8|10|8,0:0|0:0|0:0|0:0,0:0:0:0:
319,226,34165,2,0,L|324:178,3,45,10|8|8|8,0:0|0:0|0:0|0:0,0:0:0:0:
346,145,34507,6,0,L|343:44,2,90,4|0|8,0:0|0:0|0:0,0:0:0:0:
418,307,35022,1,6,0:0:0:0:
426,318,35365,2,0,L|421:263,2,45,2|2|8,0:0|0:0|0:0,0:0:0:0:
497,154,35707,5,6,0:0:0:0:
497,154,36050,2,0,P|445:151|411:180,1,90,8|8,0:0|0:0,0:0:0:0:
416,172,36307,1,0,0:0:0:0:
416,172,36393,1,2,0:0:0:0:
338,305,36565,1,2,0:0:0:0:
248,263,36736,2,0,L|256:228,3,30,0|0|0|8,0:0|0:0|0:0|0:0,0:0:0:0:
205,346,37079,1,2,0:0:0:0:
32,281,37250,6,0,P|99:261|183:279,1,135.000005149842,6|8,0:0|0:0,0:0:0:0:
205,346,37765,2,0,P|250:357|249:283,1,135.000005149842,2|2,0:0|0:0,0:0:0:0:
224,209,38279,1,8,0:0:0:0:
341,373,38622,6,0,P|351:321|342:279,1,67.5000025749208,2|2,0:0|0:0,0:0:0:0:
349,306,38879,1,2,0:0:0:0:
349,306,38965,1,8,0:0:0:0:
457,384,39136,2,0,P|439:328|473:234,1,135.000005149842,2|2,0:0|0:0,0:0:0:0:
512,196,39650,1,8,0:0:0:0:
435,41,39993,6,0,P|453:97|419:191,1,135.000005149842,2|8,0:0|0:0,0:0:0:0:
358,141,40507,2,0,P|315:122|303:195,1,135.000005149842,2|2,0:0|0:0,0:0:0:0:
372,226,41021,1,8,0:0:0:0:
319,45,41365,6,0,P|276:54|252:70,2,67.5000025749208,2|2|8,0:0|0:0|0:0,0:0:0:0:
436,161,41879,2,0,P|374:158|301:113,1,135.000005149842,2|2,0:0|0:0,0:0:0:0:
150,25,42393,6,0,P|170:91|167:128,1,90,8|0,0:0|0:0,0:0:0:0:
134,180,42650,1,8,0:0:0:0:
134,180,42736,6,0,P|151:96|177:138,1,180,6|8,0:0|0:0,0:0:0:0:
206,230,43250,2,0,P|196:158|248:50,1,180,2|2,0:0|0:0,0:0:0:0:
319,45,43765,1,8,0:0:0:0:
345,267,44107,6,0,P|323:229|284:207,2,90,2|2|8,0:0|0:0|0:0,0:0:0:0:
265,289,44622,2,0,P|191:312|122:212,1,180,2|2,0:0|0:0,0:0:0:0:
206,230,45136,1,8,0:0:0:0:
404,328,45479,6,0,P|425:289|425:245,1,90,2|2,0:0|0:0,0:0:0:0:
425,244,45736,1,2,0:0:0:0:
425,244,45822,1,8,0:0:0:0:
326,368,45993,2,0,P|294:313|326:190,1,180,2|2,0:0|0:0,0:0:0:0:
394,160,46507,1,8,0:0:0:0:
277,280,46679,6,0,B|232:301|190:267|190:267|147:237|100:260,1,180,2|2,0:0|0:0,0:0:0:0:
54,317,47193,2,0,P|93:338|138:334,1,90,8|2,0:0|0:0,0:0:0:0:
137,334,47450,1,0,0:0:0:0:
137,334,47536,1,8,0:0:0:0:
245,202,47707,2,0,L|237:96,2,90,2|8|2,0:0|0:0|0:0,0:0:0:0:
263,241,48136,1,2,0:0:0:0:
263,241,48222,5,2,0:0:0:0:
323,352,48736,1,0,0:0:0:0:
323,352,48822,1,2,0:0:0:0:
323,352,48907,2,0,P|364:353|365:265,1,135,8|2,0:0|0:0,0:0:0:0:
337,207,49593,5,2,0:0:0:0:
337,207,49765,2,0,P|396:219|440:201,1,90,8|0,0:0|0:0,0:0:0:0:
384,137,50279,1,8,0:0:0:0:
238,362,50793,5,8,0:3:0:0:
238,362,50879,1,0,0:0:0:0:
238,362,50965,2,0,B|202:365|167:362|181:338|141:334|101:338,1,135,2|2,0:0|0:0,0:0:0:0:
31,300,51565,1,2,0:0:0:0:
31,300,51650,2,0,P|23:332|28:366,2,67.5,8|0|8,0:0|0:0|0:3,0:0:0:0:
176,190,52336,5,6,0:0:0:0:
176,190,52507,2,0,P|101:183|78:165,1,90,2|2,0:0|0:0,0:0:0:0:
34,113,52936,1,0,0:0:0:0:
34,113,53022,2,0,P|70:95|92:94,1,45,2|8,0:0|0:3,0:0:0:0:
222,125,53365,1,8,0:0:0:0:
222,125,53450,1,8,0:0:0:0:
222,125,53536,1,2,0:0:0:0:
48,316,53707,6,0,P|23:254|98:174,1,180,6|8,0:0|0:0,0:0:0:0:
247,221,54222,2,0,P|186:281|104:255,1,180,2|2,0:0|0:0,0:0:0:0:
149,116,54736,2,0,P|168:156|167:201,1,90,8|2,0:0|0:0,0:0:0:0:
120,354,55079,6,0,P|160:334|204:336,1,90,2|0,0:0|0:0,0:0:0:0:
291,296,55336,2,0,P|327:321|348:360,1,90,2|0,0:0|0:0,0:0:0:0:
268,376,55593,2,0,P|225:345|251:224,1,180,2|2,0:0|0:0,0:0:0:0:
365,186,56107,1,8,0:0:0:0:
369,268,56278,1,8,0:0:0:0:
202,157,56450,6,0,P|245:147|286:165,1,90,12|0,0:0|0:0,0:0:0:0:
285,164,56707,1,2,0:0:0:0:
285,164,56793,1,2,0:0:0:0:
156,316,56965,2,0,L|143:205,1,90,12|2,0:0|0:0,0:0:0:0:
145,226,57222,1,2,0:0:0:0:
145,226,57307,1,2,0:0:0:0:
51,124,57479,1,8,0:0:0:0:
52,137,57564,1,0,0:0:0:0:
53,150,57650,1,8,0:3:0:0:
54,164,57736,1,8,0:3:0:0:
50,196,57822,5,2,0:0:0:0:
189,125,57993,1,12,0:0:0:0:
140,339,58165,1,12,0:0:0:0:
189,125,58507,6,0,P|229:105|240:103,1,45,8|2,0:0|0:0,0:0:0:0:
306,149,58679,2,0,P|303:194|299:205,1,45,10|2,0:0|0:0,0:0:0:0:
227,238,58850,2,0,P|189:214|182:205,1,45,2|2,0:0|0:0,0:0:0:0:
312,72,59022,5,6,0:0:0:0:
326,62,59365,2,0,P|318:118|331:169,1,90,2|8,0:0|0:0,0:0:0:0:
413,342,59707,5,6,0:0:0:0:
421,331,60050,2,0,L|417:287,1,45,0|0,0:0|0:0,0:0:0:0:
276,219,60393,6,0,B|322:252|369:219|369:219|416:187|461:217,1,198.000006042481,6|2,0:0|0:0,0:0:0:0:
323,150,60907,2,0,P|259:136|203:172,1,99.0000030212403,8|0,0:0|0:0,0:0:0:0:
132,297,61250,2,0,P|176:248|172:182,1,99.0000030212403,2|2,0:0|0:0,0:0:0:0:
133,146,61593,1,8,0:0:0:0:
46,296,61765,6,0,P|99:374|213:331,1,198.000006042481,2|2,0:0|0:0,0:0:0:0:
97,220,62279,2,0,P|32:206|-22:242,1,99.0000030212403,8|0,0:0|0:0,0:0:0:0:
132,297,62622,1,2,0:0:0:0:
132,297,62707,1,8,0:0:0:0:
132,297,62793,1,2,0:0:0:0:
212,168,62965,2,0,P|232:230|291:260,1,99.0000030212403,8|0,0:0|0:0,0:0:0:0:
353,100,63307,6,0,B|307:133|260:100|260:100|213:68|168:98,1,198.000006042481,2|8,0:0|0:0,0:0:0:0:
27,165,63822,2,0,B|73:132|120:165|120:165|167:197|212:167,1,198.000006042481,2|2,0:0|0:0,0:0:0:0:
262,101,64336,1,8,0:0:0:0:
74,230,64507,6,0,P|67:299|155:256,1,198.000006042481,6|2,0:0|0:0,0:0:0:0:
211,167,65022,2,0,P|280:162|318:182,1,99.0000030212403,8|2,0:0|0:0,0:0:0:0:
357,240,65279,1,2,0:0:0:0:
357,240,65365,2,0,P|317:258|297:259,1,49.5000015106202,8|0,0:0|0:0,0:0:0:0:
211,167,65536,2,0,P|215:123|224:105,1,49.5000015106202,0|0,0:0|0:0,0:0:0:0:
347,77,65707,2,0,P|382:102|393:119,1,49.5000015106202,8|0,0:0|0:0,0:0:0:0:
439,240,65879,6,0,B|393:207|346:240|346:240|299:272|254:242,1,198.000006042481,6|2,0:0|0:0,0:0:0:0:
118,142,66393,1,8,0:0:0:0:
192,100,66565,2,0,P|196:174|156:223,1,99.0000030212403,0|2,0:0|0:0,0:0:0:0:
79,222,66907,2,0,L|19:217,2,49.5000015106202,2|8|8,0:0|0:0|0:0,0:0:0:0:
174,377,67250,6,0,B|129:305|170:241|170:241|169:273|192:308,1,198.000006042481,2|2,0:0|0:0,0:0:0:0:
310,166,67765,2,0,P|278:228|243:246,1,99.0000030212403,8|0,0:0|0:0,0:0:0:0:
186,76,68107,2,0,P|218:113|225:162,1,99.0000030212403,2|2,0:0|0:0,0:0:0:0:
46,137,68450,2,0,P|94:128|139:146,1,99.0000030212403,8|0,0:0|0:0,0:0:0:0:
372,238,68793,6,0,P|417:256|465:247,2,99.0000030212403,6|2|8,0:0|0:0|0:0,0:0:0:0:
254,104,69307,6,0,P|246:55|292:100,1,148.50000453186
254,104,69650,6,0,P|257:37|299:91,1,175.499991966248,6|0,0:0|0:0,0:0:0:0:
193,160,69993,6,0,B|252:200|329:166|329:166|286:193|280:252,1,198.000006042481,6|6,0:0|0:0,0:0:0:0:
167,344,70507,1,8,0:0:0:0:
115,271,70679,2,0,P|118:241|138:216,2,49.5000015106202,6|0|8,0:0|0:0|0:0,0:0:0:0:
258,278,71022,2,0,L|195:269,1,49.5000015106202,8|0,0:0|0:0,0:0:0:0:
75,350,71193,2,0,L|12:341,1,49.5000015106202,8|0,0:0|0:0,0:0:0:0:
208,270,71365,6,0,B|254:237|301:270|301:270|348:302|393:272,1,198.000006042481,6|2,0:0|0:0,0:0:0:0:
351,107,71879,2,0,P|335:154|349:201,1,99.0000030212403,8|0,0:0|0:0,0:0:0:0:
460,323,72222,2,0,P|476:276|462:229,1,99.0000030212403,2|2,0:0|0:0,0:0:0:0:
420,155,72565,1,8,0:0:0:0:
294,273,72736,6,0,B|248:240|201:273|201:273|154:305|109:275,1,198.000006042481,2|2,0:0|0:0,0:0:0:0:
108,122,73250,2,0,P|142:157|152:205,1,99.0000030212403,8|0,0:0|0:0,0:0:0:0:
19,276,73593,2,0,P|32:228|69:197,1,99.0000030212403,2|2,0:0|0:0,0:0:0:0:
191,133,73936,1,8,0:0:0:0:
294,273,74107,1,8,0:0:0:0:
294,273,74193,1,8,0:0:0:0:
294,273,74279,6,0,B|340:240|387:273|387:273|434:305|479:275,1,198.000006042481,2|8,0:0|0:0,0:0:0:0:
341,342,74793,2,0,P|260:350|226:228,1,198.000006042481,2|2,0:0|0:0,0:0:0:0:
288,183,75307,1,8,0:0:0:0:
146,115,75479,6,0,B|192:148|239:115|239:115|286:83|331:113,1,198.000006042481,6|2,0:0|0:0,0:0:0:0:
470,180,75993,2,0,P|407:196|371:184,1,99.0000030212403,8|2,0:0|0:0,0:0:0:0:
375,186,76250,1,2,0:0:0:0:
375,186,76336,1,8,0:0:0:0:
418,111,76507,1,2,0:0:0:0:
408,271,76679,1,8,0:0:0:0:
288,183,76850,1,8,0:0:0:0:
288,183,76936,1,8,0:0:0:0:
288,183,77022,6,0,P|213:189|205:315,1,198.000006042481,6|8,0:0|0:0,0:0:0:0:
330,363,77536,2,0,B|284:330|237:363|237:363|190:395|145:365,1,198.000006042481,2|2,0:0|0:0,0:0:0:0:
108,207,78050,1,8,0:0:0:0:
261,259,78222,1,2,0:0:0:0:
105,290,78393,6,0,P|46:264|22:220,1,99.0000030212403,2|2,0:0|0:0,0:0:0:0:
188,293,78736,2,0,P|162:352|118:376,1,99.0000030212403,8|2,0:0|0:0,0:0:0:0:
191,210,79079,2,0,P|250:236|274:280,1,99.0000030212403,0|2,0:0|0:0,0:0:0:0:
108,207,79422,2,0,P|134:148|178:124,1,99.0000030212403,8|2,0:0|0:0,0:0:0:0:
338,306,79765,6,0,B|368:261|336:214|336:214|303:167|336:121,1,198.000006042481,12|2,0:0|0:0,0:0:0:0:
510,57,80279,1,12,0:0:0:0:
510,57,80622,1,2,0:0:0:0:
404,166,80793,1,12,0:0:0:0:
174,78,80965,6,0,B|144:123|176:170|176:170|209:217|176:263,1,198.000006042481,2|8,0:0|0:0,0:0:0:0:
2,327,81479,1,2,0:0:0:0:
108,216,81650,1,2,0:0:0:0:
151,363,81822,1,12,0:0:0:0:
151,363,82336,6,0,P|138:274|213:226,1,180,6|2,0:0|0:0,0:0:0:0:
363,292,82850,1,8,0:0:0:0:
215,310,83022,2,0,P|161:299|133:273,1,90,0|2,0:0|0:0,0:0:0:0:
282,258,83365,2,0,P|299:310|290:347,1,90,2|8,0:0|0:0,0:0:0:0:
273,173,83707,6,0,B|318:152|360:186|360:186|403:216|450:193,1,180,2|2,0:0|0:0,0:0:0:0:
409,118,84222,1,8,0:0:0:0:
282,258,84393,2,0,P|199:224|194:135,1,180,0|2,0:0|0:0,0:0:0:0:
260,90,84907,1,8,0:0:0:0:
347,207,85079,6,0,P|359:294|284:343,1,180,2|2,0:0|0:0,0:0:0:0:
213,311,85594,1,8,0:0:0:0:
273,173,85765,6,0,B|227:151|185:185|185:185|142:215|95:192,1,180,2|2,0:0|0:0,0:0:0:0:
132,113,86279,1,8,0:0:0:0:
71,273,86451,6,0,P|16:207|49:128,1,180,6|2,0:0|0:0,0:0:0:0:
132,113,86965,1,8,0:0:0:0:
204,255,87136,2,0,L|197:308,2,45,2|0|8,0:0|0:0|0:0,0:0:0:0:
308,129,87479,2,0,L|315:76,2,45,2|8|8,0:0|0:0|0:0,0:0:0:0:
373,277,87822,6,0,B|335:297|292:267|292:267|250:233|204:255,1,180,6|2,0:0|0:0,0:0:0:0:
239,332,88336,1,8,0:0:0:0:
289,262,88507,2,0,P|270:202|244:180,1,90,0|2,0:0|0:0,0:0:0:0:
153,325,88850,2,0,P|214:338|246:327,1,90,2|8,0:0|0:0,0:0:0:0:
166,175,89193,6,0,P|123:221|117:254,1,90,2|8,0:0|0:0,0:0:0:0:
251,184,89536,2,0,P|232:123|205:101,1,90,2|8,0:0|0:0,0:0:0:0:
200,253,89879,2,0,P|261:266|293:255,1,90,2|8,0:0|0:0,0:0:0:0:
411,150,90222,1,2,0:0:0:0:
424,151,90307,1,2,0:0:0:0:
437,152,90393,1,8,0:0:0:0:
451,153,90479,1,2,0:0:0:0:
477,183,90565,6,0,P|417:165|399:49,1,180,6|2,0:0|0:0,0:0:0:0:
470,98,91079,1,8,0:0:0:0:
336,121,91251,1,2,0:0:0:0:
322,122,91336,1,2,0:0:0:0:
309,123,91422,1,8,0:0:0:0:
295,124,91508,1,2,0:0:0:0:
258,109,91594,1,2,0:0:0:0:
244,108,91679,1,2,0:0:0:0:
231,107,91765,1,8,0:0:0:0:
217,106,91851,1,0,0:0:0:0:
178,87,91936,6,0,P|161:153|83:109,1,180,6|2,0:0|0:0,0:0:0:0:
73,95,92365,1,2,0:0:0:0:
73,95,92450,2,0,P|102:180|91:211,1,90,8|0,0:0|0:0,0:0:0:0:
100,364,92793,5,8,0:0:0:0:
191,226,92965,1,2,0:0:0:0:
265,373,93136,1,2,0:0:0:0:
21,161,93307,5,4,0:0:0:0:
