osu file format v14

[General]
AudioFilename: audio.mp3
AudioLeadIn: 0
PreviewTime: 76076
Countdown: 0
SampleSet: Soft
StackLeniency: 0.5
Mode: 0
LetterboxInBreaks: 0
WidescreenStoryboard: 1

[Editor]
Bookmarks: 18576,24093,33748,36507,59955,76507,86162,97024,98231
DistanceSpacing: 1.4
BeatDivisor: 4
GridSize: 32
TimelineZoom: 1.7

[Metadata]
Title:Exterminate (TV Size)
TitleUnicode:Exterminate (TV Size)
Artist:Mizuki Nana
ArtistUnicode:水樹奈々
Creator:Kirishima-
Version:Insane
Source:戦姫絶唱シンフォギアGX
Tags:japanese pop jpop j-pop anime senki zesshou symphogear gx op opening 上松範康 agematsu noriyasu female vocalist sympho gear smashing anthems the museum III 3 three
BeatmapID:3481701
BeatmapSetID:1703958

[Difficulty]
HPDrainRate:5
CircleSize:3.5
OverallDifficulty:8
ApproachRate:8.8
SliderMultiplier:1.6
SliderTickRate:1

[Events]
//Background and Video events
0,0,"background.jpg",0,0
Video,50,"video.mp4"
//Break Periods
//Storyboard Layer 0 (Background)
//Storyboard Layer 1 (Fail)
//Storyboard Layer 2 (Pass)
//Storyboard Layer 3 (Foreground)
//Storyboard Layer 4 (Overlay)
//Storyboard Sound Samples

[TimingPoints]
18576,344.827586206897,4,2,22,65,1,0
18576,-111.111111111111,4,2,22,65,0,0
24093,-100,4,2,22,70,0,1
33748,-100,4,2,22,70,0,0
36507,-111.111111111111,4,2,22,60,0,0
44782,-100,4,2,22,70,0,0
47541,-111.111111111111,4,2,22,60,0,0
53058,-100,4,2,22,70,0,0
55817,-133.333333333333,4,2,22,50,0,0
58576,-111.111111111111,4,2,22,60,0,0
59955,-111.111111111111,4,2,22,65,0,0
70989,-100,4,2,22,70,0,0
75127,-133.333333333333,4,2,22,70,0,0
76507,-90.9090909090909,4,2,22,75,0,1
86162,-100,4,2,22,70,0,0
93058,-83.3333333333333,4,2,22,45,0,0
93173,-83.3333333333333,4,2,22,5,0,0
93288,-83.3333333333333,4,2,22,50,0,0
93403,-83.3333333333333,4,2,22,5,0,0
93518,-83.3333333333333,4,2,22,55,0,0
93633,-83.3333333333333,4,2,22,5,0,0
93748,-83.3333333333333,4,2,22,60,0,0
93863,-83.3333333333333,4,2,22,5,0,0
93978,-83.3333333333333,4,2,22,65,0,0
94093,-83.3333333333333,4,2,22,5,0,0
94208,-83.3333333333333,4,2,22,70,0,0
94323,-83.3333333333333,4,2,22,5,0,0
94438,-111.111111111111,4,2,22,75,0,0
95817,-83.3333333333333,4,2,22,75,0,0
97024,-133.333333333333,4,2,22,75,0,1
97369,-133.333333333333,4,2,22,5,0,1
98231,-133.333333333333,4,2,22,5,0,0

[Colours]
Combo1 : 255,149,149
Combo2 : 199,199,226
Combo3 : 128,128,191
Combo4 : 141,71,71

[HitObjects]
30,131,18576,6,0,P|65:126|97:141,1,71.9999978027344,6|0,1:2|0:0,0:0:0:0:
136,218,18920,1,2,1:2:0:0:
51,213,19093,1,2,1:2:0:0:
182,146,19265,2,0,P|220:204|200:271,1,143.999995605469,10|0,0:2|0:0,0:0:0:0:
124,303,19782,1,2,0:2:0:0:
65,230,19955,6,0,L|136:218,1,71.9999978027344,2|0,1:2|0:0,0:0:0:0:
191,357,20300,1,2,1:2:0:0:
124,303,20472,1,2,1:2:0:0:
200,271,20644,2,0,L|270:284,1,71.9999978027344,10|0,0:2|0:0,0:0:0:0:
215,187,20989,2,0,L|289:201,1,71.9999978027344,2|2,0:2|1:2,0:0:0:0:
335,340,21334,6,0,P|370:343|402:327,1,71.9999978027344,0|0,1:2|0:0,0:0:0:0:
436,250,21679,1,0,3:2:0:0:
454,253,21765,1,0,3:2:0:0:
472,257,21851,2,0,L|478:292,1,35.9999989013672,0|0,3:2|3:2,0:0:0:0:
374,191,22024,2,0,P|353:220|351:255,1,71.9999978027344,10|2,0:2|0:2,0:0:0:0:
456,167,22369,1,2,0:2:0:0:
394,108,22541,2,0,P|358:104|326:120,1,71.9999978027344,2|2,1:2|1:2,0:0:0:0:
193,316,22886,6,0,L|334:340,1,143.999995605469,10|2,0:2|1:2,0:0:0:0:
115,352,23403,2,0,P|104:301|132:256,1,107.999996704102,10|0,0:2|0:0,0:0:0:0:
215,234,23748,2,0,L|250:240,1,35.9999989013672,0|0,0:2|0:0,0:0:0:0:
228,323,23920,2,0,L|192:316,1,35.9999989013672,10|0,0:2|0:0,0:0:0:0:
154,173,24093,6,0,B|73:142|88:229|6:198,1,160,6|10,1:2|0:2,0:0:0:0:
123,81,24610,1,2,0:2:0:0:
45,37,24782,2,0,L|31:116,1,80,2|0,1:2|0:0,0:0:0:0:
215,234,25127,1,10,0:2:0:0:
123,81,25299,1,2,0:2:0:0:
43,274,25472,6,0,P|78:291|116:285,1,80,2|0,1:2|0:0,0:0:0:0:
279,91,25817,2,0,P|240:86|205:104,1,80,10|0,0:2|0:0,0:0:0:0:
333,295,26162,2,0,L|327:256,1,40,2|2,1:2|0:2,0:0:0:0:
377,186,26334,2,0,P|341:168|302:173,1,80,2|8,0:2|0:2,0:0:0:0:
243,236,26679,1,0,0:0:0:0:
110,119,26851,6,0,L|96:197,1,80,2|0,1:2|0:0,0:0:0:0:
94,234,27110,1,2,0:2:0:0:
94,234,27196,1,10,0:2:0:0:
32,56,27369,1,2,0:2:0:0:
200,142,27541,2,0,L|187:63,1,80,2|0,1:2|0:0,0:0:0:0:
186,33,27800,1,2,0:2:0:0:
186,33,27886,1,10,0:2:0:0:
20,141,28059,1,2,0:2:0:0:
171,264,28231,6,0,L|178:225,2,40,2|2|2,1:2|0:2|0:2,0:0:0:0:
118,331,28576,2,0,P|193:347|250:295,1,160,8|0,0:2|1:2,0:0:0:0:
370,144,29093,1,0,0:0:0:0:
200,142,29265,1,8,0:2:0:0:
382,229,29438,1,2,0:2:0:0:
402,226,29524,1,2,0:2:0:0:
422,222,29610,6,0,B|462:187|462:187|444:83,1,160,6|10,1:2|0:2,0:0:0:0:
299,210,30127,1,2,0:2:0:0:
235,63,30300,2,0,P|270:45|309:50,1,80,2|0,1:2|0:0,0:0:0:0:
463,188,30644,1,10,0:2:0:0:
285,131,30816,1,2,0:2:0:0:
459,3,30989,6,0,L|444:81,1,80,2|0,1:2|0:0,0:0:0:0:
299,210,31334,2,0,L|285:132,1,80,10|0,0:2|0:0,0:0:0:0:
370,131,31679,2,0,L|376:170,1,40,2|2,1:2|0:2,0:0:0:0:
284,289,31851,2,0,L|299:211,1,80,2|8,0:2|0:2,0:0:0:0:
394,365,32196,5,2,1:2:0:0:
422,382,32541,1,2,1:2:0:0:
284,289,32713,1,10,0:2:0:0:
466,309,32886,1,2,1:2:0:0:
240,362,33058,1,2,1:2:0:0:
209,372,33403,1,14,0:2:0:0:
178,382,33748,6,0,B|168:329|168:329|124:298|124:298|115:246,1,160,6|10,1:2|0:2,0:0:0:0:
170,179,34265,2,0,P|196:208|201:248,1,80,2|0,0:2|1:2,0:0:0:0:
86,163,34610,1,2,0:2:0:0:
86,163,34782,2,0,P|98:125|130:102,1,80,10|2,0:2|0:2,0:0:0:0:
255,182,35127,5,2,1:2:0:0:
170,179,35300,1,0,0:0:0:0:
200,28,35472,2,0,L|215:107,1,80,10|0,0:2|0:0,0:0:0:0:
85,175,35817,1,2,1:2:0:0:
115,23,35989,2,0,L|129:101,1,80,2|8,0:2|0:2,0:0:0:0:
210,254,36334,1,2,0:2:0:0:
213,274,36420,1,2,0:2:0:0:
217,294,36507,6,0,L|358:318,1,143.999995605469,6|10,1:2|0:2,0:0:0:0:
420,260,37024,1,2,0:2:0:0:
420,260,37196,2,0,P|440:289|443:325,1,71.9999978027344,2|2,1:2|0:2,0:0:0:0:
339,235,37541,1,10,0:2:0:0:
339,235,37713,1,2,0:2:0:0:
401,177,37886,2,0,P|337:148|274:179,1,143.999995605469,2|8,1:2|0:2,0:0:0:0:
197,213,38403,1,2,0:2:0:0:
275,178,38576,2,0,P|290:147|287:111,1,71.9999978027344,2|0,1:2|0:0,0:0:0:0:
204,131,38920,1,8,0:2:0:0:
204,131,39093,1,2,0:2:0:0:
88,25,39265,6,0,L|229:49,1,143.999995605469,2|10,1:2|0:2,0:0:0:0:
383,18,39782,1,2,0:2:0:0:
383,18,39954,2,0,L|313:31,1,71.9999978027344,2|2,1:2|0:2,0:0:0:0:
291,117,40299,1,10,0:2:0:0:
291,117,40471,1,2,0:2:0:0:
374,106,40644,2,0,P|355:173|291:201,1,143.999995605469,2|8,1:2|0:2,0:0:0:0:
219,247,41162,1,2,0:2:0:0:
291,201,41334,2,0,L|361:214,1,71.9999978027344,0|0,1:2|0:0,0:0:0:0:
215,165,41679,1,8,0:2:0:0:
215,165,41851,1,2,0:2:0:0:
315,343,42024,6,0,L|291:202,1,143.999995605469,2|10,1:2|0:2,0:0:0:0:
350,138,42541,2,0,P|320:118|285:116,1,71.9999978027344,2|0,0:2|1:2,0:0:0:0:
260,35,42886,2,0,P|228:50|209:80,1,71.9999978027344,2|8,0:2|0:2,0:0:0:0:
215,165,43231,2,0,P|149:140|125:75,1,143.999995605469,2|2,0:2|0:2,0:0:0:0:
184,16,43748,1,10,0:2:0:0:
184,16,43920,2,0,P|205:44|209:80,1,71.9999978027344,2|0,0:2|1:2,0:0:0:0:
285,116,44265,1,2,0:2:0:0:
219,169,44438,1,10,0:2:0:0:
219,169,44610,1,2,0:2:0:0:
282,279,44782,6,0,L|297:201,1,80,6|0,1:2|0:0,0:0:0:0:
199,368,45127,2,0,L|184:289,1,80,10|0,0:2|0:0,0:0:0:0:
352,380,45472,2,0,L|373:261,2,120,10|10|10,0:0|0:0|0:0,0:0:0:0:
297,200,46162,5,10,0:2:0:0:
460,284,46334,1,14,0:2:0:0:
460,284,46507,1,0,1:2:0:0:
412,115,46679,1,10,0:2:0:0:
286,283,46851,1,10,0:2:0:0:
286,283,47024,1,0,1:2:0:0:
310,119,47196,1,10,0:2:0:0:
368,294,47369,1,10,0:2:0:0:
452,95,47541,6,0,L|311:119,1,143.999995605469,6|10,1:2|0:2,0:0:0:0:
250,60,48058,1,2,0:2:0:0:
250,60,48231,2,0,P|229:89|227:124,1,71.9999978027344,2|2,1:2|0:2,0:0:0:0:
278,200,48575,1,10,0:2:0:0:
278,200,48747,1,2,0:2:0:0:
193,203,48920,2,0,P|222:265|289:284,1,143.999995605469,2|8,1:2|0:2,0:0:0:0:
231,128,49438,1,2,0:2:0:0:
231,128,49610,2,0,P|197:115|162:123,1,71.9999978027344,2|0,1:2|0:0,0:0:0:0:
114,193,49954,1,8,0:2:0:0:
114,193,50127,1,2,0:2:0:0:
217,344,50300,6,0,L|193:203,1,143.999995605469,2|10,1:2|0:2,0:0:0:0:
282,203,50817,1,0,0:0:0:0:
282,203,50989,1,2,1:2:0:0:
133,349,51162,2,0,L|121:278,1,71.9999978027344,2|8,0:2|0:2,0:0:0:0:
163,204,51507,1,2,0:2:0:0:
163,204,51679,2,0,P|94:196|43:244,1,143.999995605469,2|8,1:2|0:2,0:0:0:0:
47,333,52196,1,0,0:0:0:0:
47,333,52369,1,0,1:2:0:0:
121,278,52541,1,0,0:0:0:0:
31,173,52713,2,0,L|43:244,1,71.9999978027344,8|0,0:2|0:0,0:0:0:0:
184,85,53058,6,0,L|163:203,2,120,6|2|2,1:2|1:2|1:2,0:0:0:0:
200,1,53748,1,2,0:2:0:0:
92,112,53920,1,8,0:2:0:0:
265,57,54093,1,8,0:2:0:0:
265,57,54438,2,0,L|383:78,2,120,6|2|2,1:2|1:2|1:2,0:0:0:0:
184,85,55128,1,2,0:2:0:0:
370,163,55300,1,8,0:2:0:0:
156,218,55472,1,8,0:2:0:0:
156,218,55817,6,0,L|140:307,2,90.0000034332277,6|2|2,1:2|0:2|0:2,0:0:0:0:
239,236,56507,2,0,L|223:325,2,90.0000034332277,6|2|2,1:2|0:2|0:2,0:0:0:0:
313,195,57196,2,0,P|271:155|213:155,1,120.000004577637,2|0,1:2|0:0,0:0:0:0:
229,295,57713,1,0,1:2:0:0:
229,295,57886,2,0,L|239:236,1,60.0000022888184
391,161,58231,1,0,1:2:0:0:
391,161,58576,6,0,P|422:176|458:173,1,71.9999978027344,2|0,1:2|0:0,0:0:0:0:
505,103,58920,2,0,P|473:86|438:90,1,71.9999978027344,2|0,1:2|0:0,0:0:0:0:
391,161,59265,1,2,1:2:0:0:
353,84,59438,1,0,1:2:0:0:
411,244,59610,1,2,1:2:0:0:
438,90,59782,1,0,0:0:0:0:
329,219,59955,6,0,L|187:194,1,143.999995605469,6|10,1:2|0:2,0:0:0:0:
321,91,60472,1,2,0:2:0:0:
163,27,60644,2,0,L|234:14,1,71.9999978027344,2|0,1:2|0:0,0:0:0:0:
187,194,60989,1,8,0:2:0:0:
70,55,61162,1,2,3:2:0:0:
52,59,61248,1,2,3:2:0:0:
35,63,61334,6,0,P|19:95|24:130,1,71.9999978027344,2|2,1:2|0:2,0:0:0:0:
160,275,61679,1,10,0:2:0:0:
0,334,61851,1,2,0:2:0:0:
97,175,62024,2,0,L|104:210,2,35.9999989013672,2|0|0,1:2|3:2|3:2,0:0:0:0:
247,277,62369,1,8,3:2:0:0:
244,294,62455,1,0,3:2:0:0:
241,312,62541,1,0,3:2:0:0:
238,330,62627,1,0,3:2:0:0:
235,348,62713,6,0,L|165:360,1,71.9999978027344,0|0,1:2|3:2,0:0:0:0:
6,229,63058,1,10,3:2:0:0:
81,384,63231,1,2,3:2:0:0:
201,207,63403,1,2,1:2:0:0:
234,193,63489,1,0,3:2:0:0:
269,195,63575,1,0,3:2:0:0:
301,211,63661,1,0,3:2:0:0:
323,239,63748,2,0,L|329:274,3,35.9999989013672,8|0|0|0,3:2|3:2|3:2|3:2,0:0:0:0:
283,346,64093,6,0,P|315:362|350:357,1,71.9999978027344,2|2,1:2|3:2,0:0:0:0:
512,225,64438,1,10,3:2:0:0:
437,366,64610,1,2,0:2:0:0:
383,178,64782,2,0,P|415:162|450:167,1,71.9999978027344,2|0,1:2|3:2,0:0:0:0:
512,31,65127,1,8,3:2:0:0:
508,48,65213,1,0,3:2:0:0:
505,66,65300,6,0,P|437:78|383:34,1,143.999995605469,6|2,1:2|3:2,0:0:0:0:
450,167,65817,1,10,0:2:0:0:
309,102,65989,1,2,0:2:0:0:
323,239,66162,1,2,1:2:0:0:
326,256,66248,1,0,3:2:0:0:
329,274,66334,2,0,L|364:280,3,35.9999989013672,0|0|8|0,3:2|3:2|3:2|3:2,0:0:0:0:
451,352,66679,6,0,L|309:377,1,143.999995605469,6|0,1:2|3:2,0:0:0:0:
240,221,67196,2,0,L|246:185,2,35.9999989013672,10|0|0,3:2|3:2|3:2,0:0:0:0:
101,272,67541,1,2,1:2:0:0:
162,170,67713,2,0,L|155:205,1,35.9999989013672,0|0,3:2|3:2,0:0:0:0:
191,322,67886,2,0,L|184:286,1,35.9999989013672,8|0,3:2|3:2,0:0:0:0:
87,132,68058,6,0,P|140:87|209:99,1,143.999995605469,6|2,1:2|3:2,0:0:0:0:
101,272,68576,1,10,3:2:0:0:
84,269,68662,1,0,3:2:0:0:
66,266,68748,2,0,L|60:231,1,35.9999989013672,0|0,3:2|3:2,0:0:0:0:
162,170,68920,2,0,L|155:205,3,35.9999989013672,2|0|0|0,1:2|3:2|3:2|3:2,0:0:0:0:
191,322,69265,2,0,L|184:286,1,35.9999989013672,10|0,3:2|3:2,0:0:0:0:
85,89,69438,6,0,L|60:231,1,143.999995605469,6|2,1:2|1:2,0:0:0:0:
255,378,69955,1,10,0:2:0:0:
74,344,70127,1,0,1:2:0:0:
192,197,70300,2,0,L|298:179,2,107.999996704102,10|10|10,0:2|0:2|0:2,0:0:0:0:
192,197,70989,6,0,L|270:210,1,80,6|0,1:2|0:0,0:0:0:0:
222,19,71334,1,0,1:2:0:0:
101,94,71507,2,0,L|62:101,1,40,2|2,0:2|0:2,0:0:0:0:
192,231,71679,6,0,L|270:244,1,80,2|0,1:2|0:0,0:0:0:0:
222,53,72024,1,0,1:2:0:0:
101,128,72197,2,0,L|62:135,1,40,2|2,0:2|0:2,0:0:0:0:
192,265,72369,6,0,L|270:278,1,80,2|0,1:2|0:0,0:0:0:0:
222,87,72714,1,0,1:2:0:0:
101,162,72887,2,0,L|62:169,1,40,2|2,0:2|0:2,0:0:0:0:
193,298,73058,6,0,L|232:291,1,40,2|0,1:2|0:0,0:0:0:0:
374,183,73231,2,0,L|346:211,1,40,2|0,1:2|0:0,0:0:0:0:
295,381,73403,2,0,L|300:341,1,40,2|0,1:2|0:0,0:0:0:0:
242,175,73576,2,0,L|261:210,1,40,2|0,1:2|0:0,0:0:0:0:
407,311,73748,2,0,L|371:293,1,40,14|0,0:2|0:0,0:0:0:0:
407,311,75127,5,2,3:2:0:0:
332,231,75300,2,0,L|338:261,1,30.0000011444092,2|0,3:2|3:2,0:0:0:0:
330,346,75472,1,2,3:2:0:0:
255,266,75644,2,0,L|261:296,1,30.0000011444092,2|0,3:2|3:2,0:0:0:0:
332,231,75817,2,0,L|338:261,2,30.0000011444092,2|0|0,3:2|3:2|3:2,0:0:0:0:
407,311,76162,1,2,3:2:0:0:
263,181,76334,1,2,0:2:0:0:
181,360,76507,6,0,B|92:395|109:296|20:331,1,176.000005371094,4|10,1:2|0:2,0:0:0:0:
178,230,77024,1,0,3:2:0:0:
30,148,77196,2,0,P|9:186|14:230,1,88.000002685547,2|0,1:2|1:2,0:0:0:0:
171,112,77541,5,10,0:2:0:0:
95,204,77713,1,0,3:2:0:0:
118,45,77886,1,2,1:2:0:0:
178,230,78058,1,0,1:2:0:0:
202,32,78231,1,10,0:2:0:0:
30,148,78403,1,0,3:2:0:0:
261,210,78576,2,0,P|321:151|300:70,1,176.000005371094,2|8,1:2|0:2,0:0:0:0:
117,11,79093,1,2,3:2:0:0:
178,230,79265,6,0,L|163:144,1,88.000002685547,2|0,1:2|3:2,0:0:0:0:
161,114,79524,1,2,0:2:0:0:
161,114,79610,1,8,0:2:0:0:
278,243,79782,1,2,3:2:0:0:
58,289,79955,2,0,L|73:203,1,88.000002685547,2|0,1:2|1:2,0:0:0:0:
82,174,80213,1,2,0:2:0:0:
82,174,80300,1,8,0:2:0:0:
218,323,80472,1,2,3:2:0:0:
283,101,80644,5,2,1:2:0:0:
178,230,80817,2,0,L|170:186,1,44.0000013427735,0|2,3:2|0:2,0:0:0:0:
148,61,80989,1,8,0:2:0:0:
278,243,81162,1,2,3:2:0:0:
338,36,81334,2,0,P|299:15|256:19,1,88.000002685547,2|0,1:2|3:2,0:0:0:0:
178,230,81679,1,10,0:2:0:0:
283,101,81851,1,2,3:2:0:0:
417,334,82024,6,0,B|372:297|372:297|393:180,1,176.000005371094,6|10,1:2|0:2,0:0:0:0:
253,82,82541,1,0,3:2:0:0:
398,9,82713,2,0,L|413:96,1,88.000002685547,2|0,1:2|1:2,0:0:0:0:
476,273,83058,5,10,0:2:0:0:
312,151,83230,1,0,3:2:0:0:
417,334,83403,1,2,1:2:0:0:
393,181,83575,1,0,1:2:0:0:
340,371,83748,1,10,0:2:0:0:
234,184,83920,1,0,3:2:0:0:
200,351,84093,2,0,B|257:341|257:341|291:292|291:292|349:282,1,176.000005371094,2|8,1:2|0:2,0:0:0:0:
456,132,84610,6,0,L|282:101,1,176.000005371094,6|2,1:2|1:2,0:0:0:0:
128,57,85127,1,10,0:2:0:0:
302,18,85300,1,2,1:2:0:0:
147,181,85472,1,2,1:2:0:0:
304,384,85817,1,14,0:2:0:0:
456,132,86162,6,0,B|375:101|390:188|308:157,1,160,6|8,1:2|0:2,0:0:0:0:
188,64,86679,1,0,0:0:0:0:
319,0,86851,2,0,P|337:35|332:75,1,80,0|0,1:2|0:0,0:0:0:0:
278,236,87196,1,8,0:2:0:0:
56,99,87369,6,0,P|112:47|187:63,1,160,6|0,1:2|1:2,0:0:0:0:
121,209,87886,2,0,L|135:130,1,80,10|0,0:2|0:0,0:0:0:0:
278,236,88231,2,0,L|264:157,1,80,2|2,1:2|0:2,0:0:0:0:
136,293,88576,1,10,0:2:0:0:
289,368,88748,6,0,B|394:385|394:385|428:344,1,160,2|0,0:2|0:0,0:0:0:0:
495,192,89265,2,0,P|459:173|420:179,1,80,10|0,0:2|0:0,0:0:0:0:
278,236,89610,1,2,1:2:0:0:
402,96,89782,1,2,0:2:0:0:
446,261,89955,1,10,0:2:0:0:
392,64,90127,6,0,B|339:54|339:54|308:10|308:10|256:1,1,160,2|0,0:2|0:0,0:0:0:0:
173,117,90644,2,0,L|252:103,1,80,10|0,0:2|0:0,0:0:0:0:
334,218,90989,2,0,L|255:204,1,80,2|2,1:2|0:2,0:0:0:0:
74,318,91334,1,10,0:2:0:0:
185,374,91507,6,0,L|157:217,1,160,2|0,0:2|0:0,0:0:0:0:
247,106,92024,2,0,P|253:146|235:181,1,80,10|0,0:2|0:0,0:0:0:0:
325,266,92369,1,2,1:2:0:0:
167,130,92541,1,0,0:0:0:0:
341,56,92713,2,0,P|335:95|353:130,1,80,8|0,0:2|0:0,0:0:0:0:
240,267,93058,6,0,L|250:330,1,63.9999980468751,6|0,1:2|0:0,0:0:0:0:
151,250,93288,6,0,L|161:313,1,63.9999980468751,2|0,1:2|0:0,0:0:0:0:
229,204,93518,6,0,L|240:266,1,63.9999980468751,2|0,1:2|0:0,0:0:0:0:
151,159,93748,6,0,P|169:133|198:119,1,63.9999980468751,10|0,0:2|0:0,0:0:0:0:
317,188,93978,6,0,P|308:157|287:135,1,63.9999980468751,10|0,0:2|0:0,0:0:0:0:
196,30,94208,6,0,P|228:32|255:49,1,63.9999980468751,10|0,0:2|0:0,0:0:0:0:
151,250,94438,5,14,0:2:0:0:
151,250,94955,1,2,0:2:0:0:
250,330,95127,2,0,L|356:311,2,107.999996704102,2|2|2,0:2|0:2|0:2,0:0:0:0:
214,150,95817,6,0,L|308:167,1,95.9999970703126,6|0,1:2|1:2,0:0:0:0:
166,334,96162,1,10,0:2:0:0:
130,154,96334,1,0,1:2:0:0:
250,330,96507,1,10,0:2:0:0:
169,77,96679,1,0,1:2:0:0:
86,306,96851,1,0,1:2:0:0:
355,274,97024,6,0,B|283:167|60:213|187:386|7:355,1,420.000016021729,14|0,0:2|0:0,0:0:0:0:
