osu file format v14

[General]
AudioFilename: Discotheque.mp3
AudioLeadIn: 0
PreviewTime: 34826
Countdown: 1
SampleSet: Normal
StackLeniency: 0.7
Mode: 0
LetterboxInBreaks: 1
WidescreenStoryboard: 1

[Editor]
Bookmarks: 14896
DistanceSpacing: 0.8
BeatDivisor: 4
GridSize: 4
TimelineZoom: 0.9

[Metadata]
Title:DISCOTHEQUE (TV-SIZE)
TitleUnicode:DISCOTHEQUE (TV-SIZE)
Artist:Mizuki Nana
ArtistUnicode:Mizuki Nana
Creator:kristi71111
Version:Hard
Source:Rosario + Vampire CAPU2
Tags:rosario vampire supernatural
BeatmapID:655390
BeatmapSetID:290989

[Difficulty]
HPDrainRate:6
CircleSize:4
OverallDifficulty:7
ApproachRate:8
SliderMultiplier:1.6
SliderTickRate:1

[Events]
//Background and Video events
0,0,"vampiredesu.png",0,0
//Break Periods
//Storyboard Layer 0 (Background)
//Storyboard Layer 1 (Fail)
//Storyboard Layer 2 (Pass)
//Storyboard Layer 3 (Foreground)
//Storyboard Sound Samples

[TimingPoints]
1050,419.58041958042,4,1,0,50,1,0
17833,-100,4,1,0,65,0,1
34616,-100,4,1,0,50,0,0
64826,-100,4,1,0,65,0,1
74896,-100,4,1,0,50,0,0

[HitObjects]
48,112,1050,6,0,P|116:132|216:116,1,160
264,100,1679,2,0,P|336:112|384:180,1,160
380,244,2308,2,0,P|360:292|328:304,1,80
276,328,2728,2,0,P|204:336|152:312,2,120
240,216,3987,6,0,P|260:152|220:68,1,160
116,140,4826,1,0,0:0:0:0:
104,204,5036,2,0,P|96:248|112:280,1,80
224,340,5665,1,0,0:0:0:0:
352,320,6084,5,0,0:0:0:0:
396,272,6294,2,0,P|407:239|388:192,1,80
276,144,6924,1,0,0:0:0:0:
208,116,7133,6,0,L|136:84|136:84,6,40
324,68,8182,1,0,0:0:0:0:
380,76,8392,1,0,0:0:0:0:
420,116,8602,2,0,P|456:160|440:224,2,120
380,156,9441,5,0,0:0:0:0:
340,204,9651,1,0,0:0:0:0:
296,252,9861,2,0,P|260:284|184:284,1,120
108,240,10490,6,0,L|52:216|52:216,6,40
232,276,11539,1,0,0:0:0:0:
288,244,11749,1,0,0:0:0:0:
336,200,11959,1,0,0:0:0:0:
356,140,12168,2,0,P|364:88|336:68,1,80
264,28,12798,6,0,P|200:28|120:88,1,160
84,204,13637,1,0,0:0:0:0:
80,268,13847,2,0,L|84:304|140:340,1,80
244,356,14476,6,0,P|328:368|408:344,1,160
396,220,15315,1,0,0:0:0:0:
300,136,15735,1,0,0:0:0:0:
188,208,16154,2,0,P|112:216|36:168,1,160
144,96,16994,2,0,L|216:44,1,80
272,52,17413,2,0,L|348:100,1,80
380,144,17833,6,0,P|408:200|396:240,1,80
400,284,18252,2,0,P|376:324|340:344,1,80
284,336,18672,1,0,0:0:0:0:
256,320,18777,1,0,0:0:0:0:
228,300,18882,1,0,0:0:0:0:
204,280,18987,1,0,0:0:0:0:
180,260,19091,1,0,0:0:0:0:
144,208,19301,6,0,P|124:172|148:140,1,80
192,100,19721,1,0,0:0:0:0:
244,64,19931,1,0,0:0:0:0:
308,64,20140,1,0,0:0:0:0:
372,76,20350,2,0,P|448:120|448:208,1,160
372,284,21189,5,0,0:0:0:0:
258,341,21609,1,0,0:0:0:0:
129,341,22029,2,0,P|58:305|62:199,1,160
45,103,22868,1,0,0:0:0:0:
94,62,23077,1,0,0:0:0:0:
158,62,23287,1,0,0:0:0:0:
220,68,23497,2,0,P|288:104|304:256,1,240
196,188,24546,5,0,0:0:0:0:
196,188,24756,1,0,0:0:0:0:
156,240,24966,1,0,0:0:0:0:
156,240,25175,1,0,0:0:0:0:
196,288,25385,2,0,P|256:336|336:336,1,160
392,308,26015,5,0,0:0:0:0:
416,288,26119,1,0,0:0:0:0:
432,260,26224,1,0,0:0:0:0:
444,232,26329,1,0,0:0:0:0:
448,200,26434,1,0,0:0:0:0:
452,136,26644,2,0,L|452:100|452:52,2,80
444,264,27483,5,0,0:0:0:0:
380,264,27693,1,0,0:0:0:0:
256,192,27903,12,0,29161,0:0:0:0:
256,52,29581,5,0,0:0:0:0:
192,124,29896,1,0,0:0:0:0:
264,188,30210,1,0,0:0:0:0:
312,228,30420,2,0,L|212:360,1,160
152,356,31050,1,0,0:0:0:0:
100,316,31259,1,0,0:0:0:0:
64,160,31784,5,0,0:0:0:0:
72,128,31889,1,0,0:0:0:0:
260,92,32518,2,0,L|332:148,1,80
324,204,32938,2,0,L|252:260,1,80
196,252,33357,2,0,L|92:252,2,80
196,188,33987,1,0,0:0:0:0:
196,156,34091,2,0,L|196:84,1,40
196,84,34301,2,0,P|224:40|256:28,1,80
344,28,34826,6,0,P|400:28|432:28,1,80
424,60,35140,1,0,0:0:0:0:
424,92,35245,1,0,0:0:0:0:
424,156,35455,1,0,0:0:0:0:
420,252,35770,6,0,P|392:292|324:312,1,120
264,312,36294,1,0,0:0:0:0:
168,312,36609,2,0,P|168:228|168:104,1,200
272,40,37553,1,0,0:0:0:0:
304,40,37658,1,0,0:0:0:0:
336,40,37763,2,0,L|420:40,1,80
416,168,38392,5,0,0:0:0:0:
416,296,38812,1,0,0:0:0:0:
288,296,39231,2,0,L|200:296,2,80
288,264,39756,2,0,L|288:208,1,40
288,160,40070,2,0,L|124:160,1,160
96,160,40595,1,0,0:0:0:0:
88,256,40910,5,0,0:0:0:0:
88,384,41329,1,0,0:0:0:0:
88,256,41539,6,0,L|88:168,2,80
88,320,42168,2,0,L|248:320,1,160
312,320,42798,2,0,L|416:320,1,80
392,256,43217,2,0,L|392:168,1,80
392,112,43637,2,0,B|404:40|380:12|380:12,1,80
268,72,44266,5,0,0:0:0:0:
140,76,44686,1,0,0:0:0:0:
140,204,45105,2,0,L|220:204,1,80
268,204,45525,1,0,0:0:0:0:
280,332,45945,2,0,P|232:324|224:316,1,40
144,292,46364,2,0,L|80:252,1,40
52,188,46784,2,0,L|52:124,2,40
56,92,47308,6,0,P|108:84|232:84,1,160
280,84,47938,2,0,L|368:84,1,80
456,84,48462,2,0,P|500:128|500:188,1,120
504,216,48882,1,0,0:0:0:0:
500,280,49091,2,0,P|484:320|444:332,1,80
388,332,49511,1,0,0:0:0:0:
328,312,49721,1,0,0:0:0:0:
268,288,49931,1,0,0:0:0:0:
216,252,50140,2,0,P|168:228|132:208,1,80
92,180,50560,5,0,0:0:0:0:
72,120,50770,1,0,0:0:0:0:
80,56,50980,1,0,0:0:0:0:
144,56,51189,2,0,P|188:56|248:56,1,80
288,60,51609,1,0,0:0:0:0:
348,84,51819,6,0,P|384:100|400:144,1,80
336,148,52238,1,0,0:0:0:0:
316,172,52343,2,0,L|244:240,1,80
208,268,52763,6,0,P|176:292|120:300,1,80
108,308,53077,2,0,P|48:312|24:304,1,80
8,244,53497,1,0,0:0:0:0:
60,128,53917,1,0,0:0:0:0:
184,92,54336,1,0,0:0:0:0:
312,92,54756,6,0,P|392:92|472:152,1,160
464,196,55385,1,0,0:0:0:0:
436,256,55595,2,0,P|408:280|364:296,1,80
304,308,56015,1,0,0:0:0:0:
240,308,56224,5,0,0:0:0:0:
176,304,56434,1,0,0:0:0:0:
116,284,56644,1,0,0:0:0:0:
80,232,56854,1,0,0:0:0:0:
72,200,56959,1,0,0:0:0:0:
72,168,57063,1,0,0:0:0:0:
108,44,57483,6,0,P|172:28|216:32,2,80
236,28,58322,2,0,P|304:28|328:28,2,80
320,124,59161,2,0,P|376:124|416:124,2,80
208,184,60001,1,0,0:0:0:0:
104,256,60420,6,0,P|52:280|4:276,2,80
40,188,61154,2,0,P|52:120|116:80,1,120
212,48,61889,1,0,0:0:0:0:
336,16,62308,1,0,0:0:0:0:
428,108,62728,1,0,0:0:0:0:
380,256,63252,2,0,P|320:296|292:296,1,80
252,304,63672,2,0,L|192:304,1,40
180,304,63882,2,0,P|124:292|88:268,1,80
