osu file format v14

[General]
AudioFilename: audio.mp3
AudioLeadIn: 0
PreviewTime: 66389
Countdown: 0
SampleSet: Soft
StackLeniency: 0.7
Mode: 2
LetterboxInBreaks: 0
WidescreenStoryboard: 1

[Editor]
Bookmarks: 21349,26701,31728,37079,39674,42268,44863,49890,55079,60268,72106
DistanceSpacing: 1
BeatDivisor: 4
GridSize: 4
TimelineZoom: 1.5

[Metadata]
Title:COSMIC LOVE (TV Size)
TitleUnicode:COSMIC LOVE (TV Size)
Artist:Mizuki Nana
ArtistUnicode:水樹奈々
Creator:Kukkai
Version:Cup
Source:ロザリオとバンパイア
Tags:園田凌士 Ryoji Sonoda 藤田淳平 Junpei Fujita rosario + to and vampire Starcamp EP Anime Japanese jpop j-pop pop season 1 one s1 opening op female vocal vocals
BeatmapID:4465308
BeatmapSetID:2074170

[Difficulty]
HPDrainRate:2
CircleSize:2.5
OverallDifficulty:6
ApproachRate:6
SliderMultiplier:1
SliderTickRate:1

[Events]
//Background and Video events
0,0,"bgbg.jpg",0,0
//Break Periods
//Storyboard Layer 0 (Background)
//Storyboard Layer 1 (Fail)
//Storyboard Layer 2 (Pass)
//Storyboard Layer 3 (Foreground)
//Storyboard Layer 4 (Overlay)
//Storyboard Sound Samples

[TimingPoints]
562,324.324324324324,4,2,1,70,1,0
562,-125,4,2,1,70,0,0
5751,-100,4,2,1,70,0,0
9643,-100,4,2,1,70,0,0
10940,-90.9090909090909,4,2,1,80,0,0
21318,-90.9090909090909,4,2,1,60,0,0
64453,-100,4,2,1,65,0,0
66075,-100,4,2,1,70,0,0
66724,-90.9090909090909,4,2,1,80,0,1
76453,-90.9090909090909,4,2,1,70,0,0
77102,-90.9090909090909,4,2,1,80,0,1
87480,-90.9090909090909,4,2,1,70,0,0
90886,-100,4,2,1,5,0,0

[Colours]
Combo1 : 196,196,255
Combo2 : 111,255,255
Combo3 : 182,107,107
Combo4 : 255,130,255

[HitObjects]
200,368,724,6,0,P|68:296|220:40,1,520,4|2,3:2|0:2,0:0:0:0:
308,368,3156,6,0,P|468:272|280:32,1,560,6|8,3:2|0:3,0:0:0:0:
164,292,5751,6,0,L|464:292,1,300,4|0,3:2|0:0,0:0:0:0:
464,292,7048,6,0,L|156:296,1,300,4|0,3:2|0:0,0:0:0:0:
296,300,8345,6,0,P|380:264|268:48,1,400,4|0,3:2|3:2,0:0:0:0:
184,52,9967,2,0,L|76:52,2,100,0|0|0,3:2|3:2|3:2,0:0:0:0:
308,364,10940,6,0,P|328:260|304:208,1,165.000005035401,4|8,3:2|0:2,0:0:0:0:
196,208,11751,2,0,L|120:208,1,55.0000016784668,2|2,0:2|3:2,0:0:0:0:
32,204,12237,6,0,L|208:204,1,165.000005035401,2|10,0:2|0:2,0:0:0:0:
308,200,13048,2,0,L|376:200,2,55.0000016784668,2|2|10,3:2|3:2|0:2,0:0:0:0:
252,204,13534,6,0,L|80:204,2,165.000005035401,6|8|0,0:2|0:2|3:2,0:0:0:0:
364,204,14832,6,0,P|392:164|344:64,1,165.000005035401,2|10,0:2|0:2,0:0:0:0:
240,64,15643,2,0,L|164:64,1,55.0000016784668,2|2,3:2|3:2,0:0:0:0:
240,64,15967,1,10,0:2:0:0:
296,64,16129,6,0,L|464:64,2,165.000005035401,6|8|0,0:2|0:2|3:2,0:0:0:0:
184,360,17426,6,0,P|152:328|208:232,1,165.000005035401,2|10,0:2|0:2,0:0:0:0:
308,232,18237,1,2,3:2:0:0:
253,232,18399,1,2,3:2:0:0:
198,232,18561,1,10,0:2:0:0:
332,232,18886,6,0,L|508:232,2,165.000005035401,6|2|10,3:2|3:2|0:2,0:0:0:0:
168,240,20345,6,0,P|136:204|192:108,1,165.000005035401,10|0,0:2|3:2,0:0:0:0:
236,112,20994,1,0,3:2:0:0:
376,308,21318,6,0,P|416:260|356:192,1,165.000005035401,4|10,0:2|0:2,0:0:0:0:
249,197,22129,2,0,L|173:197,2,55.0000016784668,2|2|10,3:2|3:2|0:2,0:0:0:0:
359,192,22778,6,0,L|360:76,1,110.000003356934,0|10,3:2|0:2,0:0:0:0:
252,80,23426,1,2,3:2:0:0:
196,76,23588,1,2,3:2:0:0:
140,76,23750,1,10,0:2:0:0:
252,80,24075,6,0,L|368:80,1,110.000003356934,0|10,3:2|0:2,0:0:0:0:
472,84,24724,1,0,3:2:0:0:
417,86,24886,1,2,3:2:0:0:
362,88,25048,1,10,0:2:0:0:
252,240,25372,6,0,L|126:240,2,110.000003356934,0|10|0,3:2|0:2|3:2,0:0:0:0:
308,241,26183,1,0,3:2:0:0:
308,176,26345,1,10,0:2:0:0:
164,360,26670,6,0,L|52:360,1,110.000003356934,2|8,3:2|0:2,0:0:0:0:
164,360,27318,2,0,L|164:288,2,55.0000016784668,2|2|10,3:2|3:2|0:2,0:0:0:0:
276,356,27967,6,0,L|408:356,1,110.000003356934,0|10,3:2|0:2,0:0:0:0:
276,356,28616,2,0,L|204:356,2,55.0000016784668,0|2|8,3:2|3:2|0:2,0:0:0:0:
386,356,29264,6,0,P|402:292|366:244,1,110.000003356934,0|8,3:2|0:2,0:0:0:0:
270,256,29913,2,0,L|198:256,2,55.0000016784668,2|2|10,3:2|3:2|0:2,0:0:0:0:
416,168,30561,6,0,L|228:168,1,165.000005035401,2|2,0:3|0:3,0:0:0:0:
140,168,31372,1,2,0:3:0:0:
288,368,31697,6,0,P|332:336|272:260,1,165.000005035401,4|10,0:2|0:2,0:0:0:0:
172,244,32507,2,0,L|92:244,2,55.0000016784668,2|2|10,3:2|3:2|0:2,0:0:0:0:
284,240,33156,6,0,L|284:112,1,110.000003356934,0|8,3:2|0:2,0:0:0:0:
392,120,33805,2,0,L|456:120,2,55.0000016784668,0|2|10,3:2|3:2|0:2,0:0:0:0:
248,120,34453,6,0,L|128:120,2,110.000003356934,2|10|0,3:2|0:2|3:2,0:0:0:0:
304,120,35264,1,2,3:2:0:0:
304,64,35426,1,8,0:2:0:0:
184,320,35751,6,0,L|300:320,1,110.000003356934,0|10,3:2|0:2,0:0:0:0:
404,320,36399,2,0,L|484:320,2,55.0000016784668,0|0|10,3:2|3:2|0:2,0:0:0:0:
260,236,37048,1,2,0:3:0:0:
368,236,37372,6,0,P|428:188|344:88,1,220.000006713867,4|10,0:2|0:2,0:0:0:0:
224,64,38345,6,0,L|108:64,1,110.000003356934,4|10,0:2|0:2,0:0:0:0:
224,60,38994,2,0,L|300:60,2,55.0000016784668,0|10|8,0:2|0:2|0:2,0:0:0:0:
80,264,39643,6,0,L|204:264,1,110.000003356934,4|8,3:2|0:2,0:0:0:0:
300,264,40291,2,0,L|176:264,1,110.000003356934,0|8,3:2|0:2,0:0:0:0:
136,264,40778,6,0,P|92:232|152:156,1,165.000005035401,4|8,3:2|0:2,0:0:0:0:
252,164,41589,1,0,3:2:0:0:
197,164,41751,1,0,3:2:0:0:
142,164,41913,1,8,0:2:0:0:
284,92,42237,6,0,L|416:92,1,110.000003356934,4|8,3:2|0:2,0:0:0:0:
284,92,42886,2,0,L|164:92,1,110.000003356934,0|8,3:2|0:2,0:0:0:0:
228,92,43372,6,0,L|416:92,1,165.000005035401,4|8,3:2|0:2,0:0:0:0:
448,340,44021,2,0,P|468:300|436:176,1,165.000005035401,4|8,3:2|0:2,0:0:0:0:
300,312,44832,5,2,0:3:0:0:
192,316,45156,2,0,P|128:276|212:184,1,220.000006713867,4|8,3:2|0:2,0:0:0:0:
304,180,46129,6,0,L|428:180,1,110.000003356934,2|10,3:2|0:2,0:0:0:0:
360,184,46616,2,0,L|224:184,1,110.000003356934,2|0,0:2|0:3,0:0:0:0:
116,196,47264,6,0,L|288:196,1,165.000005035401,4|8,0:2|0:2,0:0:0:0:
392,200,48075,2,0,L|391:68,1,110.000003356934,0|8,3:2|0:2,0:0:0:0:
280,88,48724,6,0,L|160:88,1,110.000003356934,2|10,3:2|0:2,0:0:0:0:
116,88,49210,2,0,L|116:216,1,110.000003356934,2|0,3:2|0:3,0:0:0:0:
260,352,49859,6,0,P|304:316|248:240,1,165.000005035401,4|8,0:2|0:2,0:0:0:0:
144,240,50670,2,0,L|139:104,1,110.000003356934,0|10,3:2|0:2,0:0:0:0:
248,124,51318,6,0,L|376:124,1,110.000003356934,6|10,3:2|0:2,0:0:0:0:
304,130,51805,2,0,L|124:130,1,165.000005035401,6|10,3:2|0:2,0:0:0:0:
280,352,52616,6,0,L|280:220,1,110.000003356934,6|10,3:2|0:2,0:0:0:0:
224,240,53102,2,0,L|404:240,1,165.000005035401,2|10,3:2|0:2,0:0:0:0:
280,242,53913,6,0,L|156:242,1,110.000003356934,6|10,3:2|0:2,0:0:0:0:
116,238,54399,2,0,L|116:122,1,110.000003356934,0|2,0:3|0:3,0:0:0:0:
264,332,55048,6,0,L|80:332,1,165.000005035401,4|8,0:2|0:2,0:0:0:0:
208,336,55859,2,0,L|348:336,1,110.000003356934,0|10,0:2|0:2,0:0:0:0:
208,336,56507,6,0,L|208:204,1,110.000003356934,2|10,3:2|0:2,0:0:0:0:
264,228,56994,2,0,L|408:228,1,110.000003356934,2|2,3:2|0:3,0:0:0:0:
232,256,57643,6,0,P|192:220|256:136,1,165.000005035401,4|8,3:2|0:2,0:0:0:0:
348,136,58453,2,0,L|228:136,1,110.000003356934,0|10,3:2|0:2,0:0:0:0:
128,136,59102,6,0,L|128:8,1,110.000003356934,2|10,3:2|0:2,0:0:0:0:
184,24,59589,2,0,L|304:24,1,110.000003356934,2|2,0:2|0:3,0:0:0:0:
432,304,60237,6,0,L|216:304,1,165.000005035401,4|8,0:2|0:2,0:0:0:0:
156,300,61048,2,0,L|280:304,1,110.000003356934,0|10,3:2|0:2,0:0:0:0:
376,304,61697,6,0,L|376:176,1,110.000003356934,2|10,3:2|0:2,0:0:0:0:
320,192,62183,2,0,L|200:192,1,110.000003356934,2|2,0:2|3:2,0:0:0:0:
356,200,62832,6,0,L|476:200,1,110.000003356934,6|2,3:2|3:2,0:0:0:0:
412,200,63318,1,10,0:2:0:0:
300,200,63643,2,0,L|224:200,2,55.0000016784668,0|0|8,3:2|3:2|0:2,0:0:0:0:
436,140,64291,6,0,L|436:64,1,55.0000016784668,0|12,3:2|3:2,0:0:0:0:
288,96,64940,1,8,3:2:0:0:
140,88,65426,6,0,L|140:232,1,100,8|8,3:2|3:2,0:0:0:0:
240,188,66075,2,0,L|368:188,1,100,8|10,3:2|3:2,0:0:0:0:
200,364,66724,6,0,P|168:308|208:256,1,110.000003356934,6|2,3:2|3:2,0:0:0:0:
240,272,67210,1,10,0:2:0:0:
348,268,67534,2,0,L|348:148,1,110.000003356934,0|10,3:2|0:2,0:0:0:0:
292,160,68021,6,0,L|160:160,1,110.000003356934,2|2,3:2|0:2,0:0:0:0:
128,160,68507,1,10,0:2:0:0:
240,160,68832,2,0,L|332:160,2,55.0000016784668,0|0|10,3:2|3:2|0:2,0:0:0:0:
96,308,69480,6,0,L|244:308,1,110.000003356934,2|8,3:2|0:2,0:0:0:0:
316,308,70129,2,0,L|384:308,2,55.0000016784668,2|2|10,3:2|3:2|0:2,0:0:0:0:
204,312,70778,6,0,L|204:192,1,110.000003356934,2|8,3:2|0:2,0:0:0:0:
312,204,71426,1,0,3:2:0:0:
257,204,71588,1,0,3:2:0:0:
202,204,71750,1,8,0:0:0:0:
336,128,72075,6,0,L|480:128,2,110.000003356934,4|10|0,0:2|0:2|3:2,0:0:0:0:
280,128,72886,1,2,3:2:0:0:
224,128,73048,1,8,0:2:0:0:
108,128,73372,6,0,L|108:252,1,110.000003356934,0|10,3:2|0:2,0:0:0:0:
220,244,74021,1,0,3:2:0:0:
275,244,74183,1,0,3:2:0:0:
330,244,74345,1,8,0:2:0:0:
192,348,74670,6,0,L|60:348,2,110.000003356934,4|10|2,0:2|0:2|3:2,0:0:0:0:
248,348,75480,1,2,3:2:0:0:
388,348,75805,6,0,L|388:232,1,110.000003356934,6|0,0:2|3:2,0:0:0:0:
280,232,76453,2,0,L|152:232,1,110.000003356934,0|10,3:2|0:2,0:0:0:0:
312,176,77102,6,0,P|332:112|268:72,1,110.000003356934,6|2,3:2|3:2,0:0:0:0:
252,80,77589,1,10,0:2:0:0:
144,80,77913,2,0,L|284:80,1,110.000003356934,0|10,3:2|0:2,0:0:0:0:
308,80,78399,6,0,L|308:200,1,110.000003356934,2|2,0:2|0:2,0:0:0:0:
252,192,78886,1,10,0:2:0:0:
144,192,79210,2,0,L|80:192,2,55.0000016784668,0|0|10,3:2|3:2|0:2,0:0:0:0:
288,272,79859,6,0,L|416:272,2,110.000003356934,2|8|2,3:2|0:2|3:2,0:0:0:0:
232,272,80670,1,2,3:2:0:0:
176,272,80832,1,10,0:2:0:0:
288,272,81156,6,0,L|420:272,1,110.000003356934,6|8,3:2|0:2,0:0:0:0:
452,272,81643,2,0,L|452:120,1,110.000003356934,2|2,3:0|3:0,0:0:0:0:
308,152,82291,6,0,L|176:152,1,110.000003356934,4|0,3:2|3:2,0:0:0:0:
144,152,82778,2,0,L|144:280,1,110.000003356934,8|0,0:2|3:2,0:0:0:0:
288,264,83426,5,10,0:2:0:0:
344,260,83589,2,0,L|344:136,1,110.000003356934,6|0,3:2|3:2,0:0:0:0:
288,152,84075,2,0,L|168:152,1,110.000003356934,8|0,0:2|3:2,0:0:0:0:
324,84,84724,5,10,0:2:0:0:
380,84,84886,2,0,L|248:84,1,110.000003356934,6|0,3:2|3:2,0:0:0:0:
214,84,85372,2,0,L|346:84,1,110.000003356934,8|0,0:2|0:2,0:0:0:0:
184,356,86021,5,8,0:2:0:0:
128,352,86183,2,0,L|128:232,1,110.000003356934,0|0,0:2|3:2,0:0:0:0:
240,244,86832,2,0,L|328:244,2,55.0000016784668,0|0|8,3:2|3:2|0:2,0:0:0:0:
96,152,87480,6,0,L|220:152,1,110.000003356934,6|2,3:2|3:2,0:0:0:0:
260,152,87967,1,10,0:2:0:0:
316,152,88129,2,0,L|316:272,1,110.000003356934,6|2,3:2|3:0,0:0:0:0:
176,268,88778,6,0,L|40:268,1,110.000003356934,6|2,3:2|3:0,0:0:0:0:
120,268,89264,1,8,0:2:0:0:
176,268,89426,1,2,0:3:0:0:
288,268,89751,1,2,0:3:0:0:
152,192,90075,5,4,0:2:0:0:
256,192,90399,12,0,90886,0:0:0:0:
