osu file format v14

[General]
AudioFilename: audio.mp3
AudioLeadIn: 0
PreviewTime: 66755
Countdown: 0
SampleSet: Normal
StackLeniency: 0.7
Mode: 1
LetterboxInBreaks: 0
WidescreenStoryboard: 0

[Editor]
Bookmarks: 42268
DistanceSpacing: 1.1
BeatDivisor: 4
GridSize: 16
TimelineZoom: 2.799999

[Metadata]
Title:COSMIC LOVE
TitleUnicode:COSMIC LOVE
Artist:Mizuki Nana
ArtistUnicode:水樹 奈々
Creator:IControl
Version:Muzukashii
Source:ロザリオとバンパイア
Tags:rosario + vampire opening Mizore Moka Kurumu
BeatmapID:910552
BeatmapSetID:420908

[Difficulty]
HPDrainRate:5
CircleSize:2
OverallDifficulty:5
ApproachRate:5
SliderMultiplier:1.4
SliderTickRate:1

[Events]
//Background and Video events
0,0,"attractive_rosario_to_vampire_group_converted.jpg",0,80
//Break Periods
//Storyboard Layer 0 (Background)
//Storyboard Layer 1 (Fail)
//Storyboard Layer 2 (Pass)
//Storyboard Layer 3 (Foreground)
//Storyboard Sound Samples

[TimingPoints]
755,324.324324324324,4,1,0,60,1,0
21349,-100,4,1,0,70,0,0
66754,-100,4,1,0,80,0,1
87511,-100,4,1,0,80,0,0

[HitObjects]
256,192,755,5,4,0:0:0:0:
256,192,3187,1,12,0:0:0:0:
256,192,5782,1,4,0:0:0:0:
256,192,7079,1,4,0:0:0:0:
256,192,8376,1,12,0:0:0:0:
256,192,8863,1,0,0:0:0:0:
256,192,9187,1,0,0:0:0:0:
256,192,9511,1,0,0:0:0:0:
256,192,9674,1,8,0:0:0:0:
256,192,9755,1,8,0:0:0:0:
256,192,9836,1,8,0:0:0:0:
256,192,9998,1,8,0:0:0:0:
256,192,10322,1,8,0:0:0:0:
256,192,10647,1,0,0:0:0:0:
256,192,10971,1,8,0:0:0:0:
256,192,11295,1,0,0:0:0:0:
256,192,11457,1,8,0:0:0:0:
256,192,11782,1,0,0:0:0:0:
256,192,11944,1,0,0:0:0:0:
256,192,12106,1,8,0:0:0:0:
256,192,12268,1,8,0:0:0:0:
256,192,12592,1,0,0:0:0:0:
256,192,12755,1,8,0:0:0:0:
256,192,13079,1,0,0:0:0:0:
256,192,13241,1,8,0:0:0:0:
256,192,13403,1,0,0:0:0:0:
256,192,13565,1,12,0:0:0:0:
256,192,13890,1,0,0:0:0:0:
256,192,14052,1,8,0:0:0:0:
256,192,14376,1,8,0:0:0:0:
256,192,14538,1,0,0:0:0:0:
256,192,14701,1,8,0:0:0:0:
256,192,14863,1,8,0:0:0:0:
256,192,15187,1,0,0:0:0:0:
256,192,15349,1,8,0:0:0:0:
256,192,15674,1,0,0:0:0:0:
256,192,15836,1,8,0:0:0:0:
256,192,15998,1,0,0:0:0:0:
256,192,16160,1,4,0:0:0:0:
256,192,16484,1,0,0:0:0:0:
256,192,16647,1,8,0:0:0:0:
256,192,16971,1,8,0:0:0:0:
256,192,17133,1,0,0:0:0:0:
256,192,17295,1,8,0:0:0:0:
256,192,17457,1,0,0:0:0:0:
256,192,17782,1,0,0:0:0:0:
256,192,17944,1,8,0:0:0:0:
256,192,18268,1,0,0:0:0:0:
256,192,18430,1,0,0:0:0:0:
256,192,18592,1,8,0:0:0:0:
256,192,18917,1,0,0:0:0:0:
256,192,19079,1,0,0:0:0:0:
256,192,19160,1,0,0:0:0:0:
256,192,19241,1,0,0:0:0:0:
256,192,19403,1,8,0:0:0:0:
256,192,19890,1,0,0:0:0:0:
256,192,20214,1,8,0:0:0:0:
256,192,20376,2,0,L|304:192,8,34.999999165535
256,192,21349,1,4,0:0:0:0:
256,192,21674,1,0,0:0:0:0:
256,192,21836,1,8,0:0:0:0:
256,192,21998,1,0,0:0:0:0:
256,192,22160,1,0,0:0:0:0:
256,192,22241,1,0,0:0:0:0:
256,192,22322,1,0,0:0:0:0:
256,192,22484,1,8,0:0:0:0:
256,192,22647,1,0,0:0:0:0:
256,192,22971,1,0,0:0:0:0:
256,192,23133,1,8,0:0:0:0:
256,192,23457,1,8,0:0:0:0:
256,192,23620,1,0,0:0:0:0:
256,192,23782,1,8,0:0:0:0:
256,192,23944,1,8,0:0:0:0:
256,192,24268,1,0,0:0:0:0:
256,192,24430,1,8,0:0:0:0:
256,192,24755,1,8,0:0:0:0:
256,192,24917,1,8,0:0:0:0:
256,192,25079,1,0,0:0:0:0:
256,192,25241,1,8,0:0:0:0:
256,192,25565,1,0,0:0:0:0:
256,192,25728,1,8,0:0:0:0:
256,192,25890,1,0,0:0:0:0:
256,192,26376,1,8,0:0:0:0:
256,192,26701,1,4,0:0:0:0:
256,192,27025,1,8,0:0:0:0:
256,192,27349,1,0,0:0:0:0:
256,192,27511,1,8,0:0:0:0:
256,192,27674,1,0,0:0:0:0:
256,192,27836,1,8,0:0:0:0:
256,192,28322,1,8,0:0:0:0:
256,192,28484,1,0,0:0:0:0:
256,192,28809,1,0,0:0:0:0:
256,192,28971,1,8,0:0:0:0:
256,192,29133,1,8,0:0:0:0:
256,192,29295,1,0,0:0:0:0:
256,192,29457,1,0,0:0:0:0:
256,192,29620,1,8,0:0:0:0:
256,192,29944,1,8,0:0:0:0:
256,192,30106,1,0,0:0:0:0:
256,192,30268,1,8,0:0:0:0:
256,192,30430,1,8,0:0:0:0:
256,192,30592,1,0,0:0:0:0:
256,192,30674,1,0,0:0:0:0:
256,192,30755,1,0,0:0:0:0:
256,192,30917,1,0,0:0:0:0:
256,192,31079,1,8,0:0:0:0:
256,192,31403,1,8,0:0:0:0:
256,192,31565,1,8,0:0:0:0:
256,192,31728,1,4,0:0:0:0:
256,192,32052,1,0,0:0:0:0:
256,192,32214,1,8,0:0:0:0:
256,192,32295,1,8,0:0:0:0:
256,192,32376,1,8,0:0:0:0:
256,192,32538,1,0,0:0:0:0:
256,192,32701,1,8,0:0:0:0:
256,192,32863,1,0,0:0:0:0:
256,192,33025,1,8,0:0:0:0:
256,192,33511,1,8,0:0:0:0:
256,192,33836,1,0,0:0:0:0:
256,192,33917,1,0,0:0:0:0:
256,192,33998,1,0,0:0:0:0:
256,192,34160,1,8,0:0:0:0:
256,192,34322,1,0,0:0:0:0:
256,192,34484,1,8,0:0:0:0:
256,192,34809,1,8,0:0:0:0:
256,192,34971,1,0,0:0:0:0:
256,192,35295,1,8,0:0:0:0:
256,192,35620,1,8,0:0:0:0:
256,192,35944,1,8,0:0:0:0:
256,192,36106,1,0,0:0:0:0:
256,192,36268,1,8,0:0:0:0:
256,192,36592,1,0,0:0:0:0:
256,192,36755,1,8,0:0:0:0:
256,192,37079,1,0,0:0:0:0:
256,192,37403,1,4,0:0:0:0:
256,192,37890,1,0,0:0:0:0:
256,192,38052,1,8,0:0:0:0:
192,144,38376,1,4,0:0:0:0:
256,192,38701,1,8,0:0:0:0:
256,192,38863,1,0,0:0:0:0:
256,192,39187,1,0,0:0:0:0:
256,192,39268,1,0,0:0:0:0:
256,192,39349,1,0,0:0:0:0:
256,192,39673,12,0,41943,0:0:0:0:
256,192,42268,12,0,44214,0:0:0:0:
256,192,44376,5,0,0:0:0:0:
256,192,44538,1,8,0:0:0:0:
256,192,44700,1,0,0:0:0:0:
256,192,44863,1,4,0:0:0:0:
256,192,45187,1,12,0:0:0:0:
256,192,45674,1,8,0:0:0:0:
256,192,45998,1,0,0:0:0:0:
256,192,46160,1,8,0:0:0:0:
256,192,46484,1,8,0:0:0:0:
256,192,46647,1,0,0:0:0:0:
256,192,46971,1,8,0:0:0:0:
256,192,47133,1,0,0:0:0:0:
256,192,47295,1,12,0:0:0:0:
256,192,47620,1,0,0:0:0:0:
256,192,47782,1,8,0:0:0:0:
256,192,48268,1,8,0:0:0:0:
256,192,48592,1,0,0:0:0:0:
256,192,48755,1,8,0:0:0:0:
256,192,49079,1,8,0:0:0:0:
256,192,49241,1,0,0:0:0:0:
256,192,49322,1,0,0:0:0:0:
256,192,49403,1,0,0:0:0:0:
256,192,49565,1,8,0:0:0:0:
256,192,49727,1,8,0:0:0:0:
256,192,49890,1,4,0:0:0:0:
256,192,50214,1,0,0:0:0:0:
256,192,50376,1,8,0:0:0:0:
256,192,50863,1,0,0:0:0:0:
256,192,51349,1,8,0:0:0:0:
256,192,51674,1,0,0:0:0:0:
256,192,51836,1,12,0:0:0:0:
256,192,52322,1,8,0:0:0:0:
256,192,52647,1,0,0:0:0:0:
256,192,52971,1,8,0:0:0:0:
256,192,53133,1,0,0:0:0:0:
256,192,53620,1,8,0:0:0:0:
256,192,53944,1,0,0:0:0:0:
256,192,54268,1,0,0:0:0:0:
256,192,54430,1,8,0:0:0:0:
256,192,54755,1,8,0:0:0:0:
256,192,54917,1,0,0:0:0:0:
256,192,55079,1,12,0:0:0:0:
256,192,55403,1,0,0:0:0:0:
256,192,55565,1,8,0:0:0:0:
256,192,56052,1,8,0:0:0:0:
256,192,56214,1,8,0:0:0:0:
256,192,56376,1,0,0:0:0:0:
256,192,56538,1,8,0:0:0:0:
256,192,56863,1,8,0:0:0:0:
256,192,57025,1,0,0:0:0:0:
256,192,57106,1,0,0:0:0:0:
256,192,57349,1,8,0:0:0:0:
256,192,57511,1,0,0:0:0:0:
256,192,57674,1,12,0:0:0:0:
256,192,57998,1,0,0:0:0:0:
256,192,58160,1,8,0:0:0:0:
256,192,58647,1,8,0:0:0:0:
256,192,58809,1,0,0:0:0:0:
256,192,58971,1,0,0:0:0:0:
256,192,59133,1,8,0:0:0:0:
256,192,59457,1,8,0:0:0:0:
256,192,59620,1,0,0:0:0:0:
256,192,59944,1,8,0:0:0:0:
256,192,60106,1,0,0:0:0:0:
256,192,60268,1,4,0:0:0:0:
256,192,60592,1,0,0:0:0:0:
256,192,60755,1,8,0:0:0:0:
256,192,61079,1,0,0:0:0:0:
256,192,61403,1,8,0:0:0:0:
256,192,61565,1,0,0:0:0:0:
256,192,61728,1,8,0:0:0:0:
256,192,62052,1,8,0:0:0:0:
256,192,62214,1,0,0:0:0:0:
256,192,62538,1,8,0:0:0:0:
256,192,62863,1,8,0:0:0:0:
256,192,63187,1,8,0:0:0:0:
256,192,63349,1,0,0:0:0:0:
256,192,63674,1,8,0:0:0:0:
256,192,63836,1,8,0:0:0:0:
256,192,63998,1,0,0:0:0:0:
256,192,64322,1,0,0:0:0:0:
256,192,64484,1,12,0:0:0:0:
256,192,64809,1,0,0:0:0:0:
256,192,64971,1,12,0:0:0:0:
256,192,65295,1,0,0:0:0:0:
256,192,65457,1,12,0:0:0:0:
256,192,65782,1,4,0:0:0:0:
256,192,66106,1,0,0:0:0:0:
256,192,66430,1,8,0:0:0:0:
256,192,66755,1,12,0:0:0:0:
256,192,67079,1,8,0:0:0:0:
256,192,67241,1,0,0:0:0:0:
256,192,67565,1,0,0:0:0:0:
256,192,67890,1,0,0:0:0:0:
320,224,68052,1,8,0:0:0:0:
256,192,68133,1,8,0:0:0:0:
256,192,68214,1,8,0:0:0:0:
256,192,68376,1,8,0:0:0:0:
256,192,68538,1,0,0:0:0:0:
256,192,68863,1,0,0:0:0:0:
256,192,69025,1,0,0:0:0:0:
256,192,69187,1,8,0:0:0:0:
256,192,69511,1,8,0:0:0:0:
256,192,69998,1,0,0:0:0:0:
256,192,70160,1,8,0:0:0:0:
256,192,70322,1,0,0:0:0:0:
256,192,70484,1,8,0:0:0:0:
256,192,70646,1,0,0:0:0:0:
256,192,70809,1,0,0:0:0:0:
256,192,70971,1,8,0:0:0:0:
256,192,71295,1,8,0:0:0:0:
256,192,71457,1,0,0:0:0:0:
272,192,71619,1,0,0:0:0:0:
256,192,71782,1,8,0:0:0:0:
256,192,72106,1,0,0:0:0:0:
256,192,72430,1,0,0:0:0:0:
256,192,72592,1,8,0:0:0:0:
256,192,72917,1,0,0:0:0:0:
256,192,73241,1,8,0:0:0:0:
256,192,73565,1,8,0:0:0:0:
256,192,73728,1,0,0:0:0:0:
256,192,73890,2,0,L|352:192,3,70
256,192,74700,1,0,0:0:0:0:
256,192,75025,1,8,0:0:0:0:
192,176,75187,1,0,0:0:0:0:
256,192,75349,1,8,0:0:0:0:
256,192,75511,1,0,0:0:0:0:
256,192,75592,1,0,0:0:0:0:
256,192,75673,1,0,0:0:0:0:
256,192,75836,1,12,0:0:0:0:
256,192,76160,1,0,0:0:0:0:
256,192,76484,1,8,0:0:0:0:
256,192,76646,1,0,0:0:0:0:
256,192,76727,1,0,0:0:0:0:
256,192,76809,1,0,0:0:0:0:
256,192,76971,1,8,0:0:0:0:
256,192,77133,1,4,0:0:0:0:
256,192,77457,1,0,0:0:0:0:
256,192,77620,1,8,0:0:0:0:
256,192,77944,1,8,0:0:0:0:
256,192,78106,1,8,0:0:0:0:
256,192,78268,1,0,0:0:0:0:
256,192,78430,1,8,0:0:0:0:
256,192,78755,1,8,0:0:0:0:
256,192,78917,1,0,0:0:0:0:
256,192,79241,1,0,0:0:0:0:
256,192,79403,1,0,0:0:0:0:
256,192,79565,1,8,0:0:0:0:
256,192,79890,1,0,0:0:0:0:
256,192,80214,1,8,0:0:0:0:
256,192,80376,1,0,0:0:0:0:
256,192,80457,1,0,0:0:0:0:
256,192,80538,1,0,0:0:0:0:
256,192,80700,1,8,0:0:0:0:
256,192,80863,1,0,0:0:0:0:
256,192,81025,1,8,0:0:0:0:
256,192,81187,1,0,0:0:0:0:
256,192,81349,1,0,0:0:0:0:
256,192,81674,1,8,0:0:0:0:
256,192,81998,1,0,0:0:0:0:
256,192,82322,1,4,0:0:0:0:
256,192,82647,1,0,0:0:0:0:
256,192,82809,1,8,0:0:0:0:
256,192,83133,1,8,0:0:0:0:
256,192,83295,1,0,0:0:0:0:
256,192,83457,1,0,0:0:0:0:
256,192,83620,1,8,0:0:0:0:
256,192,83944,1,0,0:0:0:0:
256,192,84106,1,8,0:0:0:0:
256,192,84430,1,8,0:0:0:0:
256,192,84592,1,0,0:0:0:0:
256,192,84755,1,0,0:0:0:0:
256,192,84917,1,12,0:0:0:0:
256,192,85241,1,0,0:0:0:0:
256,192,85403,1,8,0:0:0:0:
256,192,85728,1,8,0:0:0:0:
256,192,85890,1,0,0:0:0:0:
256,192,86052,1,8,0:0:0:0:
256,192,86214,1,0,0:0:0:0:
256,192,86538,1,0,0:0:0:0:
256,192,86701,1,8,0:0:0:0:
256,192,86782,1,8,0:0:0:0:
256,192,86863,1,8,0:0:0:0:
256,192,87025,1,0,0:0:0:0:
256,192,87187,1,8,0:0:0:0:
256,192,87349,1,8,0:0:0:0:
256,192,87511,1,12,0:0:0:0:
256,192,87836,1,8,0:0:0:0:
256,192,87998,1,0,0:0:0:0:
256,192,88160,1,4,0:0:0:0:
256,192,88484,1,0,0:0:0:0:
256,192,88647,1,0,0:0:0:0:
256,192,88809,1,12,0:0:0:0:
256,192,89133,1,12,0:0:0:0:
256,192,89295,1,4,0:0:0:0:
256,192,89457,1,4,0:0:0:0:
256,192,89782,1,12,0:0:0:0:
256,192,90106,1,4,0:0:0:0:
256,192,90268,12,0,90917,0:0:0:0:
