osu file format v14

[General]
AudioFilename: audio.mp3
AudioLeadIn: 0
PreviewTime: 66755
Countdown: 0
SampleSet: Normal
StackLeniency: 0.7
Mode: 1
LetterboxInBreaks: 0
WidescreenStoryboard: 0

[Editor]
Bookmarks: 42268
DistanceSpacing: 1.1
BeatDivisor: 4
GridSize: 16
TimelineZoom: 2.799999

[Metadata]
Title:COSMIC LOVE
TitleUnicode:COSMIC LOVE
Artist:Mizuki Nana
ArtistUnicode:水樹 奈々
Creator:IControl
Version:Kantan
Source:ロザリオとバンパイア
Tags:rosario + vampire opening Mizore Moka Kurumu
BeatmapID:910551
BeatmapSetID:420908

[Difficulty]
HPDrainRate:7
CircleSize:5
OverallDifficulty:3
ApproachRate:5
SliderMultiplier:1.4
SliderTickRate:1

[Events]
//Background and Video events
0,0,"attractive_rosario_to_vampire_group_converted.jpg",0,80
//Break Periods
//Storyboard Layer 0 (Background)
//Storyboard Layer 1 (Fail)
//Storyboard Layer 2 (Pass)
//Storyboard Layer 3 (Foreground)
//Storyboard Sound Samples

[TimingPoints]
755,324.324324324324,4,1,0,50,1,0
21349,-100,4,1,0,70,0,0
66755,-100,4,1,0,80,0,1
87511,-100,4,1,0,80,0,0

[HitObjects]
256,192,755,5,4,0:0:0:0:
256,192,3187,1,12,0:0:0:0:
256,192,5782,1,4,0:0:0:0:
256,192,7079,1,4,0:0:0:0:
256,192,8376,1,12,0:0:0:0:
256,192,9998,1,0,0:0:0:0:
256,192,10971,1,8,0:0:0:0:
256,192,11457,1,0,0:0:0:0:
256,192,12268,1,8,0:0:0:0:
256,192,13079,1,0,0:0:0:0:
256,192,13565,1,12,0:0:0:0:
256,192,14052,1,0,0:0:0:0:
256,192,14863,1,8,0:0:0:0:
256,192,15673,1,0,0:0:0:0:
256,192,16160,1,4,0:0:0:0:
256,192,17457,1,8,0:0:0:0:
256,192,18917,1,4,0:0:0:0:
256,192,19890,1,0,0:0:0:0:
256,192,20376,1,12,0:0:0:0:
256,192,21349,5,4,0:0:0:0:
256,192,21836,1,0,0:0:0:0:
256,192,22646,1,8,0:0:0:0:
256,192,23133,1,8,0:0:0:0:
256,192,23944,1,8,0:0:0:0:
256,192,24430,1,0,0:0:0:0:
256,192,25241,1,8,0:0:0:0:
256,192,25727,1,0,0:0:0:0:
256,192,26376,1,0,0:0:0:0:
256,192,26701,1,0,0:0:0:0:
256,192,27998,1,8,0:0:0:0:
256,192,28646,1,0,0:0:0:0:
256,192,29295,1,8,0:0:0:0:
256,192,29944,1,0,0:0:0:0:
256,192,30592,1,0,0:0:0:0:
256,192,31728,1,12,0:0:0:0:
256,192,32214,1,0,0:0:0:0:
256,192,32863,1,0,0:0:0:0:
256,192,33674,1,0,0:0:0:0:
256,192,34484,1,8,0:0:0:0:
256,192,35133,1,0,0:0:0:0:
256,192,35620,1,8,0:0:0:0:
256,192,36430,1,0,0:0:0:0:
256,192,37079,1,0,0:0:0:0:
256,192,37403,1,4,0:0:0:0:
256,192,38376,1,0,0:0:0:0:
256,192,39025,1,0,0:0:0:0:
256,192,39673,12,0,41943,0:0:0:0:
256,192,42268,12,0,44538,0:0:0:0:
256,192,44863,5,0,0:0:0:0:
256,192,45187,1,8,0:0:0:0:
256,192,45836,5,0,0:0:0:0:
256,192,46160,1,0,0:0:0:0:
256,192,46646,1,0,0:0:0:0:
256,192,47295,1,12,0:0:0:0:
256,192,48754,1,8,0:0:0:0:
256,192,49079,1,8,0:0:0:0:
256,192,49403,1,8,0:0:0:0:
256,192,49890,1,4,0:0:0:0:
256,192,51349,1,8,0:0:0:0:
256,192,51836,1,12,0:0:0:0:
256,192,52647,1,4,0:0:0:0:
256,192,53944,1,0,0:0:0:0:
256,192,54430,1,0,0:0:0:0:
256,192,55079,1,12,0:0:0:0:
256,192,56538,1,0,0:0:0:0:
256,192,57025,1,0,0:0:0:0:
256,192,57674,1,12,0:0:0:0:
256,192,59133,1,0,0:0:0:0:
256,192,59619,1,8,0:0:0:0:
256,192,60268,1,4,0:0:0:0:
256,192,61728,1,0,0:0:0:0:
256,192,62214,1,0,0:0:0:0:
256,192,62863,1,8,0:0:0:0:
256,192,63349,1,8,0:0:0:0:
256,192,64484,5,12,0:0:0:0:
256,192,64971,1,12,0:0:0:0:
256,192,65457,1,12,0:0:0:0:
256,192,66268,1,8,0:0:0:0:
256,192,66754,1,12,0:0:0:0:
256,192,67241,1,0,0:0:0:0:
320,224,68052,1,8,0:0:0:0:
256,192,68538,1,0,0:0:0:0:
256,192,69511,1,0,0:0:0:0:
256,192,70160,1,8,0:0:0:0:
256,192,70809,1,0,0:0:0:0:
256,192,72106,1,4,0:0:0:0:
256,192,72754,1,8,0:0:0:0:
256,192,73403,1,0,0:0:0:0:
256,192,74052,1,8,0:0:0:0:
256,192,74700,1,0,0:0:0:0:
256,192,75836,1,12,0:0:0:0:
256,192,77133,1,4,0:0:0:0:
256,192,77620,1,0,0:0:0:0:
256,192,78430,1,8,0:0:0:0:
256,192,78917,1,0,0:0:0:0:
256,192,79890,1,8,0:0:0:0:
256,192,80538,1,0,0:0:0:0:
320,240,81187,1,0,0:0:0:0:
256,192,81674,1,8,0:0:0:0:
256,192,81998,1,8,0:0:0:0:
256,192,82322,1,4,0:0:0:0:
256,192,82484,2,0,L|336:192,5,70
256,192,83619,1,0,0:0:0:0:
256,192,84106,1,0,0:0:0:0:
256,192,84430,1,0,0:0:0:0:
256,192,84917,2,0,L|336:192,8,70
256,192,86376,12,0,87511,0:0:0:0:
256,192,88160,5,0,0:0:0:0:
256,192,88809,1,12,0:0:0:0:
256,192,89457,1,4,0:0:0:0:
256,192,90106,1,4,0:0:0:0:
