osu file format v14

[General]
AudioFilename: audio.mp3
AudioLeadIn: 0
PreviewTime: 59962
Countdown: 0
SampleSet: Normal
StackLeniency: 0.7
Mode: 1
LetterboxInBreaks: 0
WidescreenStoryboard: 1

[Editor]
Bookmarks: 73053,78871,202508
DistanceSpacing: 1.1
BeatDivisor: 6
GridSize: 32
TimelineZoom: 1.8

[Metadata]
Title:Girlish Lover
TitleUnicode:Girlish Lover
Artist:Mizukara o Enshutsu Suru Otome no Kai
ArtistUnicode:自らを演出する乙女の会
Creator:yuki_momoiro722
Version:Muzukashii
Source:俺の彼女と幼なじみが修羅場すぎる
Tags:taiko anime japanese opening op oreshura Ore no Kanojo to Osananajimi ga Shuraba Sugiru 春咲千和 harusaki chiwa 赤﨑千夏 akasaki chinatsu 夏川真凉 natsukawa masuzu 田村ゆかり tamura yukari 秋篠姫香 akishino himeka 金元寿子 kanemoto hisako 冬海愛衣 fuyuumi 茅野愛衣 kayano ai genjuro
BeatmapID:2156790
BeatmapSetID:1024653

[Difficulty]
HPDrainRate:5.5
CircleSize:2
OverallDifficulty:5
ApproachRate:9
SliderMultiplier:1.4
SliderTickRate:1

[Events]
//Background and Video events
0,0,"bg.jpg",0,50
//Break Periods
2,90504,91544
//Storyboard Layer 0 (Background)
//Storyboard Layer 1 (Fail)
//Storyboard Layer 2 (Pass)
//Storyboard Layer 3 (Foreground)
//Storyboard Layer 4 (Overlay)
//Storyboard Sound Samples

[TimingPoints]
-4037,363.636363636364,4,1,0,90,1,0
4690,-100,4,1,0,90,0,1
14690,-100,4,1,0,90,0,0
16326,-100,4,1,0,90,0,0
22144,-100,4,1,0,90,0,0
44871,-100,4,1,0,90,0,0
45053,-105.263157894737,4,1,0,90,0,0
45417,-111.111111111111,4,1,0,75,0,0
54144,-100,4,1,0,85,0,0
61417,-100,4,1,0,90,0,1
72690,-100,4,1,0,90,0,0
73053,-100,4,1,0,90,0,1
83053,-100,4,1,0,90,0,0
84690,-100,4,1,0,90,0,0
90508,-100,4,1,0,90,0,0
113235,-100,4,1,0,90,0,0
113417,-105.263157894737,4,1,0,90,0,0
113780,-111.111111111111,4,1,0,90,0,0
122508,-100,4,1,0,90,0,0
129781,-100,4,1,0,90,0,1
141053,-100,4,1,0,90,0,0
141417,-100,4,1,0,90,0,1
151417,-100,4,1,0,90,0,0
153053,-100,4,1,0,90,0,0
167599,-111.111111111111,4,1,0,75,0,0
176326,-100,4,1,0,85,0,0
185053,-100,4,1,0,90,0,0
190872,-100,4,1,0,90,0,1
196326,-100,4,1,0,90,0,0
196690,-100,4,1,0,90,0,1
206690,-100,4,1,0,90,0,0
208326,-100,4,1,0,90,0,0
222871,-100,4,1,0,90,0,0
223599,-100,4,1,0,83,0,0
224326,-100,4,1,0,76,0,0
225053,-100,4,1,0,69,0,0
225780,-100,4,1,0,62,0,0
226508,-100,4,1,0,55,0,0
227235,-100,4,1,0,48,0,0
227962,-100,4,1,0,41,0,0
228690,-100,4,1,0,34,0,0
229417,-100,4,1,0,27,0,0
230144,-100,4,1,0,20,0,0

[HitObjects]
250,180,1053,5,8,0:0:0:0:
250,180,1235,5,0,0:0:0:0:
250,180,1417,5,8,0:0:0:0:
256,192,1781,5,12,0:0:0:0:
256,192,1963,5,0,0:0:0:0:
256,192,2144,5,0,0:0:0:0:
256,192,2326,5,12,0:0:0:0:
256,192,2690,5,0,0:0:0:0:
256,192,2872,5,12,0:0:0:0:
256,192,3053,5,8,0:0:0:0:
256,192,3235,5,4,0:0:0:0:
256,192,4144,5,8,0:0:0:0:
256,192,4235,5,8,0:0:0:0:
256,192,4326,5,8,0:0:0:0:
256,192,4690,5,4,0:0:0:0:
256,192,5053,5,8,0:0:0:0:
256,192,5235,5,0,0:0:0:0:
256,192,5417,5,0,0:0:0:0:
256,192,5599,5,0,0:0:0:0:
256,192,5781,5,8,0:0:0:0:
256,192,5963,5,8,0:0:0:0:
256,192,6326,5,0,0:0:0:0:
256,192,6508,5,8,0:0:0:0:
256,192,6690,5,8,0:0:0:0:
256,192,6872,5,0,0:0:0:0:
256,192,7053,5,0,0:0:0:0:
256,192,7235,5,8,0:0:0:0:
256,192,7599,5,8,0:0:0:0:
256,192,7963,5,8,0:0:0:0:
256,192,8144,5,8,0:0:0:0:
256,192,8326,5,0,0:0:0:0:
256,192,8508,5,0,0:0:0:0:
256,192,8690,5,8,0:0:0:0:
256,192,9053,5,8,0:0:0:0:
256,192,9417,5,8,0:0:0:0:
256,192,9599,5,0,0:0:0:0:
256,192,9781,5,0,0:0:0:0:
256,192,9963,5,8,0:0:0:0:
256,192,10144,5,8,0:0:0:0:
256,192,10508,5,12,0:0:0:0:
256,192,11235,5,0,0:0:0:0:
256,192,11417,5,0,0:0:0:0:
256,192,11599,5,8,0:0:0:0:
256,192,11781,5,0,0:0:0:0:
256,192,11963,5,8,0:0:0:0:
256,192,12326,5,8,0:0:0:0:
256,192,12508,5,8,0:0:0:0:
256,192,12690,5,0,0:0:0:0:
256,192,12872,5,0,0:0:0:0:
256,192,13053,5,8,0:0:0:0:
256,192,13417,5,8,0:0:0:0:
256,192,13599,5,8,0:0:0:0:
256,192,13690,5,8,0:0:0:0:
256,192,13781,5,8,0:0:0:0:
256,192,13963,5,0,0:0:0:0:
256,192,14144,5,8,0:0:0:0:
256,192,14508,5,8,0:0:0:0:
256,192,14690,5,4,0:0:0:0:
256,192,15235,5,8,0:0:0:0:
256,192,15599,5,8,0:0:0:0:
256,192,15781,5,8,0:0:0:0:
256,192,15872,5,8,0:0:0:0:
256,192,15963,5,8,0:0:0:0:
256,192,16144,5,8,0:0:0:0:
256,192,16326,5,4,0:0:0:0:
256,192,16690,5,8,0:0:0:0:
256,192,16872,5,0,0:0:0:0:
256,192,17053,5,0,0:0:0:0:
256,192,17235,5,0,0:0:0:0:
256,192,17417,5,8,0:0:0:0:
256,192,17781,5,0,0:0:0:0:
256,192,17963,5,0,0:0:0:0:
256,192,18144,5,8,0:0:0:0:
256,192,18326,5,8,0:0:0:0:
256,192,18508,5,0,0:0:0:0:
256,192,18690,5,8,0:0:0:0:
256,192,18872,5,8,0:0:0:0:
256,192,19235,5,0,0:0:0:0:
256,192,19599,5,8,0:0:0:0:
256,192,19781,5,0,0:0:0:0:
256,192,19963,5,0,0:0:0:0:
256,192,20144,5,8,0:0:0:0:
256,192,20326,5,8,0:0:0:0:
256,192,20508,5,0,0:0:0:0:
256,192,20690,5,8,0:0:0:0:
256,192,20872,5,8,0:0:0:0:
256,192,20963,5,8,0:0:0:0:
256,192,21053,5,8,0:0:0:0:
256,192,21417,5,12,0:0:0:0:
256,192,21599,5,12,0:0:0:0:
256,192,21781,5,12,0:0:0:0:
256,192,22144,5,4,0:0:0:0:
256,192,22508,5,8,0:0:0:0:
256,192,22690,5,0,0:0:0:0:
256,192,23053,5,0,0:0:0:0:
256,192,23235,5,8,0:0:0:0:
256,192,23417,5,0,0:0:0:0:
256,192,23963,5,8,0:0:0:0:
256,192,24144,5,8,0:0:0:0:
256,192,24326,5,0,0:0:0:0:
256,192,24508,5,0,0:0:0:0:
256,192,24690,5,8,0:0:0:0:
256,192,25053,5,8,0:0:0:0:
256,192,25417,5,8,0:0:0:0:
256,192,25599,5,0,0:0:0:0:
256,192,25963,5,0,0:0:0:0:
256,192,26144,5,8,0:0:0:0:
256,192,26508,5,8,0:0:0:0:
256,192,26872,5,0,0:0:0:0:
256,192,27053,5,8,0:0:0:0:
256,192,27235,5,0,0:0:0:0:
256,192,27417,5,0,0:0:0:0:
256,192,27599,5,8,0:0:0:0:
256,192,27963,5,0,0:0:0:0:
256,192,28690,5,8,0:0:0:0:
256,192,28872,5,0,0:0:0:0:
256,192,29053,5,8,0:0:0:0:
256,192,29417,5,8,0:0:0:0:
256,192,29599,5,0,0:0:0:0:
256,192,29781,5,8,0:0:0:0:
256,192,29963,5,8,0:0:0:0:
256,192,30508,5,8,0:0:0:0:
256,192,30690,5,0,0:0:0:0:
256,192,30872,5,8,0:0:0:0:
256,192,31235,5,8,0:0:0:0:
256,192,31417,5,8,0:0:0:0:
256,192,31599,5,0,0:0:0:0:
256,192,31690,5,0,0:0:0:0:
256,192,31781,5,0,0:0:0:0:
256,192,31963,5,8,0:0:0:0:
256,192,32144,5,12,0:0:0:0:
256,192,32690,5,8,0:0:0:0:
256,192,32872,5,0,0:0:0:0:
256,192,33053,5,8,0:0:0:0:
256,192,33144,5,8,0:0:0:0:
256,192,33235,5,8,0:0:0:0:
256,192,33417,5,8,0:0:0:0:
256,192,33599,5,0,0:0:0:0:
256,192,33781,5,4,0:0:0:0:
256,192,34144,5,8,0:0:0:0:
256,192,34326,5,0,0:0:0:0:
256,192,34508,5,0,0:0:0:0:
256,192,34690,5,0,0:0:0:0:
256,192,34872,5,8,0:0:0:0:
256,192,35235,5,0,0:0:0:0:
256,192,35599,5,8,0:0:0:0:
256,192,35781,5,0,0:0:0:0:
256,192,35872,5,0,0:0:0:0:
256,192,35963,5,0,0:0:0:0:
256,192,36144,5,0,0:0:0:0:
256,192,36326,5,8,0:0:0:0:
256,192,36690,5,0,0:0:0:0:
256,192,37053,5,8,0:0:0:0:
256,192,37235,5,8,0:0:0:0:
256,192,37417,5,0,0:0:0:0:
256,192,37599,5,8,0:0:0:0:
256,192,37781,5,8,0:0:0:0:
256,192,38144,5,0,0:0:0:0:
256,192,38508,5,8,0:0:0:0:
256,192,38690,5,0,0:0:0:0:
256,192,39053,5,0,0:0:0:0:
256,192,39235,5,8,0:0:0:0:
256,192,39417,5,0,0:0:0:0:
256,192,39508,5,0,0:0:0:0:
256,192,39599,5,0,0:0:0:0:
256,192,39963,5,8,0:0:0:0:
256,192,40326,5,8,0:0:0:0:
256,192,40508,5,0,0:0:0:0:
256,192,40690,5,8,0:0:0:0:
256,192,41053,5,8,0:0:0:0:
256,192,41417,5,0,0:0:0:0:
256,192,41599,5,8,0:0:0:0:
256,192,42144,5,8,0:0:0:0:
256,192,42508,5,0,0:0:0:0:
256,192,42872,5,8,0:0:0:0:
256,192,43053,5,0,0:0:0:0:
256,192,43235,5,8,0:0:0:0:
256,192,43599,5,8,0:0:0:0:
256,192,43781,5,4,0:0:0:0:
256,192,44326,5,0,0:0:0:0:
256,192,44508,5,12,0:0:0:0:
256,192,44872,5,0,0:0:0:0:
256,192,45053,5,8,0:0:0:0:
256,192,45417,5,12,0:0:0:0:
256,192,45781,5,0,0:0:0:0:
256,192,46144,5,8,0:0:0:0:
256,192,46690,5,8,0:0:0:0:
256,192,47053,5,0,0:0:0:0:
256,192,47417,5,8,0:0:0:0:
256,192,47599,5,0,0:0:0:0:
256,192,48144,5,0,0:0:0:0:
256,192,48326,5,8,0:0:0:0:
256,192,48690,5,0,0:0:0:0:
256,192,48872,5,0,0:0:0:0:
256,192,49053,5,8,0:0:0:0:
256,192,49417,5,8,0:0:0:0:
256,192,49599,5,0,0:0:0:0:
256,192,49963,5,0,0:0:0:0:
256,192,50326,5,0,0:0:0:0:
256,192,50508,5,8,0:0:0:0:
256,192,50690,5,8,0:0:0:0:
256,192,50872,5,8,0:0:0:0:
256,192,51053,5,0,0:0:0:0:
256,192,51235,5,12,0:0:0:0:
256,192,51781,5,0,0:0:0:0:
256,192,51963,5,8,0:0:0:0:
256,192,52326,5,8,0:0:0:0:
256,192,52508,5,8,0:0:0:0:
256,192,52872,5,0,0:0:0:0:
256,192,53235,5,8,0:0:0:0:
256,192,53417,5,0,0:0:0:0:
256,192,53781,5,0,0:0:0:0:
256,192,53872,5,0,0:0:0:0:
256,192,53963,5,0,0:0:0:0:
256,192,54144,5,12,0:0:0:0:
256,192,54508,5,8,0:0:0:0:
256,192,54872,5,0,0:0:0:0:
256,192,55053,5,0,0:0:0:0:
256,192,55235,5,8,0:0:0:0:
256,192,55417,5,0,0:0:0:0:
256,192,55963,5,8,0:0:0:0:
256,192,56144,5,0,0:0:0:0:
256,192,56235,5,0,0:0:0:0:
256,192,56326,5,0,0:0:0:0:
256,192,56508,5,0,0:0:0:0:
256,192,56690,5,8,0:0:0:0:
256,192,56872,5,0,0:0:0:0:
256,192,57053,5,8,0:0:0:0:
256,192,57417,5,8,0:0:0:0:
256,192,57599,5,0,0:0:0:0:
256,192,57781,5,8,0:0:0:0:
256,192,57963,5,0,0:0:0:0:
256,192,58144,5,8,0:0:0:0:
256,192,58508,5,8,0:0:0:0:
256,192,58690,5,0,0:0:0:0:
256,192,58872,5,0,0:0:0:0:
256,192,59053,5,8,0:0:0:0:
256,192,59417,5,8,0:0:0:0:
256,192,59599,5,0,0:0:0:0:
256,192,59963,5,12,0:0:0:0:
256,192,60872,5,8,0:0:0:0:
256,192,60963,5,8,0:0:0:0:
256,192,61053,5,8,0:0:0:0:
256,192,61417,5,4,0:0:0:0:
256,192,61781,5,8,0:0:0:0:
256,192,61963,5,0,0:0:0:0:
256,192,62144,5,0,0:0:0:0:
256,192,62508,5,8,0:0:0:0:
256,192,62690,5,8,0:0:0:0:
256,192,63053,5,0,0:0:0:0:
256,192,63235,5,8,0:0:0:0:
256,192,63417,5,8,0:0:0:0:
256,192,63599,5,0,0:0:0:0:
256,192,63781,5,0,0:0:0:0:
256,192,63963,5,8,0:0:0:0:
256,192,64326,5,8,0:0:0:0:
256,192,64690,5,8,0:0:0:0:
256,192,64872,5,8,0:0:0:0:
256,192,65053,5,0,0:0:0:0:
256,192,65144,5,0,0:0:0:0:
256,192,65235,5,0,0:0:0:0:
256,192,65417,5,8,0:0:0:0:
256,192,65599,5,0,0:0:0:0:
256,192,65781,5,8,0:0:0:0:
256,192,66144,5,8,0:0:0:0:
256,192,66326,5,0,0:0:0:0:
256,192,66417,5,0,0:0:0:0:
256,192,66508,5,0,0:0:0:0:
256,192,66690,5,0,0:0:0:0:
256,192,66872,5,8,0:0:0:0:
256,192,67053,5,0,0:0:0:0:
256,192,67235,5,12,0:0:0:0:
256,192,67599,5,8,0:0:0:0:
256,192,67963,5,0,0:0:0:0:
256,192,68144,5,0,0:0:0:0:
256,192,68326,5,8,0:0:0:0:
256,192,68690,5,0,0:0:0:0:
256,192,69053,5,8,0:0:0:0:
256,192,69417,5,0,0:0:0:0:
256,192,69599,5,0,0:0:0:0:
256,192,69781,5,8,0:0:0:0:
256,192,70144,5,8,0:0:0:0:
256,192,70326,5,8,0:0:0:0:
256,192,70417,5,8,0:0:0:0:
256,192,70508,5,8,0:0:0:0:
256,192,70872,5,8,0:0:0:0:
256,192,71053,5,0,0:0:0:0:
256,192,71235,5,0,0:0:0:0:
256,192,71417,5,12,0:0:0:0:
256,192,71781,5,0,0:0:0:0:
256,192,71963,5,0,0:0:0:0:
256,192,72144,5,12,0:0:0:0:
256,192,72508,5,0,0:0:0:0:
256,192,72690,5,8,0:0:0:0:
256,192,72781,5,8,0:0:0:0:
256,192,72872,5,8,0:0:0:0:
256,192,73053,5,4,0:0:0:0:
256,192,73417,5,8,0:0:0:0:
256,192,73599,5,0,0:0:0:0:
256,192,73690,5,0,0:0:0:0:
256,192,73781,5,0,0:0:0:0:
256,192,73963,5,0,0:0:0:0:
256,192,74144,5,8,0:0:0:0:
256,192,74326,5,8,0:0:0:0:
256,192,74690,5,0,0:0:0:0:
256,192,74872,5,8,0:0:0:0:
256,192,75053,5,8,0:0:0:0:
256,192,75235,5,0,0:0:0:0:
256,192,75417,5,0,0:0:0:0:
256,192,75599,5,8,0:0:0:0:
256,192,75963,5,0,0:0:0:0:
256,192,76326,5,8,0:0:0:0:
256,192,76690,5,0,0:0:0:0:
256,192,76872,5,0,0:0:0:0:
256,192,77053,5,8,0:0:0:0:
256,192,77235,5,0,0:0:0:0:
256,192,77417,5,8,0:0:0:0:
256,192,77781,5,8,0:0:0:0:
256,192,77963,5,0,0:0:0:0:
256,192,78053,5,0,0:0:0:0:
256,192,78144,5,0,0:0:0:0:
256,192,78326,5,8,0:0:0:0:
256,192,78508,5,8,0:0:0:0:
256,192,78872,5,12,0:0:0:0:
256,192,79599,5,8,0:0:0:0:
256,192,79781,5,0,0:0:0:0:
256,192,79963,5,8,0:0:0:0:
256,192,80144,5,0,0:0:0:0:
256,192,80326,5,8,0:0:0:0:
256,192,80690,5,8,0:0:0:0:
256,192,80872,5,8,0:0:0:0:
256,192,81053,5,0,0:0:0:0:
256,192,81235,5,0,0:0:0:0:
256,192,81417,5,8,0:0:0:0:
256,192,81781,5,0,0:0:0:0:
256,192,81963,5,8,0:0:0:0:
256,192,82053,5,8,0:0:0:0:
256,192,82144,5,8,0:0:0:0:
256,192,82326,5,0,0:0:0:0:
256,192,82508,5,8,0:0:0:0:
256,192,82872,5,8,0:0:0:0:
256,192,83053,5,4,0:0:0:0:
256,192,83599,5,8,0:0:0:0:
256,192,83963,5,8,0:0:0:0:
256,192,84053,5,8,0:0:0:0:
256,192,84144,5,8,0:0:0:0:
256,192,84326,5,0,0:0:0:0:
256,192,84508,5,8,0:0:0:0:
256,192,84690,5,4,0:0:0:0:
256,192,85053,5,8,0:0:0:0:
256,192,85235,5,0,0:0:0:0:
256,192,85417,5,0,0:0:0:0:
256,192,85599,5,8,0:0:0:0:
256,192,85781,5,8,0:0:0:0:
256,192,86144,5,0,0:0:0:0:
256,192,86326,5,0,0:0:0:0:
256,192,86508,5,8,0:0:0:0:
256,192,86690,5,8,0:0:0:0:
256,192,86872,5,0,0:0:0:0:
256,192,87053,5,8,0:0:0:0:
256,192,87235,5,8,0:0:0:0:
256,192,87599,5,0,0:0:0:0:
256,192,87963,5,8,0:0:0:0:
256,192,88144,5,0,0:0:0:0:
256,192,88326,5,0,0:0:0:0:
256,192,88508,5,8,0:0:0:0:
256,192,88690,5,8,0:0:0:0:
256,192,88872,5,0,0:0:0:0:
256,192,89053,5,8,0:0:0:0:
256,192,89235,5,8,0:0:0:0:
256,192,89326,5,8,0:0:0:0:
256,192,89417,5,8,0:0:0:0:
256,192,89781,5,12,0:0:0:0:
256,192,89963,5,12,0:0:0:0:
256,192,90144,5,12,0:0:0:0:
256,192,92144,5,0,0:0:0:0:
256,192,92326,5,0,0:0:0:0:
256,192,92508,5,12,0:0:0:0:
256,192,92872,5,0,0:0:0:0:
256,192,93053,5,8,0:0:0:0:
256,192,93144,5,8,0:0:0:0:
256,192,93235,5,8,0:0:0:0:
256,192,93417,5,0,0:0:0:0:
256,192,93781,5,8,0:0:0:0:
256,192,94144,5,0,0:0:0:0:
256,192,94326,5,0,0:0:0:0:
256,192,94508,5,8,0:0:0:0:
256,192,94690,5,8,0:0:0:0:
256,192,95053,5,0,0:0:0:0:
256,192,95235,5,8,0:0:0:0:
256,192,95599,5,0,0:0:0:0:
256,192,95781,5,0,0:0:0:0:
256,192,95963,5,8,0:0:0:0:
256,192,96326,5,0,0:0:0:0:
256,192,97053,5,0,0:0:0:0:
256,192,97235,5,0,0:0:0:0:
256,192,97417,5,8,0:0:0:0:
256,192,97781,5,0,0:0:0:0:
256,192,98144,5,0,0:0:0:0:
256,192,98326,5,8,0:0:0:0:
256,192,98872,5,0,0:0:0:0:
256,192,99235,5,8,0:0:0:0:
256,192,99599,5,8,0:0:0:0:
256,192,99963,5,0,0:0:0:0:
256,192,100144,5,0,0:0:0:0:
256,192,100326,5,8,0:0:0:0:
256,192,100508,5,12,0:0:0:0:
256,192,100872,5,0,0:0:0:0:
256,192,101053,5,0,0:0:0:0:
256,192,101235,5,8,0:0:0:0:
256,192,101599,5,8,0:0:0:0:
256,192,101690,5,8,0:0:0:0:
256,192,101781,5,8,0:0:0:0:
256,192,101963,5,8,0:0:0:0:
256,192,102144,5,4,0:0:0:0:
256,192,102508,5,8,0:0:0:0:
256,192,102690,5,8,0:0:0:0:
256,192,102872,5,0,0:0:0:0:
256,192,103053,5,0,0:0:0:0:
256,192,103235,5,8,0:0:0:0:
256,192,103599,5,0,0:0:0:0:
256,192,103963,5,8,0:0:0:0:
256,192,104144,5,0,0:0:0:0:
256,192,104235,5,0,0:0:0:0:
256,192,104326,5,0,0:0:0:0:
256,192,104508,5,0,0:0:0:0:
256,192,104690,5,8,0:0:0:0:
256,192,105053,5,0,0:0:0:0:
256,192,105417,5,8,0:0:0:0:
256,192,105599,5,0,0:0:0:0:
256,192,106144,5,8,0:0:0:0:
256,192,106508,5,0,0:0:0:0:
256,192,106872,5,8,0:0:0:0:
256,192,107053,5,0,0:0:0:0:
256,192,107417,5,0,0:0:0:0:
256,192,107599,5,8,0:0:0:0:
256,192,107781,5,0,0:0:0:0:
256,192,107872,5,0,0:0:0:0:
256,192,107963,5,0,0:0:0:0:
256,192,108326,5,8,0:0:0:0:
256,192,108690,5,8,0:0:0:0:
256,192,108872,5,0,0:0:0:0:
256,192,109053,5,8,0:0:0:0:
256,192,109417,5,8,0:0:0:0:
256,192,109781,5,0,0:0:0:0:
256,192,109963,5,8,0:0:0:0:
256,192,110508,5,8,0:0:0:0:
256,192,110872,5,0,0:0:0:0:
256,192,111235,5,8,0:0:0:0:
256,192,111417,5,0,0:0:0:0:
256,192,111599,5,8,0:0:0:0:
256,192,111963,5,8,0:0:0:0:
256,192,112144,5,4,0:0:0:0:
256,192,112508,5,0,0:0:0:0:
256,192,112690,5,0,0:0:0:0:
256,192,112872,5,12,0:0:0:0:
256,192,113235,5,0,0:0:0:0:
256,192,113417,5,8,0:0:0:0:
256,192,113781,5,12,0:0:0:0:
256,192,114144,5,0,0:0:0:0:
256,192,114508,5,8,0:0:0:0:
256,192,115053,5,0,0:0:0:0:
256,192,115417,5,0,0:0:0:0:
256,192,115781,5,8,0:0:0:0:
256,192,115963,5,0,0:0:0:0:
256,192,116326,5,8,0:0:0:0:
256,192,116508,5,0,0:0:0:0:
256,192,116690,5,8,0:0:0:0:
256,192,117053,5,0,0:0:0:0:
256,192,117235,5,0,0:0:0:0:
256,192,117417,5,8,0:0:0:0:
256,192,117781,5,8,0:0:0:0:
256,192,117963,5,0,0:0:0:0:
256,192,118326,5,0,0:0:0:0:
256,192,118690,5,0,0:0:0:0:
256,192,118872,5,8,0:0:0:0:
256,192,119053,5,0,0:0:0:0:
256,192,119235,5,8,0:0:0:0:
256,192,119599,5,12,0:0:0:0:
256,192,120144,5,0,0:0:0:0:
256,192,120326,5,8,0:0:0:0:
256,192,120690,5,8,0:0:0:0:
256,192,120872,5,8,0:0:0:0:
256,192,121235,5,0,0:0:0:0:
256,192,121599,5,8,0:0:0:0:
256,192,121781,5,0,0:0:0:0:
256,192,122144,5,8,0:0:0:0:
256,192,122235,5,8,0:0:0:0:
256,192,122326,5,8,0:0:0:0:
256,192,122508,5,4,0:0:0:0:
256,192,122872,5,8,0:0:0:0:
256,192,123235,5,0,0:0:0:0:
256,192,123417,5,0,0:0:0:0:
256,192,123599,5,8,0:0:0:0:
256,192,123781,5,0,0:0:0:0:
256,192,124326,5,8,0:0:0:0:
256,192,124508,5,0,0:0:0:0:
256,192,124599,5,0,0:0:0:0:
256,192,124690,5,0,0:0:0:0:
256,192,124872,5,0,0:0:0:0:
256,192,125053,5,8,0:0:0:0:
256,192,125235,5,0,0:0:0:0:
256,192,125417,5,8,0:0:0:0:
256,192,125781,5,8,0:0:0:0:
256,192,125963,5,0,0:0:0:0:
256,192,126144,5,8,0:0:0:0:
256,192,126326,5,0,0:0:0:0:
256,192,126508,5,8,0:0:0:0:
256,192,126872,5,8,0:0:0:0:
256,192,127053,5,0,0:0:0:0:
256,192,127235,5,0,0:0:0:0:
256,192,127417,5,8,0:0:0:0:
256,192,127781,5,8,0:0:0:0:
256,192,127963,5,0,0:0:0:0:
256,192,128326,5,12,0:0:0:0:
256,192,129053,5,8,0:0:0:0:
256,192,129235,5,0,0:0:0:0:
256,192,129326,5,0,0:0:0:0:
256,192,129417,5,0,0:0:0:0:
256,192,129781,5,4,0:0:0:0:
256,192,130144,5,8,0:0:0:0:
256,192,130326,5,0,0:0:0:0:
256,192,130508,5,0,0:0:0:0:
256,192,130872,5,8,0:0:0:0:
256,192,131053,5,8,0:0:0:0:
256,192,131417,5,0,0:0:0:0:
256,192,131599,5,8,0:0:0:0:
256,192,131781,5,0,0:0:0:0:
256,192,131963,5,0,0:0:0:0:
256,192,132144,5,8,0:0:0:0:
256,192,132326,5,8,0:0:0:0:
256,192,132690,5,8,0:0:0:0:
256,192,133053,5,8,0:0:0:0:
256,192,133235,5,8,0:0:0:0:
256,192,133417,5,0,0:0:0:0:
256,192,133508,5,0,0:0:0:0:
256,192,133599,5,0,0:0:0:0:
256,192,133781,5,8,0:0:0:0:
256,192,133963,5,0,0:0:0:0:
256,192,134144,5,8,0:0:0:0:
256,192,134508,5,8,0:0:0:0:
256,192,134690,5,0,0:0:0:0:
256,192,134781,5,0,0:0:0:0:
256,192,134872,5,0,0:0:0:0:
256,192,135053,5,0,0:0:0:0:
256,192,135235,5,8,0:0:0:0:
256,192,135417,5,0,0:0:0:0:
256,192,135599,5,12,0:0:0:0:
256,192,135963,5,8,0:0:0:0:
256,192,136326,5,0,0:0:0:0:
256,192,136508,5,0,0:0:0:0:
256,192,136690,5,8,0:0:0:0:
256,192,137053,5,0,0:0:0:0:
256,192,137417,5,8,0:0:0:0:
256,192,137781,5,0,0:0:0:0:
256,192,137963,5,0,0:0:0:0:
256,192,138144,5,8,0:0:0:0:
256,192,138326,5,0,0:0:0:0:
256,192,138508,5,8,0:0:0:0:
256,192,138690,5,8,0:0:0:0:
256,192,138781,5,8,0:0:0:0:
256,192,138872,5,8,0:0:0:0:
256,192,139235,5,8,0:0:0:0:
256,192,139417,5,0,0:0:0:0:
256,192,139599,5,0,0:0:0:0:
256,192,139781,5,12,0:0:0:0:
256,192,140144,5,0,0:0:0:0:
256,192,140326,5,0,0:0:0:0:
256,192,140508,5,12,0:0:0:0:
256,192,140872,5,0,0:0:0:0:
256,192,141053,5,8,0:0:0:0:
256,192,141144,5,8,0:0:0:0:
256,192,141235,5,8,0:0:0:0:
256,192,141417,5,4,0:0:0:0:
256,192,141781,5,8,0:0:0:0:
256,192,141963,5,8,0:0:0:0:
256,192,142053,5,8,0:0:0:0:
256,192,142144,5,8,0:0:0:0:
256,192,142326,5,0,0:0:0:0:
256,192,142508,5,8,0:0:0:0:
256,192,142690,5,8,0:0:0:0:
256,192,143053,5,0,0:0:0:0:
256,192,143235,5,8,0:0:0:0:
256,192,143417,5,8,0:0:0:0:
256,192,143599,5,0,0:0:0:0:
256,192,143781,5,8,0:0:0:0:
256,192,143963,5,8,0:0:0:0:
256,192,144326,5,0,0:0:0:0:
256,192,144690,5,8,0:0:0:0:
256,192,145053,5,0,0:0:0:0:
256,192,145235,5,0,0:0:0:0:
256,192,145417,5,8,0:0:0:0:
256,192,145599,5,0,0:0:0:0:
256,192,145781,5,8,0:0:0:0:
256,192,146144,5,8,0:0:0:0:
256,192,146326,5,0,0:0:0:0:
256,192,146417,5,0,0:0:0:0:
256,192,146508,5,0,0:0:0:0:
256,192,146690,5,8,0:0:0:0:
256,192,146872,5,0,0:0:0:0:
256,192,147235,5,12,0:0:0:0:
256,192,147963,5,8,0:0:0:0:
256,192,148144,5,0,0:0:0:0:
256,192,148326,5,0,0:0:0:0:
256,192,148508,5,0,0:0:0:0:
256,192,148690,5,8,0:0:0:0:
256,192,149053,5,8,0:0:0:0:
256,192,149235,5,8,0:0:0:0:
256,192,149417,5,0,0:0:0:0:
256,192,149599,5,0,0:0:0:0:
256,192,149781,5,8,0:0:0:0:
256,192,150144,5,0,0:0:0:0:
256,192,150326,5,8,0:0:0:0:
256,192,150417,5,8,0:0:0:0:
256,192,150508,5,8,0:0:0:0:
256,192,150690,5,0,0:0:0:0:
256,192,150872,5,8,0:0:0:0:
256,192,151235,5,8,0:0:0:0:
256,192,151417,5,4,0:0:0:0:
256,192,151963,5,8,0:0:0:0:
256,192,152326,5,0,0:0:0:0:
256,192,152417,5,0,0:0:0:0:
256,192,152508,5,0,0:0:0:0:
256,192,152690,5,8,0:0:0:0:
256,192,152781,5,8,0:0:0:0:
256,192,152872,5,8,0:0:0:0:
256,192,153053,5,0,0:0:0:0:
256,192,153417,5,8,0:0:0:0:
256,192,153599,5,8,0:0:0:0:
256,192,153963,5,0,0:0:0:0:
256,192,154144,5,8,0:0:0:0:
256,192,154326,5,8,0:0:0:0:
256,192,154872,5,8,0:0:0:0:
256,192,155053,5,8,0:0:0:0:
256,192,155235,5,0,0:0:0:0:
256,192,155417,5,0,0:0:0:0:
256,192,155599,5,8,0:0:0:0:
256,192,155963,5,8,0:0:0:0:
256,192,156326,5,8,0:0:0:0:
256,192,156508,5,0,0:0:0:0:
256,192,156599,5,0,0:0:0:0:
256,192,156690,5,0,0:0:0:0:
256,192,156872,5,0,0:0:0:0:
256,192,157053,5,8,0:0:0:0:
256,192,157235,5,8,0:0:0:0:
256,192,157781,5,8,0:0:0:0:
256,192,158144,5,8,0:0:0:0:
256,192,158326,5,8,0:0:0:0:
256,192,158508,5,0,0:0:0:0:
256,192,158690,5,8,0:0:0:0:
256,192,158872,5,0,0:0:0:0:
256,192,159235,5,8,0:0:0:0:
256,192,159599,5,0,0:0:0:0:
256,192,159781,5,0,0:0:0:0:
256,192,159963,5,8,0:0:0:0:
256,192,160144,5,8,0:0:0:0:
256,192,160690,5,8,0:0:0:0:
256,192,160872,5,8,0:0:0:0:
256,192,161053,5,0,0:0:0:0:
256,192,161417,5,8,0:0:0:0:
256,192,161781,5,12,0:0:0:0:
256,192,162144,5,0,0:0:0:0:
256,192,162326,5,12,0:0:0:0:
256,192,162690,5,0,0:0:0:0:
256,192,162872,5,12,0:0:0:0:
256,192,163417,5,12,0:0:0:0:
256,192,163781,5,0,0:0:0:0:
256,192,163963,5,12,0:0:0:0:
256,192,164326,5,12,0:0:0:0:
256,192,164690,5,4,0:0:0:0:
256,192,164932,5,0,0:0:0:0:
256,192,165175,5,8,0:0:0:0:
256,192,165417,5,0,0:0:0:0:
256,192,165659,5,0,0:0:0:0:
256,192,165902,5,0,0:0:0:0:
256,192,166144,5,12,0:0:0:0:
256,192,167599,5,8,0:0:0:0:
256,192,167963,5,8,0:0:0:0:
256,192,168144,5,0,0:0:0:0:
256,192,168326,5,8,0:0:0:0:
256,192,168872,5,8,0:0:0:0:
256,192,169235,5,0,0:0:0:0:
256,192,169599,5,8,0:0:0:0:
256,192,169781,5,0,0:0:0:0:
256,192,170326,5,0,0:0:0:0:
256,192,170508,5,8,0:0:0:0:
256,192,171053,5,8,0:0:0:0:
256,192,171235,5,8,0:0:0:0:
256,192,171781,5,0,0:0:0:0:
256,192,172144,5,8,0:0:0:0:
256,192,172508,5,0,0:0:0:0:
256,192,172690,5,8,0:0:0:0:
256,192,173417,5,8,0:0:0:0:
256,192,173781,5,8,0:0:0:0:
256,192,174144,5,0,0:0:0:0:
256,192,174690,5,8,0:0:0:0:
256,192,175053,5,0,0:0:0:0:
256,192,175417,5,8,0:0:0:0:
256,192,175599,5,8,0:0:0:0:
256,192,176326,5,12,0:0:0:0:
256,192,176690,5,8,0:0:0:0:
256,192,177053,5,0,0:0:0:0:
256,192,177235,5,0,0:0:0:0:
256,192,177417,5,8,0:0:0:0:
256,192,177599,5,8,0:0:0:0:
256,192,177781,5,0,0:0:0:0:
256,192,178144,5,8,0:0:0:0:
256,192,178326,5,0,0:0:0:0:
256,192,178417,5,0,0:0:0:0:
256,192,178508,5,0,0:0:0:0:
256,192,178690,5,0,0:0:0:0:
256,192,178872,5,8,0:0:0:0:
256,192,179053,5,0,0:0:0:0:
256,192,179235,5,8,0:0:0:0:
256,192,179599,5,8,0:0:0:0:
256,192,179781,5,0,0:0:0:0:
256,192,179963,5,8,0:0:0:0:
256,192,180326,5,8,0:0:0:0:
256,192,180690,5,8,0:0:0:0:
256,192,180872,5,0,0:0:0:0:
256,192,180963,5,0,0:0:0:0:
256,192,181053,5,0,0:0:0:0:
256,192,181235,5,8,0:0:0:0:
256,192,181417,5,0,0:0:0:0:
256,192,181599,5,0,0:0:0:0:
256,192,181781,5,8,0:0:0:0:
256,192,182144,5,12,0:0:0:0:
256,192,182326,5,0,0:0:0:0:
256,192,182508,5,0,0:0:0:0:
256,192,182690,5,12,0:0:0:0:
256,192,183053,5,8,0:0:0:0:
256,192,183235,5,4,0:0:0:0:
256,192,183417,1,8,0:0:0:0:
256,192,183599,5,4,0:0:0:0:
256,192,185053,5,4,0:0:0:0:
256,192,186144,5,8,0:0:0:0:
256,192,186508,5,12,0:0:0:0:
256,192,187599,5,0,0:0:0:0:
256,192,187963,5,12,0:0:0:0:
256,192,188690,5,4,0:0:0:0:
256,192,189053,5,0,0:0:0:0:
256,192,189417,5,12,0:0:0:0:
256,192,189963,5,0,0:0:0:0:
256,192,190144,5,8,0:0:0:0:
256,192,190326,5,8,0:0:0:0:
256,192,190508,5,0,0:0:0:0:
256,192,190690,5,0,0:0:0:0:
256,192,190872,5,12,0:0:0:0:
256,192,191235,5,8,0:0:0:0:
256,192,191599,5,0,0:0:0:0:
256,192,191781,5,0,0:0:0:0:
256,192,191963,5,8,0:0:0:0:
256,192,192144,5,0,0:0:0:0:
256,192,192326,5,0,0:0:0:0:
256,192,192690,5,8,0:0:0:0:
256,192,192872,5,8,0:0:0:0:
256,192,193053,5,0,0:0:0:0:
256,192,193417,5,8,0:0:0:0:
256,192,193599,5,0,0:0:0:0:
256,192,193781,5,8,0:0:0:0:
256,192,193963,5,8,0:0:0:0:
256,192,194053,5,8,0:0:0:0:
256,192,194144,5,8,0:0:0:0:
256,192,194326,5,8,0:0:0:0:
256,192,194508,5,0,0:0:0:0:
256,192,194872,5,8,0:0:0:0:
256,192,195053,5,12,0:0:0:0:
256,192,195417,5,0,0:0:0:0:
256,192,195599,5,0,0:0:0:0:
256,192,195781,5,8,0:0:0:0:
256,192,196144,5,0,0:0:0:0:
256,192,196326,5,8,0:0:0:0:
256,192,196417,5,8,0:0:0:0:
256,192,196508,5,8,0:0:0:0:
256,192,196690,5,4,0:0:0:0:
256,192,197053,5,8,0:0:0:0:
256,192,197235,5,0,0:0:0:0:
256,192,197326,5,0,0:0:0:0:
256,192,197417,5,0,0:0:0:0:
256,192,197599,5,0,0:0:0:0:
256,192,197781,5,8,0:0:0:0:
256,192,197963,5,8,0:0:0:0:
256,192,198326,5,0,0:0:0:0:
256,192,198508,5,8,0:0:0:0:
256,192,198690,5,8,0:0:0:0:
256,192,198781,5,8,0:0:0:0:
256,192,198872,5,8,0:0:0:0:
256,192,199053,5,0,0:0:0:0:
256,192,199235,5,8,0:0:0:0:
256,192,199599,5,0,0:0:0:0:
256,192,199963,5,8,0:0:0:0:
256,192,200326,5,0,0:0:0:0:
256,192,200508,5,0,0:0:0:0:
256,192,200690,5,8,0:0:0:0:
256,192,200872,5,0,0:0:0:0:
256,192,201053,5,8,0:0:0:0:
256,192,201417,5,8,0:0:0:0:
256,192,201599,5,0,0:0:0:0:
256,192,201690,5,0,0:0:0:0:
256,192,201781,5,0,0:0:0:0:
256,192,201963,5,8,0:0:0:0:
256,192,202144,5,0,0:0:0:0:
256,192,202508,5,12,0:0:0:0:
256,192,203235,5,8,0:0:0:0:
256,192,203417,5,0,0:0:0:0:
256,192,203599,5,8,0:0:0:0:
256,192,203781,5,0,0:0:0:0:
256,192,203963,5,8,0:0:0:0:
256,192,204326,5,8,0:0:0:0:
256,192,204508,5,8,0:0:0:0:
256,192,204690,5,0,0:0:0:0:
256,192,204872,5,0,0:0:0:0:
256,192,205053,5,8,0:0:0:0:
256,192,205417,5,8,0:0:0:0:
256,192,205599,5,8,0:0:0:0:
256,192,205690,5,8,0:0:0:0:
256,192,205781,5,8,0:0:0:0:
256,192,205963,5,0,0:0:0:0:
256,192,206144,5,8,0:0:0:0:
256,192,206508,5,8,0:0:0:0:
256,192,206690,5,4,0:0:0:0:
256,192,207235,5,8,0:0:0:0:
256,192,207599,5,0,0:0:0:0:
256,192,207690,5,0,0:0:0:0:
256,192,207781,5,0,0:0:0:0:
256,192,207963,5,8,0:0:0:0:
256,192,208053,5,8,0:0:0:0:
256,192,208144,5,8,0:0:0:0:
256,192,208326,5,4,0:0:0:0:
256,192,208690,5,8,0:0:0:0:
256,192,208872,5,8,0:0:0:0:
256,192,209235,5,0,0:0:0:0:
256,192,209417,5,8,0:0:0:0:
256,192,209599,5,8,0:0:0:0:
256,192,209963,5,0,0:0:0:0:
256,192,210144,5,8,0:0:0:0:
256,192,210326,5,0,0:0:0:0:
256,192,210417,5,0,0:0:0:0:
256,192,210508,5,0,0:0:0:0:
256,192,210690,5,0,0:0:0:0:
256,192,210872,5,8,0:0:0:0:
256,192,211235,5,12,0:0:0:0:
256,192,211599,5,8,0:0:0:0:
256,192,211781,5,0,0:0:0:0:
256,192,211872,5,0,0:0:0:0:
256,192,211963,5,0,0:0:0:0:
256,192,212144,5,0,0:0:0:0:
256,192,212326,5,8,0:0:0:0:
256,192,212508,5,8,0:0:0:0:
256,192,212872,5,0,0:0:0:0:
256,192,213053,5,8,0:0:0:0:
256,192,213235,5,8,0:0:0:0:
256,192,213599,5,8,0:0:0:0:
256,192,213781,5,0,0:0:0:0:
256,192,213963,5,8,0:0:0:0:
256,192,214144,5,4,0:0:0:0:
256,192,214508,5,8,0:0:0:0:
256,192,214872,5,0,0:0:0:0:
256,192,215053,5,0,0:0:0:0:
256,192,215235,5,8,0:0:0:0:
256,192,215417,5,8,0:0:0:0:
256,192,215781,5,8,0:0:0:0:
256,192,215963,5,0,0:0:0:0:
256,192,216144,5,8,0:0:0:0:
256,192,216690,5,8,0:0:0:0:
256,192,217053,5,4,0:0:0:0:
256,192,217417,5,8,0:0:0:0:
256,192,217781,5,0,0:0:0:0:
256,192,217963,5,0,0:0:0:0:
256,192,218144,5,8,0:0:0:0:
256,192,218326,5,12,0:0:0:0:
256,192,218690,5,8,0:0:0:0:
256,192,218872,5,0,0:0:0:0:
256,192,219053,5,12,0:0:0:0:
256,192,219599,5,0,0:0:0:0:
256,192,219963,5,4,0:0:0:0:
256,192,220326,5,8,0:0:0:0:
256,192,220690,5,0,0:0:0:0:
256,192,220872,5,0,0:0:0:0:
256,192,221053,5,8,0:0:0:0:
256,192,221417,5,0,0:0:0:0:
256,192,221599,5,0,0:0:0:0:
256,192,221690,5,0,0:0:0:0:
256,192,221781,5,8,0:0:0:0:
256,192,221963,5,0,0:0:0:0:
256,192,222144,5,8,0:0:0:0:
256,192,222326,5,0,0:0:0:0:
256,192,222508,5,8,0:0:0:0:
256,192,222872,5,12,0:0:0:0:
256,192,223053,12,0,230144,0:0:0:0:
