osu file format v14

[General]
AudioFilename: audio.mp3
AudioLeadIn: 0
PreviewTime: 59962
Countdown: 0
SampleSet: Normal
StackLeniency: 0.2
Mode: 1
LetterboxInBreaks: 0
WidescreenStoryboard: 1

[Editor]
Bookmarks: 4690
DistanceSpacing: 1.1
BeatDivisor: 4
GridSize: 32
TimelineZoom: 1.2

[Metadata]
Title:Girlish Lover
TitleUnicode:Girlish Lover
Artist:Mizukara o Enshutsu Suru Otome no Kai
ArtistUnicode:自らを演出する乙女の会
Creator:yuki_momoiro722
Version:Genjuro's Futsuu
Source:俺の彼女と幼なじみが修羅場すぎる
Tags:taiko anime japanese opening op oreshura Ore no Kanojo to Osananajimi ga Shuraba Sugiru 春咲千和 harusaki chiwa 赤﨑千夏 akasaki chinatsu 夏川真凉 natsukawa masuzu 田村ゆかり tamura yukari 秋篠姫香 akishino himeka 金元寿子 kanemoto hisako 冬海愛衣 fuyuumi 茅野愛衣 kayano ai genjuro
BeatmapID:2156789
BeatmapSetID:1024653

[Difficulty]
HPDrainRate:6
CircleSize:2
OverallDifficulty:4
ApproachRate:9
SliderMultiplier:1.4
SliderTickRate:1

[Events]
//Background and Video events
0,0,"bg.jpg",0,50
//Break Periods
2,90504,91544
//Storyboard Layer 0 (Background)
//Storyboard Layer 1 (Fail)
//Storyboard Layer 2 (Pass)
//Storyboard Layer 3 (Foreground)
//Storyboard Layer 4 (Overlay)
//Storyboard Sound Samples

[TimingPoints]
-4037,363.636363636364,4,1,0,90,1,0
4690,-100,4,1,0,90,0,1
14690,-100,4,1,0,90,0,0
61417,-100,4,1,0,90,0,1
72690,-100,4,1,0,90,0,0
73053,-100,4,1,0,90,0,1
83053,-100,4,1,0,90,0,0
129781,-100,4,1,0,90,0,1
141053,-100,4,1,0,90,0,0
141417,-100,4,1,0,90,0,1
151417,-100,4,1,0,90,0,0
190872,-100,4,1,0,90,0,1
196326,-100,4,1,0,90,0,0
196690,-100,4,1,0,90,0,1
206690,-100,4,1,0,90,0,0
222871,-100,4,1,0,90,0,0
223599,-100,4,1,0,83,0,0
224326,-100,4,1,0,76,0,0
225053,-100,4,1,0,69,0,0
225780,-100,4,1,0,62,0,0
226508,-100,4,1,0,55,0,0
227235,-100,4,1,0,48,0,0
227962,-100,4,1,0,41,0,0
228690,-100,4,1,0,34,0,0
229417,-100,4,1,0,27,0,0
230144,-100,4,1,0,20,0,0

[HitObjects]
256,192,1053,5,8,0:0:0:0:
256,192,1417,1,0,0:0:0:0:
256,192,1781,1,12,0:0:0:0:
256,192,2326,1,12,0:0:0:0:
256,192,2872,1,12,0:0:0:0:
256,192,3235,1,4,0:0:0:0:
256,192,4144,1,0,0:0:0:0:
256,192,4326,1,8,0:0:0:0:
256,192,4690,1,4,0:0:0:0:
256,192,5053,1,8,0:0:0:0:
256,192,5235,1,8,0:0:0:0:
256,192,5417,1,0,0:0:0:0:
256,192,5781,1,8,0:0:0:0:
256,192,6144,1,0,0:0:0:0:
256,192,6508,1,8,0:0:0:0:
256,192,6690,1,0,0:0:0:0:
256,192,7053,1,0,0:0:0:0:
256,192,7235,1,8,0:0:0:0:
256,192,7599,1,0,0:0:0:0:
256,192,7963,1,8,0:0:0:0:
256,192,8144,1,0,0:0:0:0:
256,192,8326,1,8,0:0:0:0:
256,192,8690,1,0,0:0:0:0:
256,192,9053,1,8,0:0:0:0:
256,192,9417,1,0,0:0:0:0:
256,192,9599,1,8,0:0:0:0:
256,192,9781,1,0,0:0:0:0:
256,192,9963,1,0,0:0:0:0:
256,192,10144,1,8,0:0:0:0:
256,192,10508,1,4,0:0:0:0:
256,192,11235,1,0,0:0:0:0:
256,192,11599,1,8,0:0:0:0:
256,192,11963,1,8,0:0:0:0:
256,192,12326,1,0,0:0:0:0:
256,192,12508,1,8,0:0:0:0:
256,192,12690,1,0,0:0:0:0:
256,192,13053,1,8,0:0:0:0:
256,192,13417,1,0,0:0:0:0:
256,192,13599,1,8,0:0:0:0:
256,192,13781,1,8,0:0:0:0:
256,192,14144,1,8,0:0:0:0:
256,192,14326,1,0,0:0:0:0:
256,192,14508,1,0,0:0:0:0:
256,192,14690,1,12,0:0:0:0:
256,192,15781,1,0,0:0:0:0:
256,192,15963,1,8,0:0:0:0:
256,192,16144,1,8,0:0:0:0:
256,192,16326,1,4,0:0:0:0:
256,192,16690,1,8,0:0:0:0:
256,192,16872,1,0,0:0:0:0:
256,192,17235,1,0,0:0:0:0:
256,192,17417,1,8,0:0:0:0:
256,192,17781,1,0,0:0:0:0:
256,192,18144,1,8,0:0:0:0:
256,192,18326,1,8,0:0:0:0:
256,192,18690,1,0,0:0:0:0:
256,192,18872,1,0,0:0:0:0:
256,192,19053,1,8,0:0:0:0:
256,192,19235,1,0,0:0:0:0:
256,192,19599,1,0,0:0:0:0:
256,192,19781,1,8,0:0:0:0:
256,192,20144,1,0,0:0:0:0:
256,192,20326,1,8,0:0:0:0:
256,192,20508,1,8,0:0:0:0:
256,192,20872,1,8,0:0:0:0:
256,192,21053,1,0,0:0:0:0:
256,192,21417,1,12,0:0:0:0:
256,192,21599,1,12,0:0:0:0:
256,192,21781,1,12,0:0:0:0:
256,192,22144,1,4,0:0:0:0:
256,192,22872,1,0,0:0:0:0:
256,192,23235,1,8,0:0:0:0:
256,192,23599,1,0,0:0:0:0:
256,192,23963,1,8,0:0:0:0:
256,192,24144,1,0,0:0:0:0:
256,192,24508,1,0,0:0:0:0:
256,192,24690,1,8,0:0:0:0:
256,192,25053,1,0,0:0:0:0:
256,192,25417,1,8,0:0:0:0:
256,192,25599,1,8,0:0:0:0:
256,192,25781,1,0,0:0:0:0:
256,192,26144,1,8,0:0:0:0:
256,192,26508,1,0,0:0:0:0:
256,192,26872,1,0,0:0:0:0:
256,192,27053,1,8,0:0:0:0:
256,192,27235,1,0,0:0:0:0:
256,192,27599,1,8,0:0:0:0:
256,192,27963,1,0,0:0:0:0:
256,192,28690,1,0,0:0:0:0:
256,192,29053,1,0,0:0:0:0:
256,192,29417,1,8,0:0:0:0:
256,192,29781,1,8,0:0:0:0:
256,192,29963,1,0,0:0:0:0:
256,192,30508,1,0,0:0:0:0:
256,192,30872,1,8,0:0:0:0:
256,192,31235,1,8,0:0:0:0:
256,192,31599,1,0,0:0:0:0:
256,192,31963,1,0,0:0:0:0:
256,192,32144,1,12,0:0:0:0:
256,192,32508,1,0,0:0:0:0:
256,192,32690,1,0,0:0:0:0:
256,192,32872,1,12,0:0:0:0:
256,192,33235,1,0,0:0:0:0:
256,192,33417,1,8,0:0:0:0:
256,192,33781,1,4,0:0:0:0:
256,192,34508,1,0,0:0:0:0:
256,192,34872,1,8,0:0:0:0:
256,192,35235,1,0,0:0:0:0:
256,192,35599,1,8,0:0:0:0:
256,192,35781,1,0,0:0:0:0:
256,192,36144,1,0,0:0:0:0:
256,192,36326,1,8,0:0:0:0:
256,192,36690,1,0,0:0:0:0:
256,192,37053,1,8,0:0:0:0:
256,192,37235,1,8,0:0:0:0:
256,192,37417,1,0,0:0:0:0:
256,192,37781,1,8,0:0:0:0:
256,192,38144,1,0,0:0:0:0:
256,192,38508,1,8,0:0:0:0:
256,192,38690,1,0,0:0:0:0:
256,192,39053,1,0,0:0:0:0:
256,192,39235,1,8,0:0:0:0:
256,192,39417,1,8,0:0:0:0:
256,192,39599,1,0,0:0:0:0:
256,192,40326,1,8,0:0:0:0:
256,192,40690,1,0,0:0:0:0:
256,192,41053,1,8,0:0:0:0:
256,192,41417,1,0,0:0:0:0:
256,192,41599,1,8,0:0:0:0:
256,192,42144,1,8,0:0:0:0:
256,192,42508,1,0,0:0:0:0:
256,192,42872,1,0,0:0:0:0:
256,192,43235,1,8,0:0:0:0:
256,192,43599,1,0,0:0:0:0:
256,192,43781,1,12,0:0:0:0:
256,192,44144,1,0,0:0:0:0:
256,192,44326,1,0,0:0:0:0:
256,192,44508,1,12,0:0:0:0:
256,192,44872,1,0,0:0:0:0:
256,192,45053,1,8,0:0:0:0:
256,192,45417,1,4,0:0:0:0:
256,192,46144,1,0,0:0:0:0:
256,192,46690,1,0,0:0:0:0:
256,192,47053,1,0,0:0:0:0:
256,192,47417,1,0,0:0:0:0:
256,192,47599,1,8,0:0:0:0:
256,192,47963,1,0,0:0:0:0:
256,192,48326,1,8,0:0:0:0:
256,192,49053,1,8,0:0:0:0:
256,192,49599,1,8,0:0:0:0:
256,192,49963,1,8,0:0:0:0:
256,192,50326,1,8,0:0:0:0:
256,192,50508,1,0,0:0:0:0:
256,192,50690,1,0,0:0:0:0:
256,192,50872,1,8,0:0:0:0:
256,192,51235,1,4,0:0:0:0:
256,192,51963,1,0,0:0:0:0:
256,192,52326,1,8,0:0:0:0:
256,192,52508,1,0,0:0:0:0:
256,192,52872,1,8,0:0:0:0:
256,192,53235,1,0,0:0:0:0:
256,192,53417,1,8,0:0:0:0:
256,192,53781,1,8,0:0:0:0:
256,192,53963,1,8,0:0:0:0:
256,192,54144,1,4,0:0:0:0:
256,192,54690,1,8,0:0:0:0:
256,192,54872,1,0,0:0:0:0:
256,192,55235,1,8,0:0:0:0:
256,192,55599,1,0,0:0:0:0:
256,192,55963,1,8,0:0:0:0:
256,192,56144,1,8,0:0:0:0:
256,192,56326,1,0,0:0:0:0:
256,192,56690,1,8,0:0:0:0:
256,192,57053,1,4,0:0:0:0:
256,192,57417,1,8,0:0:0:0:
256,192,57599,1,0,0:0:0:0:
256,192,57781,1,8,0:0:0:0:
256,192,57963,1,0,0:0:0:0:
256,192,58144,1,8,0:0:0:0:
256,192,58508,1,4,0:0:0:0:
256,192,58872,1,8,0:0:0:0:
256,192,59053,1,0,0:0:0:0:
256,192,59417,1,8,0:0:0:0:
256,192,59599,1,0,0:0:0:0:
256,192,59963,1,12,0:0:0:0:
256,192,60872,1,0,0:0:0:0:
256,192,61053,1,8,0:0:0:0:
256,192,61235,1,8,0:0:0:0:
256,192,61417,1,4,0:0:0:0:
256,192,61781,1,8,0:0:0:0:
256,192,61963,1,8,0:0:0:0:
256,192,62144,1,0,0:0:0:0:
256,192,62508,1,8,0:0:0:0:
256,192,62872,1,0,0:0:0:0:
256,192,63235,1,8,0:0:0:0:
256,192,63417,1,0,0:0:0:0:
256,192,63781,1,0,0:0:0:0:
256,192,63963,1,8,0:0:0:0:
256,192,64326,1,0,0:0:0:0:
256,192,64690,1,8,0:0:0:0:
256,192,64872,1,0,0:0:0:0:
256,192,65053,1,8,0:0:0:0:
256,192,65417,1,0,0:0:0:0:
256,192,65781,1,8,0:0:0:0:
256,192,66144,1,0,0:0:0:0:
256,192,66326,1,8,0:0:0:0:
256,192,66508,1,0,0:0:0:0:
256,192,66690,1,0,0:0:0:0:
256,192,66872,1,8,0:0:0:0:
256,192,67235,1,4,0:0:0:0:
256,192,67963,1,0,0:0:0:0:
256,192,68326,1,8,0:0:0:0:
256,192,68690,1,8,0:0:0:0:
256,192,69053,1,0,0:0:0:0:
256,192,69235,1,8,0:0:0:0:
256,192,69417,1,0,0:0:0:0:
256,192,69781,1,8,0:0:0:0:
256,192,70144,1,0,0:0:0:0:
256,192,70326,1,8,0:0:0:0:
256,192,70508,1,8,0:0:0:0:
256,192,70872,1,8,0:0:0:0:
256,192,71053,1,0,0:0:0:0:
256,192,71235,1,0,0:0:0:0:
256,192,71417,1,12,0:0:0:0:
256,192,71781,1,0,0:0:0:0:
256,192,71963,1,0,0:0:0:0:
256,192,72144,1,12,0:0:0:0:
256,192,73053,1,4,0:0:0:0:
256,192,73417,1,0,0:0:0:0:
256,192,73599,1,8,0:0:0:0:
256,192,73781,1,0,0:0:0:0:
256,192,74144,1,8,0:0:0:0:
256,192,74508,1,0,0:0:0:0:
256,192,74872,1,8,0:0:0:0:
256,192,75053,1,0,0:0:0:0:
256,192,75417,1,0,0:0:0:0:
256,192,75599,1,8,0:0:0:0:
256,192,75963,1,0,0:0:0:0:
256,192,76326,1,8,0:0:0:0:
256,192,76508,1,0,0:0:0:0:
256,192,76690,1,8,0:0:0:0:
256,192,77053,1,0,0:0:0:0:
256,192,77417,1,8,0:0:0:0:
256,192,77781,1,0,0:0:0:0:
256,192,77963,1,8,0:0:0:0:
256,192,78144,1,0,0:0:0:0:
256,192,78326,1,8,0:0:0:0:
256,192,78508,1,8,0:0:0:0:
256,192,78872,1,4,0:0:0:0:
256,192,79599,1,0,0:0:0:0:
256,192,79963,1,8,0:0:0:0:
256,192,80326,1,8,0:0:0:0:
256,192,80690,1,0,0:0:0:0:
256,192,80872,1,8,0:0:0:0:
256,192,81053,1,0,0:0:0:0:
256,192,81417,1,8,0:0:0:0:
256,192,81781,1,0,0:0:0:0:
256,192,81963,1,8,0:0:0:0:
256,192,82144,1,8,0:0:0:0:
256,192,82508,1,8,0:0:0:0:
256,192,82690,1,8,0:0:0:0:
256,192,82872,1,0,0:0:0:0:
256,192,83053,1,12,0:0:0:0:
256,192,83963,1,8,0:0:0:0:
256,192,84326,1,0,0:0:0:0:
256,192,84508,1,8,0:0:0:0:
256,192,84690,1,4,0:0:0:0:
256,192,85053,1,8,0:0:0:0:
256,192,85235,1,0,0:0:0:0:
256,192,85599,1,0,0:0:0:0:
256,192,85781,1,8,0:0:0:0:
256,192,86144,1,0,0:0:0:0:
256,192,86508,1,8,0:0:0:0:
256,192,86690,1,8,0:0:0:0:
256,192,87053,1,0,0:0:0:0:
256,192,87235,1,0,0:0:0:0:
256,192,87417,1,8,0:0:0:0:
256,192,87599,1,0,0:0:0:0:
256,192,87963,1,0,0:0:0:0:
256,192,88144,1,8,0:0:0:0:
256,192,88508,1,0,0:0:0:0:
256,192,88690,1,8,0:0:0:0:
256,192,88872,1,8,0:0:0:0:
256,192,89235,1,8,0:0:0:0:
256,192,89417,1,0,0:0:0:0:
256,192,89781,1,12,0:0:0:0:
256,192,89963,1,12,0:0:0:0:
256,192,90144,1,12,0:0:0:0:
256,192,92144,5,0,0:0:0:0:
256,192,92326,1,0,0:0:0:0:
256,192,92508,1,12,0:0:0:0:
256,192,92872,1,0,0:0:0:0:
256,192,93053,1,8,0:0:0:0:
256,192,93417,1,0,0:0:0:0:
256,192,93781,1,8,0:0:0:0:
256,192,93963,1,8,0:0:0:0:
256,192,94144,1,0,0:0:0:0:
256,192,94508,1,8,0:0:0:0:
256,192,94872,1,0,0:0:0:0:
256,192,95235,1,0,0:0:0:0:
256,192,95417,1,8,0:0:0:0:
256,192,95599,1,0,0:0:0:0:
256,192,95963,1,8,0:0:0:0:
256,192,96326,1,0,0:0:0:0:
256,192,97053,1,0,0:0:0:0:
256,192,97417,1,0,0:0:0:0:
256,192,97781,1,8,0:0:0:0:
256,192,98144,1,8,0:0:0:0:
256,192,98326,1,0,0:0:0:0:
256,192,98872,1,0,0:0:0:0:
256,192,99235,1,8,0:0:0:0:
256,192,99599,1,8,0:0:0:0:
256,192,99963,1,0,0:0:0:0:
256,192,100326,1,0,0:0:0:0:
256,192,100508,1,12,0:0:0:0:
256,192,100872,1,0,0:0:0:0:
256,192,101053,1,0,0:0:0:0:
256,192,101235,1,12,0:0:0:0:
256,192,101599,1,0,0:0:0:0:
256,192,101781,1,8,0:0:0:0:
256,192,102144,1,4,0:0:0:0:
256,192,102872,1,0,0:0:0:0:
256,192,103235,1,8,0:0:0:0:
256,192,103599,1,0,0:0:0:0:
256,192,103963,1,8,0:0:0:0:
256,192,104144,1,0,0:0:0:0:
256,192,104508,1,0,0:0:0:0:
256,192,104690,1,8,0:0:0:0:
256,192,105053,1,0,0:0:0:0:
256,192,105417,1,8,0:0:0:0:
256,192,105599,1,8,0:0:0:0:
256,192,105781,1,0,0:0:0:0:
256,192,106144,1,8,0:0:0:0:
256,192,106508,1,0,0:0:0:0:
256,192,106872,1,8,0:0:0:0:
256,192,107053,1,0,0:0:0:0:
256,192,107417,1,0,0:0:0:0:
256,192,107599,1,8,0:0:0:0:
256,192,107781,1,8,0:0:0:0:
256,192,107963,1,0,0:0:0:0:
256,192,108690,1,8,0:0:0:0:
256,192,109053,1,0,0:0:0:0:
256,192,109417,1,8,0:0:0:0:
256,192,109781,1,0,0:0:0:0:
256,192,109963,1,8,0:0:0:0:
256,192,110508,1,8,0:0:0:0:
256,192,110872,1,0,0:0:0:0:
256,192,111235,1,0,0:0:0:0:
256,192,111599,1,8,0:0:0:0:
256,192,111963,1,0,0:0:0:0:
256,192,112144,1,12,0:0:0:0:
256,192,112508,1,0,0:0:0:0:
256,192,112690,1,0,0:0:0:0:
256,192,112872,1,12,0:0:0:0:
256,192,113235,1,0,0:0:0:0:
256,192,113417,1,8,0:0:0:0:
256,192,113781,1,4,0:0:0:0:
256,192,114508,1,0,0:0:0:0:
256,192,115053,1,0,0:0:0:0:
256,192,115417,1,0,0:0:0:0:
256,192,115781,1,0,0:0:0:0:
256,192,115963,1,8,0:0:0:0:
256,192,116326,1,0,0:0:0:0:
256,192,116690,1,8,0:0:0:0:
256,192,117235,1,8,0:0:0:0:
256,192,117417,1,8,0:0:0:0:
256,192,117963,1,8,0:0:0:0:
256,192,118326,1,8,0:0:0:0:
256,192,118690,1,8,0:0:0:0:
256,192,118872,1,0,0:0:0:0:
256,192,119053,1,0,0:0:0:0:
256,192,119235,1,8,0:0:0:0:
256,192,119599,1,4,0:0:0:0:
256,192,120326,1,0,0:0:0:0:
256,192,120690,1,8,0:0:0:0:
256,192,120872,1,0,0:0:0:0:
256,192,121235,1,8,0:0:0:0:
256,192,121599,1,0,0:0:0:0:
256,192,121781,1,8,0:0:0:0:
256,192,122144,1,8,0:0:0:0:
256,192,122326,1,8,0:0:0:0:
256,192,122508,1,4,0:0:0:0:
256,192,123053,1,8,0:0:0:0:
256,192,123235,1,0,0:0:0:0:
256,192,123599,1,8,0:0:0:0:
256,192,123963,1,0,0:0:0:0:
256,192,124326,1,8,0:0:0:0:
256,192,124508,1,8,0:0:0:0:
256,192,124690,1,0,0:0:0:0:
256,192,125053,1,8,0:0:0:0:
256,192,125417,1,4,0:0:0:0:
256,192,125781,1,8,0:0:0:0:
256,192,125963,1,0,0:0:0:0:
256,192,126144,1,8,0:0:0:0:
256,192,126326,1,0,0:0:0:0:
256,192,126508,1,8,0:0:0:0:
256,192,126872,1,4,0:0:0:0:
256,192,127235,1,8,0:0:0:0:
256,192,127417,1,0,0:0:0:0:
256,192,127599,1,0,0:0:0:0:
256,192,127781,1,8,0:0:0:0:
256,192,127963,1,0,0:0:0:0:
256,192,128326,1,12,0:0:0:0:
256,192,128690,2,0,L|352:192,4,70
256,192,129781,1,4,0:0:0:0:
256,192,130144,1,8,0:0:0:0:
256,192,130326,1,8,0:0:0:0:
256,192,130508,1,0,0:0:0:0:
256,192,130872,1,8,0:0:0:0:
256,192,131235,1,0,0:0:0:0:
256,192,131599,1,8,0:0:0:0:
256,192,131781,1,0,0:0:0:0:
256,192,132144,1,0,0:0:0:0:
256,192,132326,1,8,0:0:0:0:
256,192,132690,1,0,0:0:0:0:
256,192,133053,1,8,0:0:0:0:
256,192,133235,1,0,0:0:0:0:
256,192,133417,1,8,0:0:0:0:
256,192,133781,1,0,0:0:0:0:
256,192,134144,1,8,0:0:0:0:
256,192,134508,1,0,0:0:0:0:
256,192,134690,1,8,0:0:0:0:
256,192,134872,1,0,0:0:0:0:
256,192,135053,1,0,0:0:0:0:
256,192,135235,1,8,0:0:0:0:
256,192,135599,1,4,0:0:0:0:
256,192,136326,1,0,0:0:0:0:
256,192,136690,1,8,0:0:0:0:
256,192,137053,1,8,0:0:0:0:
256,192,137417,1,0,0:0:0:0:
256,192,137599,1,8,0:0:0:0:
256,192,137781,1,0,0:0:0:0:
256,192,138144,1,8,0:0:0:0:
256,192,138508,1,0,0:0:0:0:
256,192,138690,1,8,0:0:0:0:
256,192,138872,1,8,0:0:0:0:
256,192,139235,1,8,0:0:0:0:
256,192,139417,1,0,0:0:0:0:
256,192,139599,1,0,0:0:0:0:
256,192,139781,1,12,0:0:0:0:
256,192,140144,1,0,0:0:0:0:
256,192,140326,1,0,0:0:0:0:
256,192,140508,1,12,0:0:0:0:
256,192,141417,1,4,0:0:0:0:
256,192,141781,1,0,0:0:0:0:
256,192,141963,1,8,0:0:0:0:
256,192,142144,1,0,0:0:0:0:
256,192,142508,1,8,0:0:0:0:
256,192,142872,1,0,0:0:0:0:
256,192,143053,1,0,0:0:0:0:
256,192,143235,1,8,0:0:0:0:
256,192,143417,1,0,0:0:0:0:
256,192,143781,1,0,0:0:0:0:
256,192,143963,1,8,0:0:0:0:
256,192,144326,1,0,0:0:0:0:
256,192,144690,1,8,0:0:0:0:
256,192,144872,1,0,0:0:0:0:
256,192,145053,1,8,0:0:0:0:
256,192,145417,1,0,0:0:0:0:
256,192,145781,1,8,0:0:0:0:
256,192,146144,1,0,0:0:0:0:
256,192,146326,1,8,0:0:0:0:
256,192,146508,1,0,0:0:0:0:
256,192,146690,1,8,0:0:0:0:
256,192,146872,1,8,0:0:0:0:
256,192,147235,1,4,0:0:0:0:
256,192,147963,1,0,0:0:0:0:
256,192,148326,1,8,0:0:0:0:
256,192,148690,1,8,0:0:0:0:
256,192,149053,1,0,0:0:0:0:
256,192,149235,1,8,0:0:0:0:
256,192,149417,1,0,0:0:0:0:
256,192,149781,1,8,0:0:0:0:
256,192,150144,1,0,0:0:0:0:
256,192,150326,1,8,0:0:0:0:
256,192,150508,1,8,0:0:0:0:
256,192,150872,1,8,0:0:0:0:
256,192,151053,1,8,0:0:0:0:
256,192,151235,1,0,0:0:0:0:
256,192,151417,1,12,0:0:0:0:
256,192,152326,1,0,0:0:0:0:
256,192,152508,1,0,0:0:0:0:
256,192,152690,1,8,0:0:0:0:
256,192,153053,1,4,0:0:0:0:
256,192,153417,1,8,0:0:0:0:
256,192,153599,1,0,0:0:0:0:
256,192,153963,1,8,0:0:0:0:
256,192,154144,1,0,0:0:0:0:
256,192,154326,1,8,0:0:0:0:
256,192,154690,1,0,0:0:0:0:
256,192,154872,1,8,0:0:0:0:
256,192,155053,1,8,0:0:0:0:
256,192,155417,1,8,0:0:0:0:
256,192,155599,1,0,0:0:0:0:
256,192,155963,1,12,0:0:0:0:
256,192,156326,1,0,0:0:0:0:
256,192,156508,1,8,0:0:0:0:
256,192,156690,1,0,0:0:0:0:
256,192,157053,1,0,0:0:0:0:
256,192,157235,1,8,0:0:0:0:
256,192,157599,1,0,0:0:0:0:
256,192,157781,1,0,0:0:0:0:
256,192,157963,1,8,0:0:0:0:
256,192,158144,1,0,0:0:0:0:
256,192,158326,1,8,0:0:0:0:
256,192,158508,1,8,0:0:0:0:
256,192,158872,1,0,0:0:0:0:
256,192,159235,1,8,0:0:0:0:
256,192,159417,1,0,0:0:0:0:
256,192,159599,1,8,0:0:0:0:
256,192,159963,1,0,0:0:0:0:
256,192,160144,1,8,0:0:0:0:
256,192,160508,1,0,0:0:0:0:
256,192,160690,1,0,0:0:0:0:
256,192,160872,1,8,0:0:0:0:
256,192,161235,1,8,0:0:0:0:
256,192,161417,1,0,0:0:0:0:
256,192,161781,1,12,0:0:0:0:
256,192,162326,1,12,0:0:0:0:
256,192,162872,1,4,0:0:0:0:
256,192,163417,1,12,0:0:0:0:
256,192,163963,1,0,0:0:0:0:
256,192,164326,1,8,0:0:0:0:
256,192,164690,1,4,0:0:0:0:
256,192,165175,1,8,0:0:0:0:
256,192,165417,1,0,0:0:0:0:
256,192,165659,1,0,0:0:0:0:
256,192,166144,1,12,0:0:0:0:
256,192,167053,1,0,0:0:0:0:
256,192,167235,1,0,0:0:0:0:
256,192,167417,1,0,0:0:0:0:
256,192,167599,1,12,0:0:0:0:
256,192,168326,1,0,0:0:0:0:
256,192,168690,1,8,0:0:0:0:
256,192,169053,1,0,0:0:0:0:
256,192,169781,1,0,0:0:0:0:
256,192,169963,1,0,0:0:0:0:
256,192,170144,1,8,0:0:0:0:
256,192,170508,1,0,0:0:0:0:
256,192,171235,1,0,0:0:0:0:
256,192,171599,1,8,0:0:0:0:
256,192,171781,1,0,0:0:0:0:
256,192,172144,1,8,0:0:0:0:
256,192,172508,1,0,0:0:0:0:
256,192,172690,1,8,0:0:0:0:
256,192,172872,1,8,0:0:0:0:
256,192,173053,1,0,0:0:0:0:
256,192,173417,1,12,0:0:0:0:
256,192,174144,1,0,0:0:0:0:
256,192,174690,1,0,0:0:0:0:
256,192,175053,1,8,0:0:0:0:
256,192,175417,1,8,0:0:0:0:
256,192,175599,1,0,0:0:0:0:
256,192,175963,1,8,0:0:0:0:
256,192,176144,1,8,0:0:0:0:
256,192,176326,1,4,0:0:0:0:
256,192,176872,1,8,0:0:0:0:
256,192,177053,1,0,0:0:0:0:
256,192,177417,1,8,0:0:0:0:
256,192,177781,1,0,0:0:0:0:
256,192,178144,1,8,0:0:0:0:
256,192,178326,1,8,0:0:0:0:
256,192,178508,1,0,0:0:0:0:
256,192,178872,1,8,0:0:0:0:
256,192,179235,1,4,0:0:0:0:
256,192,179599,1,8,0:0:0:0:
256,192,179781,1,0,0:0:0:0:
256,192,179963,1,8,0:0:0:0:
256,192,180144,1,0,0:0:0:0:
256,192,180326,1,8,0:0:0:0:
256,192,180690,1,4,0:0:0:0:
256,192,181053,1,8,0:0:0:0:
256,192,181235,1,0,0:0:0:0:
256,192,181417,1,8,0:0:0:0:
256,192,181599,1,8,0:0:0:0:
256,192,181781,1,0,0:0:0:0:
256,192,182144,1,12,0:0:0:0:
256,192,182508,1,0,0:0:0:0:
256,192,182690,1,12,0:0:0:0:
256,192,183053,1,8,0:0:0:0:
256,192,183235,1,4,0:0:0:0:
256,192,183599,1,12,0:0:0:0:
256,192,185053,1,4,0:0:0:0:
256,192,186508,1,4,0:0:0:0:
256,192,187963,1,12,0:0:0:0:
256,192,188690,1,4,0:0:0:0:
256,192,189417,1,12,0:0:0:0:
256,192,190144,1,0,0:0:0:0:
256,192,190326,1,0,0:0:0:0:
256,192,190508,1,8,0:0:0:0:
256,192,190690,1,8,0:0:0:0:
256,192,190872,1,4,0:0:0:0:
256,192,191599,1,0,0:0:0:0:
256,192,191963,1,8,0:0:0:0:
256,192,192326,1,8,0:0:0:0:
256,192,192690,1,0,0:0:0:0:
256,192,192872,1,8,0:0:0:0:
256,192,193053,1,0,0:0:0:0:
256,192,193417,1,8,0:0:0:0:
256,192,193781,1,0,0:0:0:0:
256,192,193963,1,8,0:0:0:0:
256,192,194144,1,8,0:0:0:0:
256,192,194508,1,8,0:0:0:0:
256,192,194690,1,0,0:0:0:0:
256,192,194872,1,0,0:0:0:0:
256,192,195053,1,12,0:0:0:0:
256,192,195417,1,0,0:0:0:0:
256,192,195599,1,0,0:0:0:0:
256,192,195781,1,12,0:0:0:0:
256,192,196690,1,4,0:0:0:0:
256,192,197053,1,0,0:0:0:0:
256,192,197235,1,8,0:0:0:0:
256,192,197417,1,0,0:0:0:0:
256,192,197781,1,8,0:0:0:0:
256,192,198144,1,0,0:0:0:0:
256,192,198326,1,0,0:0:0:0:
256,192,198508,1,8,0:0:0:0:
256,192,198690,1,0,0:0:0:0:
256,192,199053,1,0,0:0:0:0:
256,192,199235,1,8,0:0:0:0:
256,192,199599,1,0,0:0:0:0:
256,192,199963,1,8,0:0:0:0:
256,192,200144,1,0,0:0:0:0:
256,192,200326,1,8,0:0:0:0:
256,192,200508,1,8,0:0:0:0:
256,192,200690,1,0,0:0:0:0:
256,192,201053,1,8,0:0:0:0:
256,192,201417,1,0,0:0:0:0:
256,192,201599,1,8,0:0:0:0:
256,192,201781,1,0,0:0:0:0:
256,192,201963,1,8,0:0:0:0:
256,192,202144,1,8,0:0:0:0:
256,192,202508,1,4,0:0:0:0:
256,192,203235,1,0,0:0:0:0:
256,192,203599,1,8,0:0:0:0:
256,192,203963,1,8,0:0:0:0:
256,192,204326,1,0,0:0:0:0:
256,192,204508,1,8,0:0:0:0:
256,192,204690,1,0,0:0:0:0:
256,192,205053,1,8,0:0:0:0:
256,192,205417,1,0,0:0:0:0:
256,192,205599,1,8,0:0:0:0:
256,192,205781,1,8,0:0:0:0:
256,192,206144,1,8,0:0:0:0:
256,192,206326,1,8,0:0:0:0:
256,192,206508,1,0,0:0:0:0:
256,192,206690,1,12,0:0:0:0:
256,192,207599,1,0,0:0:0:0:
256,192,207781,1,0,0:0:0:0:
256,192,207963,1,8,0:0:0:0:
256,192,208144,1,8,0:0:0:0:
256,192,208326,1,4,0:0:0:0:
256,192,208690,1,8,0:0:0:0:
256,192,208872,1,0,0:0:0:0:
256,192,209053,1,8,0:0:0:0:
256,192,209417,1,0,0:0:0:0:
256,192,209599,1,8,0:0:0:0:
256,192,209963,1,8,0:0:0:0:
256,192,210144,1,0,0:0:0:0:
256,192,210508,1,8,0:0:0:0:
256,192,210690,1,8,0:0:0:0:
256,192,210872,1,0,0:0:0:0:
256,192,211235,1,12,0:0:0:0:
256,192,211599,1,0,0:0:0:0:
256,192,211781,1,8,0:0:0:0:
256,192,211963,1,0,0:0:0:0:
256,192,212326,1,0,0:0:0:0:
256,192,212508,1,8,0:0:0:0:
256,192,212872,1,8,0:0:0:0:
256,192,213053,1,0,0:0:0:0:
256,192,213235,1,8,0:0:0:0:
256,192,213417,1,8,0:0:0:0:
256,192,213599,1,0,0:0:0:0:
256,192,213781,1,8,0:0:0:0:
256,192,214144,1,4,0:0:0:0:
256,192,214508,1,8,0:0:0:0:
256,192,214690,1,0,0:0:0:0:
256,192,215053,1,8,0:0:0:0:
256,192,215235,1,8,0:0:0:0:
256,192,215417,1,8,0:0:0:0:
256,192,215781,1,0,0:0:0:0:
256,192,216144,1,8,0:0:0:0:
256,192,216326,1,0,0:0:0:0:
256,192,216508,1,8,0:0:0:0:
256,192,216690,1,8,0:0:0:0:
256,192,217053,1,4,0:0:0:0:
256,192,217417,1,8,0:0:0:0:
256,192,217599,1,0,0:0:0:0:
256,192,217781,1,8,0:0:0:0:
256,192,218144,1,0,0:0:0:0:
256,192,218326,1,8,0:0:0:0:
256,192,218690,1,8,0:0:0:0:
256,192,218872,1,0,0:0:0:0:
256,192,219053,1,8,0:0:0:0:
256,192,219235,1,0,0:0:0:0:
256,192,219417,1,0,0:0:0:0:
256,192,219599,1,8,0:0:0:0:
256,192,219963,1,4,0:0:0:0:
256,192,220690,1,0,0:0:0:0:
256,192,220872,1,0,0:0:0:0:
256,192,221053,1,8,0:0:0:0:
256,192,221417,1,0,0:0:0:0:
256,192,221781,1,8,0:0:0:0:
256,192,221963,1,0,0:0:0:0:
256,192,222326,1,0,0:0:0:0:
256,192,222508,1,8,0:0:0:0:
256,192,222690,1,8,0:0:0:0:
256,192,222872,1,4,0:0:0:0:
256,192,223235,12,0,230144,0:0:0:0:
