osu file format v14

[General]
AudioFilename: audio.mp3
AudioLeadIn: 0
PreviewTime: 2745
Countdown: 0
SampleSet: Soft
StackLeniency: 0.7
Mode: 0
LetterboxInBreaks: 0
WidescreenStoryboard: 0

[Editor]
DistanceSpacing: 1
BeatDivisor: 4
GridSize: 4
TimelineZoom: 1.8

[Metadata]
Title:Girlish Lover (TV Size)
TitleUnicode:Girlish Lover (TV Size)
Artist:Mizukara o Enshutsu Suru Otome no Kai
ArtistUnicode:自らを演出する乙女の会
Creator:Yukida
Version:Normal
Source:俺の彼女と幼なじみが修羅場すぎる
Tags:oreshura op opening anime Chinatsu Akasaki Yukari Tamura Hisako Kanemoto Ai Kayano
BeatmapID:1090664
BeatmapSetID:434496

[Difficulty]
HPDrainRate:3
CircleSize:3
OverallDifficulty:3
ApproachRate:5
SliderMultiplier:1
SliderTickRate:1

[Events]
//Background and Video events
Video,1181,"oreshura op.avi"
0,0,"i2413911340.jpg",0,0
//Break Periods
//Storyboard Layer 0 (Background)
//Storyboard Layer 1 (Fail)
//Storyboard Layer 2 (Pass)
//Storyboard Layer 3 (Foreground)
//Storyboard Sound Samples

[TimingPoints]
-527,363.636363636364,4,2,0,40,1,0
3836,-100,4,2,0,95,0,1
13836,-100,4,2,0,75,0,0
14382,-100,4,2,0,75,0,0
15473,-100,4,2,0,75,0,0
60563,-100,4,2,0,85,0,1
86563,-100,4,2,0,75,0,0
87475,-100,4,2,0,70,0,0
88202,-100,4,2,0,60,0,0
88929,-100,4,2,0,55,0,0
89657,-100,4,2,0,5,0,0

[Colours]
Combo1 : 255,128,0
Combo2 : 114,252,48
Combo3 : 215,0,0
Combo4 : 0,0,255
Combo5 : 128,0,255
Combo6 : 255,255,0

[HitObjects]
144,256,200,6,0,P|192:272|260:260,1,100
208,176,927,6,0,P|256:160|320:176,1,100
400,176,1473,2,0,P|393:127|361:89,1,100
268,64,2018,2,0,P|204:80|188:116,1,100
160,192,2745,6,0,P|132:264|100:276,2,100
108,86,3836,6,0,P|168:26|192:26,1,100,0|0,0:0|0:0,0:0:0:0:
192,112,4382,1,0,0:0:0:0:
192,112,4563,2,0,L|288:160,1,100
336,80,5109,6,0,P|371:152|365:189,1,100
464,128,5654,1,0,0:0:0:0:
496,224,5836,1,0,0:0:0:0:
496,224,6018,2,0,P|495:271|461:326,1,100
402,256,6745,6,0,P|353:262|322:300,1,100
218,332,7473,2,0,P|159:364|115:354,1,100
152,272,8200,6,0,P|148:244|116:168,1,100
144,96,8745,1,0,0:0:0:0:
144,96,8927,2,0,P|183:66|199:19,1,100
300,60,9654,6,0,P|280:105|292:152,1,100
352,240,10382,2,0,P|406:262|457:248,1,100
445,148,11109,2,0,P|396:141|351:162,1,100
264,104,11836,2,0,P|208:108|176:148,1,100
245,194,12563,6,0,P|220:232|168:256,1,100
144,140,13291,2,0,P|92:128|40:152,1,100
8,184,13836,1,0,0:0:0:0:
204,236,14382,6,0,P|232:220|241:64,1,200
322,20,15473,6,0,P|341:65|380:95,1,100
464,64,16018,2,0,P|468:112|448:160,1,100
448,240,16563,1,0,0:0:0:0:
360,232,16927,6,0,P|324:264|270:280,1,100
188,288,17473,2,0,P|137:286|92:240,1,100
165,208,18018,1,0,0:0:0:0:
108,124,18382,6,0,P|128:76|176:48,1,100
192,128,18927,2,0,P|240:144|288:176,1,100
352,128,19473,1,0,0:0:0:0:
420,68,19836,6,0,P|435:86|444:109,1,50
464,216,20200,1,0,0:0:0:0:
292,92,20563,2,0,L|283:22,2,50
232,184,21291,6,0,P|192:220|144:228,1,100
118,132,21836,1,0,0:0:0:0:
118,132,22018,2,0,P|166:92|214:88,1,100
370,148,22745,6,0,P|398:208|382:244,1,100
291,212,23473,2,0,P|263:156|271:120,1,100
346,56,24200,6,0,P|366:120|354:168,1,100
324,244,24745,1,0,0:0:0:0:
324,244,24927,2,0,P|284:268|216:264,1,100
116,120,25654,2,0,B|167:75|225:102,1,100
331,60,26382,6,0,L|347:124,2,50
428,84,27109,2,0,P|460:136|472:180,1,100
373,196,27836,2,0,L|305:216,2,50
300,128,28563,2,0,L|188:160,1,100
156,168,29109,1,0,0:0:0:0:
112,176,29291,2,0,P|112:108|136:88,1,100
226,112,30018,6,0,L|282:208,1,100
368,208,30563,1,0,0:0:0:0:
368,208,30745,2,0,P|404:160|460:164,1,100
496,96,31291,6,0,P|520:136|512:208,1,100
453,268,31836,2,0,L|389:288,1,50
328,208,32200,2,0,L|264:228,1,50
264,320,32563,2,0,P|217:302|200:292,1,50
136,248,32927,1,0,0:0:0:0:
80,176,33291,6,0,P|92:128|148:96,1,100
208,64,34018,2,0,L|282:130,1,100
280,240,34745,5,0,0:0:0:0:
376,216,35109,2,0,P|376:272|344:320,1,100
256,332,35836,2,0,P|200:315|159:266,1,100
240,128,36563,6,0,P|264:108|300:96,2,50,0|0|0,0:0|0:0|0:0,0:0:0:0:
288,216,37291,6,0,P|344:252|384:252,1,100
400,156,38018,2,0,P|384:116|340:76,1,100
244,60,38745,6,0,P|204:92|188:136,1,100
280,176,39473,2,0,P|326:197|358:235,1,100
265,272,40200,6,0,P|233:300|161:316,2,100
272,172,41291,1,0,0:0:0:0:
300,76,41654,6,0,P|252:64|192:76,1,100
137,148,42382,2,0,P|185:176|241:172,1,100
280,184,42927,2,0,P|264:232|200:256,1,100
104,272,43473,5,0,0:0:0:0:
104,272,43654,2,0,B|31:192|39:127,1,150
128,80,44563,5,0,0:0:0:0:
224,144,44927,2,0,P|270:129|317:145,1,100
392,232,45654,1,0,0:0:0:0:
296,288,46018,2,0,P|240:268|188:276,2,100
408,260,47109,1,0,0:0:0:0:
503,228,47473,6,0,P|472:180|416:160,1,100
400,240,48200,2,0,P|353:217|326:176,1,100
328,136,48745,1,0,0:0:0:0:
288,64,49109,6,0,P|252:20|196:8,1,100
192,96,49654,1,0,0:0:0:0:
192,96,49836,2,0,L|142:124,1,50
157,191,50382,6,0,P|169:231|225:251,1,100
310,212,51109,2,0,P|358:248|366:292,1,100
274,324,51836,6,0,P|231:299|220:252,2,100
321,306,52745,2,0,P|332:284|353:269,1,50
431,208,53291,6,0,P|443:161|416:120,1,100
336,64,53836,1,0,0:0:0:0:
336,64,54018,2,0,P|288:32|240:32,1,100
264,120,54563,1,0,0:0:0:0:
48,288,55109,2,0,P|90:315|148:309,1,100
120,216,55654,1,0,0:0:0:0:
120,216,55836,1,0,0:0:0:0:
224,208,56200,6,0,P|268:230|318:235,2,100
288,136,57291,1,0,0:0:0:0:
288,48,57654,2,0,P|336:64|375:112,1,100
456,104,58382,2,0,P|440:156|392:188,1,100
312,184,59109,1,0,0:0:0:0:
444,48,60563,6,0,P|432:100|444:152,1,100
352,176,61109,1,0,0:0:0:0:
352,176,61291,2,0,P|332:220|288:252,1,100
224,304,61836,2,0,P|272:336|316:328,1,100
416,288,62382,6,0,L|449:339,2,50
492,220,63109,1,0,0:0:0:0:
416,156,63473,2,0,P|436:100|439:52,1,100
340,68,64200,2,0,P|296:32|252:36,1,100
196,116,64927,6,0,P|173:161|128:195,1,100
80,256,65473,2,0,P|101:268|140:272,1,50
284,320,66018,1,0,0:0:0:0:
320,208,66382,6,0,P|340:156|324:108,1,100
240,160,67109,2,0,P|190:158|144:128,1,100
193,64,67836,6,0,P|146:46|97:64,1,100
16,64,68563,2,0,P|32:112|80:144,1,100
32,224,69291,6,0,P|77:242|126:235,1,100
208,224,69836,1,0,0:0:0:0:
208,224,70018,2,0,P|240:172|256:128,1,100
268,56,70563,2,0,P|311:82|340:123,1,100
352,208,71109,6,0,P|352:256|344:276,2,50
256,144,71836,1,0,0:0:0:0:
256,144,72018,1,0,0:0:0:0:
176,176,72200,6,0,P|206:220|258:231,1,100
432,232,72745,1,0,0:0:0:0:
432,232,72927,2,0,P|464:184|480:128,1,100
132,40,73654,2,0,P|80:48|32:72,1,100
208,152,74200,2,0,L|244:200,2,50
36,152,74745,1,0,0:0:0:0:
92,224,75109,6,0,P|68:284|84:332,1,100
208,320,75836,2,0,P|213:271|191:227,1,100
240,112,76563,6,0,P|272:80|328:56,1,100
432,64,77109,2,0,L|480:76,1,50
468,288,77654,2,0,L|432:244,1,50
368,128,78018,6,0,P|334:164|328:213,1,100
245,276,78745,2,0,P|205:280|157:240,1,100
162,145,79473,6,0,P|202:97|242:89,1,100
336,112,80018,1,0,0:0:0:0:
336,112,80200,2,0,P|324:148|260:180,1,100
171,212,80927,6,0,L|63:228,2,100,0|0|0,0:0|0:0|0:0,0:0:0:0:
256,176,82018,2,0,P|272:208|289:228,1,50
432,144,82745,6,0,L|408:192,1,50
320,144,83109,2,0,L|344:92,1,50
240,80,83473,6,0,P|170:150|140:244,1,200
64,288,84382,2,0,P|128:336|208:304,1,150
276,296,85109,1,0,0:0:0:0:
276,296,85291,2,0,P|246:256|203:230,1,100
116,228,85836,2,0,P|149:170|185:145,1,100
256,160,86382,2,0,L|296:129,1,50,0|0,0:1|0:1,0:1:0:0:
256,192,86745,12,0,89654,0:0:0:0:
