osu file format v14

[General]
AudioFilename: audio.mp3
AudioLeadIn: 0
PreviewTime: 2745
Countdown: 0
SampleSet: Soft
StackLeniency: 0.7
Mode: 0
LetterboxInBreaks: 0
WidescreenStoryboard: 0

[Editor]
DistanceSpacing: 1
BeatDivisor: 4
GridSize: 8
TimelineZoom: 2.799999

[Metadata]
Title:Girlish Lover (TV Size)
TitleUnicode:Girlish Lover (TV Size)
Artist:Mizukara o Enshutsu Suru Otome no Kai
ArtistUnicode:自らを演出する乙女の会
Creator:Yukida
Version:Insane
Source:俺の彼女と幼なじみが修羅場すぎる
Tags:oreshura op opening anime Chinatsu Akasaki Yukari Tamura Hisako Kanemoto Ai Kayano
BeatmapID:1090663
BeatmapSetID:434496

[Difficulty]
HPDrainRate:6
CircleSize:4
OverallDifficulty:7
ApproachRate:8.5
SliderMultiplier:1.4
SliderTickRate:1

[Events]
//Background and Video events
Video,1181,"oreshura op.avi"
0,0,"i2413911340.jpg",0,0
//Break Periods
//Storyboard Layer 0 (Background)
//Storyboard Layer 1 (Fail)
//Storyboard Layer 2 (Pass)
//Storyboard Layer 3 (Foreground)
//Storyboard Sound Samples

[TimingPoints]
-527,363.636363636364,4,2,0,75,1,0
3836,-100,4,2,0,90,0,1
13836,-100,4,2,0,75,0,0
15473,-100,4,2,0,75,0,0
41655,-100,4,2,0,75,0,0
59110,-100,4,2,0,75,0,0
60563,-100,4,2,0,90,0,1
86745,-100,4,2,0,75,0,0
87475,-100,4,2,0,70,0,0
88202,-100,4,2,0,60,0,0
88929,-100,4,2,0,55,0,0
89657,-100,4,2,0,50,0,0

[Colours]
Combo1 : 255,128,0
Combo2 : 114,252,48
Combo3 : 215,0,0
Combo4 : 0,0,255
Combo5 : 128,0,255
Combo6 : 255,255,0

[HitObjects]
160,144,200,6,0,L|128:96,1,35
336,144,382,2,0,L|368:96,1,35
256,256,563,2,0,L|256:336,1,70
256,192,927,6,0,P|236:224|208:244,1,70,2|0,0:0|0:0,0:0:0:0:
160,160,1291,1,0,0:0:0:0:
320,48,1473,2,0,P|339:76|352:112,1,70,2|0,0:0|0:0,0:0:0:0:
256,256,1836,1,0,0:0:0:0:
112,112,2018,1,2,0:0:0:0:
112,256,2200,1,0,0:0:0:0:
256,112,2382,1,4,0:0:0:0:
352,240,2745,6,0,P|416:192|416:112,1,140
336,144,3291,2,0,L|304:112,2,35
256,192,3836,5,2,0:0:0:0:
160,240,4018,1,0,0:0:0:0:
224,336,4200,2,0,P|252:296|292:272,1,70,8|0,0:0|0:0,0:0:0:0:
384,304,4563,2,0,P|416:272|432:240,1,70
336,224,4927,1,8,0:0:0:0:
228,224,5109,2,0,P|248:160|312:120,1,140
336,224,5654,5,8,0:0:0:0:
432,160,5836,1,0,0:0:0:0:
432,80,6018,2,0,P|384:96|352:136,1,70
320,32,6382,2,8,P|282:65|268:114,1,70,8|0,0:0|0:0,0:0:0:0:
304,176,6745,6,0,P|244:234|176:240,1,140,2|8,0:0|0:0,0:0:0:0:
208,144,7291,1,0,0:0:0:0:
112,176,7473,2,0,P|92:244|124:320,1,140,0|8,0:0|0:0,0:0:0:0:
190,242,8018,1,0,0:0:0:0:
288,214,8200,6,0,P|329:208|368:224,2,70,0|0|8,0:0|0:0|0:0,0:0:0:0:
192,144,8745,1,0,0:0:0:0:
288,64,8927,2,0,P|240:48|192:64,1,70
80,128,9291,2,0,P|80:176|96:208,1,70,8|0,0:0|0:0,0:0:0:0:
192,144,9654,6,0,P|240:80|304:64,1,140,2|8,0:0|0:0,0:0:0:0:
280,152,10200,1,0,0:0:0:0:
448,256,10382,2,0,P|409:223|368:208,1,70
432,144,10745,2,0,P|387:134|336:144,1,70,8|0,0:0|0:0,0:0:0:0:
352,40,11109,6,0,P|272:48|224:112,1,140,0|8,0:0|0:0,0:0:0:0:
320,128,11654,1,0,0:0:0:0:
208,176,11836,1,0,0:0:0:0:
208,176,12018,1,0,0:0:0:0:
208,176,12200,2,0,P|215:234|224:256,1,70,8|0,0:0|0:0,0:0:0:0:
368,192,12563,5,0,0:0:0:0:
368,192,12745,1,0,0:0:0:0:
304,128,12927,5,0,0:0:0:0:
336,272,13109,1,0,0:0:0:0:
464,192,13291,1,0,0:0:0:0:
256,208,13473,5,0,0:0:0:0:
432,288,13654,1,0,0:0:0:0:
416,96,13836,1,4,0:0:0:0:
379,138,14927,6,0,L|427:106,2,35
368,176,15200,1,0,0:0:0:0:
357,210,15291,1,0,0:0:0:0:
347,244,15382,1,0,0:0:0:0:
334,278,15473,2,0,P|304:295|269:294,1,70,2|0,0:0|0:0,0:0:0:0:
128,176,15836,1,8,0:0:0:0:
112,252,16018,2,0,P|146:252|176:236,1,70
224,80,16382,1,0,0:0:0:0:
320,48,16563,2,0,P|325:82|312:114,1,70,8|0,0:0|0:0,0:0:0:0:
336,192,16927,5,0,0:0:0:0:
336,192,17109,1,0,0:0:0:0:
440,264,17291,1,8,0:0:0:0:
288,320,17473,2,0,P|216:296|164:240,1,140
144,176,18018,2,0,P|194:174|224:192,1,70,8|0,0:0|0:0,0:0:0:0:
192,80,18382,6,2,P|258:100|320:160,1,140,2|8,0:0|0:0,0:0:0:0:
416,128,18927,1,0,0:0:0:0:
416,320,19109,1,0,0:0:0:0:
416,128,19291,1,0,0:0:0:0:
416,320,19473,2,0,P|403:286|383:254,1,70,8|0,0:0|0:0,0:0:0:0:
448,64,19836,1,0,0:0:0:0:
352,160,20018,1,0,0:0:0:0:
288,48,20200,2,0,B|243:56|199:78,1,70,8|0,0:0|0:0,0:0:0:0:
48,176,20563,5,0,0:0:0:0:
240,144,20745,1,0,0:0:0:0:
144,160,20927,1,8,0:0:0:0:
96,240,21291,6,2,P|159:246|224:208,1,140,2|10,0:0|0:0,0:0:0:0:
384,96,21836,2,0,P|315:91|259:130,1,140
208,256,22382,2,0,P|244:260|288:240,1,70,8|0,0:0|0:0,0:0:0:0:
384,96,22745,2,2,P|315:91|259:130,1,140,2|10,0:0|0:0,0:0:0:0:
176,192,23291,1,0,0:0:0:0:
192,288,23473,2,0,P|228:268|256:224,1,70
233,152,23836,2,0,P|202:167|169:200,1,70,8|0,0:0|0:0,0:0:0:0:
288,304,24200,6,2,P|331:250|341:182,1,140,2|10,0:0|0:0,0:0:0:0:
272,128,24745,1,0,0:0:0:0:
192,80,24927,2,0,P|184:160|232:208,1,140,0|8,0:0|0:0,0:0:0:0:
328,208,25473,1,0,0:0:0:0:
368,128,25654,2,2,P|352:80|320:48,1,70
144,160,26018,1,8,0:0:0:0:
143,160,26200,2,0,P|203:124|272:128,1,140,8|0,0:0|0:0,0:0:0:0:
384,96,26745,6,0,P|384:144|368:176,1,70,8|0,0:0|0:0,0:0:0:0:
288,224,27109,1,0,0:0:0:0:
308,100,27473,5,8,0:0:0:0:
308,100,27654,1,8,0:0:0:0:
384,32,27836,2,0,P|400:80|384:176,1,140,0|8,0:0|0:0,0:0:0:0:
304,96,28382,1,0,0:0:0:0:
160,144,28563,6,2,P|150:177|154:211,1,70
280,304,28927,2,0,P|284:269|271:230,1,70,8|0,0:0|0:0,0:0:0:0:
232,136,29291,2,0,P|200:104|160:88,1,70
80,160,29654,2,0,P|75:194|79:229,1,70,8|0,0:0|0:0,0:0:0:0:
192,288,30018,6,2,P|196:253|191:218,1,70
176,112,30382,1,8,0:0:0:0:
256,32,30563,1,8,0:0:0:0:
256,32,30745,2,0,P|256:64|288:112,1,70
352,48,31109,1,8,0:0:0:0:
352,160,31291,6,2,P|336:240|272:272,1,140
256,176,31836,1,0,0:0:0:0:
256,176,32018,1,0,0:0:0:0:
256,64,32200,1,0,0:0:0:0:
256,64,32382,1,0,0:0:0:0:
384,112,32563,2,0,P|424:108|464:124,1,70
412,228,32927,1,4,0:0:0:0:
256,176,33109,5,0,0:0:0:0:
256,176,33291,2,0,P|199:195|158:199,1,70,8|0,0:0|0:0,0:0:0:0:
160,112,33654,2,0,P|192:99|226:91,1,70
336,96,34018,1,8,0:0:0:0:
416,80,34200,2,0,P|400:144|336:176,1,140
176,96,34745,5,8,0:0:0:0:
176,96,34927,1,8,0:0:0:0:
256,48,35109,2,0,P|272:80|272:128,1,70
224,192,35473,2,0,P|261:203|304:192,1,70,8|0,0:0|0:0,0:0:0:0:
368,128,35836,6,0,P|400:176|384:256,1,140,0|8,0:0|0:0,0:0:0:0:
304,272,36382,1,8,0:0:0:0:
208,272,36563,2,0,P|224:320|256:352,1,70
304,272,36927,2,0,P|295:238|276:209,1,70,8|0,0:0|0:0,0:0:0:0:
192,128,37291,1,0,0:0:0:0:
192,128,37473,1,0,0:0:0:0:
96,192,37654,1,8,0:0:0:0:
96,192,37836,2,0,P|128:256|192:288,1,140,8|0,0:0|0:0,0:0:0:0:
192,192,38382,1,8,0:0:0:0:
224,96,38563,5,0,0:0:0:0:
224,96,38654,1,0,0:0:0:0:
224,96,38745,2,0,P|288:144|288:224,1,140,0|8,0:0|0:0,0:0:0:0:
128,272,39291,1,8,0:0:0:0:
128,272,39473,2,0,P|144:208|208:176,1,140,0|8,0:0|0:0,0:0:0:0:
272,224,40018,1,0,0:0:0:0:
352,256,40200,6,0,P|352:208|288:136,1,140,0|8,0:0|0:0,0:0:0:0:
224,80,40745,2,0,P|196:140|228:204,1,140,8|0,0:0|0:0,0:0:0:0:
320,208,41291,1,8,0:0:0:0:
320,208,41473,1,0,0:0:0:0:
384,64,41654,6,0,P|317:80|280:137,1,140,0|8,0:0|0:0,0:0:0:0:
208,64,42200,1,8,0:0:0:0:
208,64,42382,2,0,P|176:121|190:200,1,140,0|8,0:0|0:0,0:0:0:0:
256,320,42927,6,0,P|268:268|340:216,1,140
432,192,43473,1,8,0:0:0:0:
336,144,43654,2,0,P|272:96|272:32,1,140
160,48,44200,1,8,0:0:0:0:
160,48,44291,1,0,0:0:0:0:
160,48,44382,1,0,0:0:0:0:
96,128,44563,6,0,P|144:176|224:192,1,140,2|0,0:0|0:0,0:0:0:0:
320,192,45109,1,0,0:0:0:0:
256,320,45291,2,0,P|188:303|139:255,1,140,2|8,0:0|0:0,0:0:0:0:
240,208,45836,1,0,0:0:0:0:
384,96,46200,1,0,0:0:0:0:
368,184,46563,2,0,P|320:160|300:128,1,70
144,96,47109,1,8,0:0:0:0:
144,96,47291,5,0,0:0:0:0:
252,192,47473,2,0,P|272:164|280:128,1,70
280,108,47745,1,0,0:0:0:0:
280,108,47836,1,8,0:0:0:0:
400,124,48018,1,0,0:0:0:0:
388,264,48200,2,0,P|396:196|388:180,1,70
320,224,48563,1,8,0:0:0:0:
320,224,48745,2,0,P|276:192|268:168,1,70
240,64,49109,2,0,P|288:48|320:48,1,70,0|8,0:0|0:0,0:0:0:0:
416,128,49473,5,0,0:0:0:0:
416,128,49654,2,8,P|383:114|348:111,1,70,0|0,0:0|0:0,0:0:0:0:
224,48,50018,1,8,0:0:0:0:
224,48,50200,1,0,0:0:0:0:
244,144,50382,6,0,P|284:212|356:216,1,140,0|8,0:0|0:0,0:0:0:0:
416,160,50927,1,0,0:0:0:0:
336,128,51109,2,0,P|304:64|224:48,1,140,0|8,0:0|0:0,0:0:0:0:
240,128,51654,1,0,0:0:0:0:
160,240,52018,1,0,0:0:0:0:
80,128,52382,1,0,0:0:0:0:
56,32,52563,2,0,P|120:40|192:72,1,140,0|8,0:0|0:0,0:0:0:0:
368,176,53109,5,0,0:0:0:0:
388,205,53200,1,0,0:0:0:0:
409,234,53291,2,2,P|403:299|345:341,1,140,10|10,0:0|0:0,0:0:0:0:
256,320,53836,1,0,0:0:0:0:
160,288,54018,2,0,P|176:257|208:240,1,70,8|0,0:0|0:0,0:0:0:0:
288,208,54382,2,0,P|272:160|228:140,1,70,8|0,0:0|0:0,0:0:0:0:
176,80,54745,1,8,0:0:0:0:
80,224,54927,5,0,0:0:0:0:
192,160,55109,1,8,0:0:0:0:
192,160,55291,1,8,0:0:0:0:
208,64,55473,2,0,P|272:96|304:160,1,140,2|8,0:0|0:0,0:0:0:0:
224,240,56018,1,0,0:0:0:0:
96,96,56200,6,0,P|100:152|120:184,1,70,8|0,0:0|0:0,0:0:0:0:
192,144,56563,2,0,P|188:200|168:232,1,70,8|0,0:0|0:0,0:0:0:0:
432,176,56927,6,0,P|422:144|400:112,1,70,8|0,0:0|0:0,0:0:0:0:
320,112,57291,2,0,P|330:80|352:48,1,70,8|0,0:0|0:0,0:0:0:0:
176,80,57654,5,2,0:0:0:0:
208,256,57836,2,0,P|164:216|144:184,1,70,0|8,0:0|0:0,0:0:0:0:
244,144,58200,1,2,0:0:0:0:
320,96,58382,2,0,P|352:124|364:164,1,70
432,304,58745,2,0,P|360:300|284:248,1,140,8|4,0:0|0:0,0:0:0:0:
272,60,60018,6,0,L|304:48,2,35
164,160,60382,1,0,0:0:0:0:
148,192,60473,1,0,0:0:0:0:
132,224,60563,2,8,P|152:268|244:304,1,140
320,160,61109,5,8,0:0:0:0:
232,80,61291,2,0,P|197:76|163:86,1,70
92,172,61654,1,8,0:0:0:0:
192,240,61836,2,0,P|261:247|336:224,1,140
448,160,62382,1,8,0:0:0:0:
448,160,62563,1,8,0:0:0:0:
448,288,62745,1,0,0:0:0:0:
336,224,62927,1,0,0:0:0:0:
224,128,63109,6,0,P|195:108|163:93,1,70,8|0,0:0|0:0,0:0:0:0:
64,48,63473,2,0,P|56:116|60:144,1,70
96,192,63836,1,8,0:0:0:0:
240,128,64018,1,8,0:0:0:0:
240,128,64200,2,0,P|212:144|188:176,1,70
256,224,64563,2,0,P|284:276|320:292,1,70,8|0,0:0|0:0,0:0:0:0:
384,256,64927,5,0,0:0:0:0:
416,160,65109,1,0,0:0:0:0:
416,160,65291,2,8,P|420:125|414:90,1,70
320,52,65654,1,0,0:0:0:0:
200,76,65836,2,0,P|152:105|130:136,1,70,0|8,0:0|0:0,0:0:0:0:
96,208,66200,1,0,0:0:0:0:
96,208,66382,2,0,P|156:284|220:288,1,140,0|8,0:0|0:0,0:0:0:0:
256,192,66927,5,8,0:0:0:0:
448,112,67109,2,0,P|414:171|344:192,1,140,0|8,0:0|0:0,0:0:0:0:
254,195,67654,1,0,0:0:0:0:
112,240,67836,2,0,P|144:208|176:192,1,70
256,128,68200,2,0,P|256:192|236:220,1,70,8|8,0:0|0:0,0:0:0:0:
400,176,68563,2,0,P|356:204|308:212,1,70
328,312,68927,2,0,P|277:266|276:248,1,70,8|0,0:0|0:0,0:0:0:0:
288,192,69291,2,0,P|320:205|344:230,1,70,0|4,0:0|0:0,0:0:0:0:
208,312,69654,5,8,0:0:0:0:
352,120,69836,1,8,0:0:0:0:
176,272,70018,1,0,0:0:0:0:
392,160,70200,1,0,0:0:0:0:
144,224,70382,1,8,0:0:0:0:
288,288,70563,2,0,P|344:248|388:180,1,140
224,128,71109,6,2,P|229:159|256:188,1,70
352,256,71473,1,8,0:0:0:0:
240,288,71654,1,8,0:0:0:0:
128,208,71836,1,0,0:0:0:0:
100,186,71927,1,0,0:0:0:0:
79,158,72018,1,0,0:0:0:0:
67,126,72109,1,0,0:0:0:0:
64,96,72200,6,0,P|128:68|200:64,1,140,4|8,0:0|0:0,0:0:0:0:
288,128,72745,1,0,0:0:0:0:
160,160,72927,1,0,0:0:0:0:
192,288,73109,2,0,P|244:244|272:232,1,70,0|8,0:0|0:0,0:0:0:0:
384,224,73473,6,0,P|356:172|284:132,1,140
288,224,74018,1,8,0:0:0:0:
416,64,74200,1,0,0:0:0:0:
416,64,74382,2,0,P|440:120|440:152,1,70
320,128,74745,2,0,P|293:110|253:107,1,70,8|0,0:0|0:0,0:0:0:0:
384,192,75109,6,0,P|368:244|336:272,1,70
288,208,75473,2,0,P|258:190|220:188,1,70,8|0,0:0|0:0,0:0:0:0:
208,288,75836,2,0,P|144:256|128:240,1,70
112,176,76200,2,0,P|84:192|56:232,1,70,8|0,0:0|0:0,0:0:0:0:
240,176,76563,6,0,P|288:128|288:48,1,140,0|8,0:0|0:0,0:0:0:0:
192,80,77109,1,0,0:0:0:0:
112,144,77291,1,0,0:0:0:0:
112,144,77473,2,0,L|161:193,1,70,0|8,0:0|0:0,0:0:0:0:
256,176,77836,1,8,0:0:0:0:
280,208,77927,1,8,0:0:0:0:
288,240,78018,6,0,P|240:296|160:296,1,140,4|8,0:0|0:0,0:0:0:0:
208,224,78563,1,8,0:0:0:0:
416,224,78745,1,0,0:0:0:0:
208,224,78927,1,0,0:0:0:0:
416,224,79109,1,8,0:0:0:0:
336,160,79291,1,0,0:0:0:0:
336,160,79473,6,0,P|288:112|208:96,1,140,0|8,0:0|0:0,0:0:0:0:
240,192,80018,1,0,0:0:0:0:
240,272,80200,2,0,P|273:320|352:320,1,140,0|8,0:0|0:0,0:0:0:0:
320,240,80927,5,8,0:0:0:0:
240,64,81109,1,2,0:0:0:0:
368,240,81291,1,8,0:0:0:0:
192,64,81473,1,2,0:0:0:0:
416,240,81654,1,8,0:0:0:0:
56,128,81836,1,2,0:0:0:0:
448,64,82018,1,8,0:0:0:0:
208,240,82200,1,4,0:0:0:0:
320,96,82745,6,0,L|232:88,1,70
112,80,83109,1,2,0:0:0:0:
118,114,83200,1,2,0:0:0:0:
133,145,83291,1,2,0:0:0:0:
158,170,83382,1,2,0:0:0:0:
185,192,83473,1,2,0:0:0:0:
208,218,83563,1,2,0:0:0:0:
224,249,83654,1,2,0:0:0:0:
233,283,83745,1,2,0:0:0:0:
256,304,83836,6,8,P|308:252|304:176,1,140,0|8,0:0|0:0,0:0:0:0:
304,96,84382,1,8,0:0:0:0:
208,288,84563,1,0,0:0:0:0:
128,96,84745,1,0,0:0:0:0:
212,296,84927,1,8,0:0:0:0:
304,96,85109,1,0,0:0:0:0:
144,80,85291,6,2,L|224:80,1,70
384,256,85654,2,2,L|304:256,1,70
128,288,86018,5,8,0:0:0:0:
168,276,86109,1,2,0:0:0:0:
200,264,86200,2,2,L|260:244,1,35
336,160,86382,5,8,0:0:0:0:
300,132,86473,1,2,0:0:0:0:
256,120,86563,1,2,0:0:0:0:
216,132,86654,1,2,0:0:0:0:
180,156,86745,1,6,0:0:0:0:
256,192,86836,12,0,89654,0:0:0:0:
