osu file format v14

[General]
AudioFilename: audio.mp3
AudioLeadIn: 0
PreviewTime: 2745
Countdown: 0
SampleSet: Soft
StackLeniency: 0.7
Mode: 0
LetterboxInBreaks: 0
WidescreenStoryboard: 0

[Editor]
DistanceSpacing: 1
BeatDivisor: 4
GridSize: 4
TimelineZoom: 1.8

[Metadata]
Title:Girlish Lover (TV Size)
TitleUnicode:Girlish Lover (TV Size)
Artist:Mizukara o Enshutsu Suru Otome no Kai
ArtistUnicode:自らを演出する乙女の会
Creator:Yukida
Version:Hard
Source:俺の彼女と幼なじみが修羅場すぎる
Tags:oreshura op opening anime Chinatsu Akasaki Yukari Tamura Hisako Kanemoto Ai Kayano
BeatmapID:1090662
BeatmapSetID:434496

[Difficulty]
HPDrainRate:6
CircleSize:4
OverallDifficulty:6
ApproachRate:8
SliderMultiplier:1.2
SliderTickRate:1

[Events]
//Background and Video events
Video,1181,"oreshura op.avi"
0,0,"i2413911340.jpg",0,0
//Break Periods
//Storyboard Layer 0 (Background)
//Storyboard Layer 1 (Fail)
//Storyboard Layer 2 (Pass)
//Storyboard Layer 3 (Foreground)
//Storyboard Sound Samples

[TimingPoints]
-527,363.636363636364,4,2,0,100,1,0
3836,-100,4,2,0,90,0,1
4564,-100,4,2,0,90,0,1
5291,-100,4,2,0,90,0,1
13836,-100,4,2,0,75,0,0
15473,-100,4,2,0,75,0,0
41655,-100,4,2,0,75,0,0
59110,-76.9230769230769,4,2,0,75,0,0
60563,-100,4,2,0,90,0,1
86563,-100,4,2,0,75,0,0
87475,-100,4,2,0,70,0,0
88202,-100,4,2,0,60,0,0
88929,-100,4,2,0,55,0,0
89657,-100,4,2,0,5,0,0

[Colours]
Combo1 : 255,128,0
Combo2 : 114,252,48
Combo3 : 215,0,0
Combo4 : 0,0,255
Combo5 : 128,0,255
Combo6 : 255,255,0

[HitObjects]
416,80,200,6,0,L|438:60,3,30,8|0|8|0,0:0|0:0|0:0|0:0,0:0:0:0:
424,136,563,2,0,P|396:152|344:164,1,60,8|0,0:0|0:0,0:0:0:0:
288,96,927,5,8,0:0:0:0:
288,96,1109,2,0,P|285:125|275:153,1,60
160,160,1473,1,8,0:0:0:0:
160,160,1654,2,0,P|160:192|184:224,1,60
256,288,2018,1,8,0:0:0:0:
256,288,2200,2,0,P|287:271|305:240,1,60,0|4,0:0|0:0,0:0:0:0:
336,124,2745,6,2,P|380:108|436:40,2,120
240,256,3836,6,0,P|184:256|128:208,1,120,0|8,0:0|0:0,0:0:0:0:
208,160,4382,1,8,0:0:0:0:
128,112,4563,2,0,P|89:106|58:116,2,60,0|0|8,0:0|0:0|0:0,0:0:0:0:
224,64,5109,6,0,P|312:75|341:100,1,120
428,164,5654,2,0,P|424:184|392:244,1,60,8|8,0:0|0:0,0:0:0:0:
304,192,6018,1,0,0:0:0:0:
304,192,6200,2,8,P|284:220|240:240,1,60,0|8,0:0|0:0,0:0:0:0:
160,192,6745,6,0,P|176:176|216:152,1,60,8|0,0:0|0:0,0:0:0:0:
272,96,7109,1,8,0:0:0:0:
360,100,7291,1,0,0:0:0:0:
360,100,7473,2,0,P|379:129|383:164,1,60,8|0,0:0|0:0,0:0:0:0:
364,236,7836,2,0,P|332:224|312:176,1,60,8|0,0:0|0:0,0:0:0:0:
232,184,8200,1,8,0:0:0:0:
232,104,8382,2,0,P|202:106|176:121,1,60,0|8,0:0|0:0,0:0:0:0:
148,200,8745,5,0,0:0:0:0:
148,200,8927,2,0,P|180:252|248:264,1,120,8|0,0:0|0:0,0:0:0:0:
416,128,9654,2,2,P|384:64|320:48,1,120,2|10,0:0|0:0,0:0:0:0:
224,48,10200,1,8,0:0:0:0:
186,153,10382,2,0,P|150:153|110:169,2,60,0|0|8,0:0|0:0|0:0,0:0:0:0:
296,192,10927,1,0,0:0:0:0:
296,192,11109,2,0,P|324:232|391:256,1,120,0|8,0:0|0:0,0:0:0:0:
392,152,11654,1,8,0:0:0:0:
392,152,11836,2,0,P|344:112|285:104,1,120,0|8,0:0|0:0,0:0:0:0:
304,200,12563,6,2,P|296:259|263:308,1,120
160,308,13109,1,2,0:0:0:0:
160,308,13291,1,2,0:0:0:0:
216,232,13473,1,2,0:0:0:0:
216,232,13654,2,0,P|192:213|174:189,1,60,0|4,0:0|0:0,0:0:0:0:
416,80,14382,6,2,L|480:32,2,60
448,160,14927,1,0,0:0:0:0:
448,160,15018,1,0,0:0:0:0:
448,160,15109,2,0,P|388:160|336:112,1,120
296,200,15654,2,8,P|333:222|360:232,1,60,0|8,0:0|0:0,0:0:0:0:
320,304,16018,2,0,P|292:291|267:275,1,60
200,224,16382,1,8,0:0:0:0:
200,224,16563,2,0,P|172:213|151:191,1,60
152,72,16927,6,0,P|192:44|260:48,1,120,0|8,0:0|0:0,0:0:0:0:
339,91,17473,2,0,P|351:151|308:216,1,120,8|0,0:0|0:0,0:0:0:0:
276,137,18018,2,0,L|216:181,1,60,0|8,0:0|0:0,0:0:0:0:
184,100,18382,6,0,P|148:175|160:223,1,120,0|8,0:0|0:0,0:0:0:0:
248,272,18927,1,8,0:0:0:0:
352,272,19109,2,0,P|344:228|360:188,1,60
456,216,19473,2,0,P|464:187|461:157,1,60,8|0,0:0|0:0,0:0:0:0:
368,64,19836,6,0,P|356:96|352:140,1,60
248,120,20200,2,8,P|246:95|232:56,1,60
136,56,20563,1,2,0:0:0:0:
56,120,20745,1,2,0:0:0:0:
80,216,20927,1,4,0:0:0:0:
176,320,21291,6,0,P|208:264|272:240,1,120,0|8,0:0|0:0,0:0:0:0:
264,320,21836,1,0,0:0:0:0:
344,320,22018,2,0,P|364:298|375:270,1,60
352,192,22382,2,0,P|338:165|335:135,1,60,8|0,0:0|0:0,0:0:0:0:
432,96,22745,6,0,P|480:128|512:192,1,120,0|8,0:0|0:0,0:0:0:0:
424,184,23291,1,8,0:0:0:0:
336,184,23473,2,8,P|312:238|264:273,1,120,0|8,0:0|0:0,0:0:0:0:
232,192,24018,1,0,0:0:0:0:
232,192,24200,6,0,L|203:126,1,60
280,80,24563,2,8,P|298:56|325:43,2,60,8|8|0,0:0|0:0|0:0,0:0:0:0:
360,120,25109,2,0,P|389:115|419:119,1,60,0|8,0:0|0:0,0:0:0:0:
392,208,25473,1,0,0:0:0:0:
392,208,25654,2,0,P|381:235|360:257,1,60
300,172,26018,6,8,P|264:176|228:192,2,60,8|8|0,0:0|0:0|0:0,0:0:0:0:
296,88,26563,1,0,0:0:0:0:
296,88,26745,2,8,P|248:72|224:72,1,60,8|0,0:0|0:0,0:0:0:0:
152,112,27109,6,0,P|152:144|168:184,1,60
240,208,27473,2,8,L|296:176,1,60
368,132,27836,2,0,P|400:148|416:196,1,60
368,240,28200,2,0,P|352:256|312:276,1,60,8|0,0:0|0:0,0:0:0:0:
296,192,28563,6,0,P|247:180|220:160,1,60
168,112,28927,1,8,0:0:0:0:
168,112,29109,1,8,0:0:0:0:
224,32,29291,2,0,P|248:49|272:80,1,60
288,160,29654,2,0,P|324:182|357:188,1,60,8|0,0:0|0:0,0:0:0:0:
432,192,30018,6,0,P|406:126|351:82,1,120,0|8,0:0|0:0,0:0:0:0:
264,96,30563,1,8,0:0:0:0:
264,96,30745,2,0,P|192:105|148:140,1,120
112,224,31291,2,0,P|128:256|176:272,1,60
188,204,31654,5,0,0:0:0:0:
188,204,31836,1,0,0:0:0:0:
288,224,32018,1,0,0:0:0:0:
250,316,32200,1,0,0:0:0:0:
250,316,32382,1,0,0:0:0:0:
250,316,32563,2,0,P|275:332|303:338,1,60
296,248,32927,6,0,L|251:210,1,60
162,208,33291,2,0,P|194:144|262:124,1,120
320,104,33836,1,0,0:0:0:0:
320,104,34018,2,0,P|365:118|391:143,1,60
392,208,34382,2,0,P|366:223|337:229,1,60
256,168,34745,6,0,P|212:172|176:184,1,60
104,272,35109,2,0,L|168:272,1,60
284,256,35473,2,0,P|304:288|344:296,1,60
456,296,35836,2,0,P|482:281|495:255,1,60
504,160,36200,6,0,P|489:112|464:88,1,60
416,32,36563,1,0,0:0:0:0:
320,64,36745,1,0,0:0:0:0:
320,64,36927,2,0,P|316:108|264:172,1,120
184,136,37473,1,0,0:0:0:0:
168,56,37654,5,0,0:0:0:0:
168,56,37836,2,0,P|194:38|230:34,1,60
320,64,38200,1,0,0:0:0:0:
320,64,38382,1,0,0:0:0:0:
416,72,38563,1,0,0:0:0:0:
416,72,38654,1,0,0:0:0:0:
416,72,38745,1,0,0:0:0:0:
416,176,38927,1,0,0:0:0:0:
416,176,39109,1,0,0:0:0:0:
328,208,39291,5,0,0:0:0:0:
328,208,39473,2,0,P|292:172|222:156,1,120
144,184,40018,1,0,0:0:0:0:
144,184,40200,2,0,P|99:186|24:157,2,120
232,184,41109,1,0,0:0:0:0:
232,184,41291,1,0,0:0:0:0:
246,105,41473,1,0,0:0:0:0:
246,105,41654,2,0,P|294:130|318:213,1,120
312,272,42200,1,0,0:0:0:0:
312,272,42382,2,0,P|231:282|192:260,1,120
200,176,42927,6,0,P|255:155|312:169,1,120
384,240,43473,1,0,0:0:0:0:
472,288,43654,2,0,P|488:224|456:176,1,120
384,128,44200,1,0,0:0:0:0:
384,128,44291,1,0,0:0:0:0:
384,128,44382,1,0,0:0:0:0:
280,128,44563,6,0,P|232:128|200:148,1,60
128,160,44927,1,0,0:0:0:0:
144,248,45109,1,0,0:0:0:0:
144,248,45291,2,0,P|194:275|255:270,1,120
352,240,45836,1,0,0:0:0:0:
280,160,46200,5,0,0:0:0:0:
248,80,46563,2,0,P|216:96|200:128,2,60
288,80,47109,2,0,P|320:80|352:112,1,60
352,136,47473,2,0,P|352:168|320:200,1,60
312,224,47836,2,0,P|232:216|200:196,1,120
200,112,48563,1,0,0:0:0:0:
200,112,48745,2,0,P|256:88|320:88,1,120
408,128,49473,6,0,P|432:147|451:169,1,60
432,264,49836,1,0,0:0:0:0:
432,264,50018,2,0,P|360:264|308:236,1,120
240,296,50563,1,0,0:0:0:0:
236,296,50745,6,0,P|220:239|240:184,1,120
320,176,51473,2,0,P|311:147|293:123,1,60
224,80,52018,2,0,P|192:80|165:83,1,60
136,112,52382,2,0,P|158:160|175:178,1,60
196,184,52745,2,0,P|225:185|254:194,1,60
360,224,53109,5,0,0:0:0:0:
376,231,53200,1,0,0:0:0:0:
392,239,53291,2,0,P|416:221|431:195,1,60
440,160,53654,2,0,P|462:106|512:56,2,120
384,200,54745,1,0,0:0:0:0:
448,256,55109,5,0,0:0:0:0:
448,256,55291,2,0,P|388:284|323:256,1,120
384,192,55836,1,0,0:0:0:0:
248,96,56200,2,0,P|223:77|189:65,1,60
144,144,56563,1,0,0:0:0:0:
144,144,56745,2,0,P|168:160|195:172,1,60
192,264,57109,1,0,0:0:0:0:
192,264,57291,2,0,P|214:283|243:288,1,60
360,288,57654,6,0,P|352:259|333:235,1,60
256,200,58018,2,0,P|274:176|299:160,1,60
368,112,58382,2,0,P|344:93|315:84,1,60
256,32,58745,2,0,P|302:8|360:20,1,60
392,8,59109,1,0,0:0:0:0:
308,232,60018,6,0,L|336:196,2,38.9999982147218
288,320,60382,1,0,0:0:0:0:
208,288,60563,6,0,P|176:236|176:152,1,120
245,112,61109,1,0,0:0:0:0:
245,112,61291,2,0,P|304:80|364:86,1,120
440,128,61836,2,0,P|440:184|381:242,1,120
336,288,62382,6,0,P|308:312|264:320,1,60
184,324,62745,2,0,P|112:300|85:263,1,120
88,72,63473,2,0,P|120:38|188:15,1,120
284,32,64018,1,0,0:0:0:0:
284,32,64200,2,0,P|278:80|241:149,1,120
140,144,64745,1,0,0:0:0:0:
200,244,64927,6,0,P|176:272|172:304,2,60
356,168,65473,1,0,0:0:0:0:
356,168,65654,2,0,P|370:128|370:92,2,60
332,288,66200,2,0,L|268:300,1,60
132,244,66563,2,0,L|190:232,1,60
140,140,66927,6,0,L|216:152,1,60
276,128,67291,2,0,P|268:97|245:72,2,60
240,232,67836,6,0,P|272:264|360:280,1,120
328,196,68382,2,0,L|364:140,2,60
404,232,68927,2,0,L|460:292,1,60
328,312,69291,5,0,0:0:0:0:
328,312,69473,1,0,0:0:0:0:
236,232,69654,1,0,0:0:0:0:
236,232,69836,1,0,0:0:0:0:
340,184,70018,1,0,0:0:0:0:
340,184,70200,2,0,P|367:173|391:155,2,60
120,84,71109,6,0,L|64:61,2,60
216,88,71654,1,0,0:0:0:0:
216,88,71836,2,0,L|224:152,1,60
151,199,72200,6,0,P|204:226|264:224,1,120
316,152,72745,1,0,0:0:0:0:
316,152,72927,2,0,P|364:108|368:92,1,60
440,152,73291,2,0,P|440:184|424:212,1,60
348,256,73654,6,0,P|372:308|392:328,2,60
264,192,74200,1,0,0:0:0:0:
264,192,74382,1,0,0:0:0:0:
168,144,74563,1,0,0:0:0:0:
212,60,74745,2,0,P|276:48|340:54,1,120
400,112,75291,5,0,0:0:0:0:
400,112,75473,2,0,P|420:172|416:236,1,120
336,288,76018,1,0,0:0:0:0:
336,288,76200,2,0,P|306:206|317:163,1,120
232,108,76745,1,0,0:0:0:0:
232,108,76927,2,0,P|173:97|113:113,2,120
320,160,77836,1,0,0:0:0:0:
392,228,78018,6,0,P|437:211|492:161,1,120
416,48,78563,1,0,0:0:0:0:
416,48,78745,2,0,P|348:64|316:116,1,120
240,200,79291,1,0,0:0:0:0:
240,200,79473,2,0,L|172:244,1,60
68,264,79836,2,0,P|92:320|156:352,1,120
264,328,80382,1,0,0:0:0:0:
264,328,80563,2,0,P|306:301|331:231,1,120
288,128,81109,5,0,0:0:0:0:
288,128,81291,1,0,0:0:0:0:
176,176,81473,1,0,0:0:0:0:
176,176,81654,2,0,P|208:196|240:204,2,60
120,61,82200,1,0,0:0:0:0:
411,281,83109,5,0,0:0:0:0:
411,281,83200,1,0,0:0:0:0:
411,281,83291,1,0,0:0:0:0:
316,219,83473,2,0,P|296:252|256:272,1,60
188,200,83836,2,0,P|201:173|224:154,1,60
312,88,84200,1,0,0:0:0:0:
425,108,84382,6,0,P|464:160|480:176,1,60
352,176,84745,2,0,P|391:228|407:244,1,60
336,318,85109,1,0,0:0:0:0:
224,320,85291,6,0,P|205:296|188:271,1,60
272,208,85654,2,0,P|253:184|236:159,1,60
130,164,86018,2,0,L|90:132,2,30
174,77,86382,2,0,L|134:45,2,30
256,192,86745,12,0,89654,0:0:0:0:
