osu file format v14

[General]
AudioFilename: audio.mp3
AudioLeadIn: 0
PreviewTime: 2803
Countdown: 0
SampleSet: Soft
StackLeniency: 0.7
Mode: 3
LetterboxInBreaks: 0
EpilepsyWarning: 1
SpecialStyle: 0
WidescreenStoryboard: 1

[Editor]
DistanceSpacing: 1.2
BeatDivisor: 4
GridSize: 4
TimelineZoom: 1.3

[Metadata]
Title:Girlish Lover (TV Size)
TitleUnicode:Girlish Lover (TV Size)
Artist:Mizukara o Enshutsu Suru Otome no Kai
ArtistUnicode:自らを演出する乙女の会
Creator:Sun
Version:Paran's 4K NM
Source:俺の彼女と幼なじみが修羅場すぎる
Tags:eli elinor [_eli_] Daeng Simatta Feerum Remuring Paran Nabi- Syadow- Ore no Kanojo to Osananajimi ga Shuraba Sugiru OreShura Opening op pop jpop j-pop anime japanese 春咲千和 Harusaki Chiwa 夏川真涼 Natsukawa Masuzu 秋篠姫香 Akishino Himeka 冬海愛衣 Fuyuumi Ai 赤﨑千夏 Akasaki Chinatsu 田村ゆかり Tamura Yukari 金元寿子 Kanemoto Hisako 茅野愛衣 Kayano
BeatmapID:2560424
BeatmapSetID:1231682

[Difficulty]
HPDrainRate:7.4
CircleSize:4
OverallDifficulty:7.4
ApproachRate:5
SliderMultiplier:1.4
SliderTickRate:1

[Events]
//Background and Video events
0,0,"BG.jpg",0,0
//Break Periods
//Storyboard Layer 0 (Background)
//Storyboard Layer 1 (Fail)
//Storyboard Layer 2 (Pass)
//Storyboard Layer 3 (Foreground)
//Storyboard Layer 4 (Overlay)
//Storyboard Sound Samples
Sample,31894,0,"Clap.wav",70
Sample,32075,0,"Crash left.wav",70
Sample,49894,0,"Tom3.wav",70
Sample,50075,0,"Tom3.wav",70

[TimingPoints]
985,363.636363636364,4,2,1,35,1,0
3894,-100,4,2,1,40,0,1
15530,-100,4,2,1,40,0,0
60621,-100,4,2,1,40,0,1
83166,-100,4,2,1,40,0,0

[HitObjects]
64,192,257,5,8,0:0:0:0:
192,192,257,1,4,0:0:0:0:
320,192,348,1,0,0:0:0:70:Tom1.wav
448,192,439,1,0,0:0:0:70:Tom2.wav
192,192,621,1,8,0:0:0:0:
320,192,621,1,4,0:0:0:70:Crash left.wav
64,192,985,1,8,0:0:0:0:
448,192,985,1,4,0:0:0:0:
192,192,1166,1,2,0:0:0:0:
320,192,1348,1,2,0:0:0:0:
64,192,1530,1,8,0:0:0:0:
448,192,1530,1,0,0:0:0:70:Crash left.wav
192,192,1712,1,2,0:0:0:0:
320,192,1894,1,2,0:0:0:0:
64,192,2075,1,8,0:0:0:0:
448,192,2075,1,4,0:0:0:0:
192,192,2257,1,2,0:0:0:0:
320,192,2439,1,2,0:0:0:0:
448,192,2439,1,0,0:0:0:70:Crash left.wav
64,192,2803,128,0,3166:0:0:0:0:
192,192,3166,128,0,3530:0:0:0:0:
448,192,3530,128,8,3894:0:0:0:0:
320,192,3530,1,0,0:0:0:0:
64,192,3894,1,2,0:0:0:0:
192,192,3894,1,4,0:0:0:0:
320,192,4257,1,8,0:0:0:0:
448,192,4257,1,2,0:0:0:0:
192,192,4439,1,8,0:0:0:0:
64,192,4621,1,2,0:0:0:0:
448,192,4621,1,0,0:0:0:0:
320,192,4985,128,2,5166:0:0:0:0:
192,192,4985,128,8,5166:0:0:0:0:
64,192,5348,1,2,0:0:0:0:
448,192,5348,1,0,0:0:0:0:
64,192,5712,1,8,0:0:0:0:
192,192,5712,1,2,0:0:0:0:
320,192,5894,1,8,0:0:0:0:
64,192,6075,1,2,0:0:0:0:
448,192,6075,1,0,0:0:0:0:
192,192,6439,128,8,6621:0:0:0:0:
320,192,6439,128,2,6621:0:0:0:0:
64,192,6803,1,0,0:0:0:0:
448,192,6803,128,2,7166:0:0:0:0:
64,192,7166,128,2,7530:0:0:0:0:
320,192,7166,1,8,0:0:0:0:
192,192,7348,1,8,0:0:0:0:
448,192,7530,128,0,7894:0:0:0:0:
320,192,7530,1,2,0:0:0:0:
64,192,7894,128,2,8257:0:0:0:0:
192,192,7894,1,8,0:0:0:0:
448,192,8257,1,0,0:0:0:0:
320,192,8257,128,2,8621:0:0:0:0:
192,192,8621,1,2,0:0:0:0:
64,192,8621,1,8,0:0:0:0:
448,192,8803,1,8,0:0:0:0:
64,192,8985,1,2,0:0:0:0:
64,192,9166,1,8,0:0:0:0:
320,192,9348,1,10,0:0:0:0:
320,192,9530,1,0,0:0:0:0:
64,192,9712,1,2,0:0:0:0:
448,192,9712,128,4,10257:0:0:0:0:
64,192,10075,1,8,0:0:0:0:
192,192,10075,1,2,0:0:0:0:
320,192,10257,1,8,0:0:0:0:
192,192,10439,128,2,10803:0:0:0:0:
64,192,10439,1,0,0:0:0:0:
320,192,10803,1,8,0:0:0:0:
448,192,10803,128,2,11166:0:0:0:0:
192,192,11166,128,2,11530:0:0:0:0:
320,192,11166,1,0,0:0:0:0:
64,192,11530,1,2,0:0:0:0:
448,192,11530,128,8,11894:0:0:0:0:
320,192,11712,1,8,0:0:0:0:
64,192,11894,128,2,12257:0:0:0:0:
192,192,11894,1,0,0:0:0:0:
320,192,12257,1,8,0:0:0:0:
448,192,12257,128,2,12621:0:0:0:0:
64,192,12621,1,2,0:0:0:0:
192,192,12621,1,4,0:0:0:0:
448,192,12803,1,2,0:0:0:0:
192,192,12985,1,8,0:0:0:0:
64,192,12985,1,0,0:0:0:0:
320,192,13166,1,2,0:0:0:0:
64,192,13348,1,8,0:0:0:0:
192,192,13348,1,0,0:0:0:0:
448,192,13530,1,2,0:0:0:0:
64,192,13712,1,8,0:0:0:0:
320,192,13712,1,0,0:0:0:0:
192,192,13894,128,2,14257:0:0:0:0:
448,192,13894,128,0,14257:0:0:0:70:Crash left.wav
64,192,14985,1,8,0:0:0:0:
192,192,14985,1,0,0:0:0:0:
64,192,15166,1,8,0:0:0:0:
192,192,15166,1,0,0:0:0:0:
448,192,15348,1,8,0:0:0:0:
320,192,15439,1,8,0:0:0:0:
64,192,15530,1,4,0:0:0:0:
192,192,15530,1,2,0:0:0:0:
320,192,15894,1,8,0:0:0:0:
448,192,15894,1,2,0:0:0:0:
64,192,16075,1,8,0:0:0:0:
192,192,16075,1,0,0:0:0:40:Clap.wav
192,192,16439,1,2,0:0:0:0:
320,192,16439,1,0,0:0:0:0:
64,192,16621,1,8,0:0:0:0:
448,192,16621,1,0,0:0:0:40:Clap.wav
192,192,16803,1,0,0:0:0:0:
320,192,16985,1,2,0:0:0:0:
448,192,16985,1,0,0:0:0:0:
192,192,17348,1,8,0:0:0:0:
64,192,17348,1,0,0:0:0:0:
448,192,17530,1,8,0:0:0:0:
320,192,17530,1,0,0:0:0:40:Clap.wav
192,192,17894,1,2,0:0:0:0:
320,192,17894,1,0,0:0:0:0:
64,192,18075,1,8,0:0:0:0:
448,192,18075,1,0,0:0:0:40:Clap.wav
320,192,18257,1,0,0:0:0:40:Clap.wav
64,192,18439,1,2,0:0:0:0:
192,192,18439,1,0,0:0:0:0:
448,192,18803,1,8,0:0:0:0:
320,192,18803,1,0,0:0:0:40:Clap.wav
192,192,18985,1,8,0:0:0:0:
64,192,18985,1,0,0:0:0:0:
320,192,19348,1,2,0:0:0:0:
448,192,19348,1,0,0:0:0:0:
64,192,19530,1,8,0:0:0:0:
192,192,19530,1,0,0:0:0:0:
320,192,19712,1,2,0:0:0:0:
448,192,19712,1,4,0:0:0:0:
192,192,20075,1,2,0:0:0:0:
320,192,20075,1,0,0:0:0:0:
64,192,20257,1,8,0:0:0:0:
448,192,20257,1,0,0:0:0:0:
192,192,20439,1,2,0:0:0:0:
320,192,20621,1,8,0:0:0:0:
448,192,20621,1,0,0:0:0:70:Tom3.wav
320,192,20803,1,8,0:0:0:0:
448,192,20803,1,0,0:0:0:70:Tom3.wav
320,192,20985,1,8,0:0:0:0:
448,192,20985,1,0,0:0:0:70:Tom3.wav
64,192,21348,1,2,0:0:0:0:
448,192,21348,1,4,0:0:0:0:
320,192,21530,1,0,0:0:0:0:
64,192,21712,1,10,0:0:0:0:
192,192,21712,1,0,0:0:0:70:Clap.wav
448,192,21894,1,0,0:0:0:70:Clap.wav
320,192,21894,1,0,0:0:0:0:
64,192,22075,1,2,0:0:0:0:
192,192,22257,1,0,0:0:0:0:
448,192,22439,1,10,0:0:0:0:
320,192,22439,1,0,0:0:0:40:Clap.wav
64,192,22621,1,0,0:0:0:0:
448,192,22803,1,2,0:0:0:0:
320,192,22985,1,0,0:0:0:0:
64,192,23166,1,10,0:0:0:0:
192,192,23166,1,0,0:0:0:40:Clap.wav
448,192,23348,1,0,0:0:0:40:Clap.wav
320,192,23348,1,0,0:0:0:0:
64,192,23530,1,2,0:0:0:0:
192,192,23712,1,0,0:0:0:0:
320,192,23894,1,10,0:0:0:0:
448,192,23894,1,0,0:0:0:70:Clap.wav
64,192,24075,1,0,0:0:0:0:
448,192,24257,1,2,0:0:0:0:
320,192,24439,1,0,0:0:0:0:
192,192,24621,1,10,0:0:0:0:
64,192,24621,1,0,0:0:0:70:Clap.wav
448,192,24803,1,0,0:0:0:70:Clap.wav
320,192,24803,1,0,0:0:0:0:
64,192,24985,1,2,0:0:0:0:
192,192,25166,1,0,0:0:0:0:
448,192,25348,1,10,0:0:0:0:
320,192,25348,1,0,0:0:0:40:Clap.wav
64,192,25530,1,0,0:0:0:0:
448,192,25712,1,2,0:0:0:0:
320,192,25894,1,0,0:0:0:0:
192,192,26075,1,10,0:0:0:0:
64,192,26075,1,0,0:0:0:40:Clap.wav
320,192,26257,1,0,0:0:0:40:Clap.wav
448,192,26257,1,0,0:0:0:0:
64,192,26439,1,2,0:0:0:0:
192,192,26621,1,0,0:0:0:0:
320,192,26803,1,0,0:0:0:40:Clap.wav
448,192,26803,1,10,0:0:0:0:
192,192,26985,1,0,0:0:0:0:
320,192,27075,1,0,0:0:0:0:
448,192,27166,1,2,0:0:0:0:
64,192,27166,1,0,0:0:0:0:
192,192,27348,1,0,0:0:0:0:
320,192,27530,1,10,0:0:0:0:
448,192,27530,1,0,0:0:0:40:Clap.wav
64,192,27712,1,0,0:0:0:40:Clap.wav
192,192,27712,1,0,0:0:0:0:
448,192,27894,1,2,0:0:0:0:
320,192,28075,1,0,0:0:0:0:
192,192,28257,1,0,0:0:0:40:Clap.wav
64,192,28257,1,10,0:0:0:0:
448,192,28439,1,0,0:0:0:0:
64,192,28621,1,2,0:0:0:0:
192,192,28803,1,0,0:0:0:0:
320,192,28985,1,10,0:0:0:0:
448,192,28985,1,0,0:0:0:40:Clap.wav
192,192,29166,1,0,0:0:0:0:
64,192,29166,1,0,0:0:0:70:Clap.wav
448,192,29348,1,2,0:0:0:0:
320,192,29530,1,0,0:0:0:0:
64,192,29712,1,10,0:0:0:0:
192,192,29712,1,0,0:0:0:70:Clap.wav
448,192,29894,1,0,0:0:0:0:
64,192,30075,1,2,0:0:0:0:
192,192,30257,1,0,0:0:0:0:
448,192,30439,1,0,0:0:0:40:Clap.wav
320,192,30439,1,10,0:0:0:0:
64,192,30621,1,0,0:0:0:70:Clap.wav
192,192,30621,1,0,0:0:0:0:
448,192,30803,1,2,0:0:0:0:
320,192,30985,1,0,0:0:0:0:
192,192,31166,1,10,0:0:0:0:
64,192,31166,1,0,0:0:0:40:Clap.wav
320,192,31348,1,4,0:0:0:0:
448,192,31348,128,8,31712:0:0:0:0:
64,192,31712,1,0,0:0:0:0:
320,192,31894,1,10,0:0:0:0:
320,192,32075,1,8,0:0:0:0:
192,192,32257,1,2,0:0:0:0:
192,192,32439,1,0,0:0:0:0:
64,192,32621,1,2,0:0:0:0:
320,192,32621,128,0,32985:0:0:0:40:Clap.wav
448,192,32985,1,4,0:0:0:0:
64,192,32985,1,2,0:0:0:0:
192,192,33166,1,0,0:0:0:0:
448,192,33348,1,10,0:0:0:0:
320,192,33348,1,0,0:0:0:70:Clap.wav
64,192,33530,1,0,0:0:0:70:Clap.wav
192,192,33530,1,0,0:0:0:0:
448,192,33712,1,2,0:0:0:0:
320,192,33894,1,0,0:0:0:0:
64,192,34075,1,10,0:0:0:0:
192,192,34075,1,0,0:0:0:40:Clap.wav
448,192,34257,1,0,0:0:0:0:
64,192,34439,1,2,0:0:0:0:
192,192,34621,1,0,0:0:0:0:
448,192,34803,1,10,0:0:0:0:
320,192,34803,1,0,0:0:0:40:Clap.wav
64,192,34985,1,0,0:0:0:40:Clap.wav
192,192,34985,1,0,0:0:0:0:
448,192,35166,1,2,0:0:0:0:
320,192,35348,1,0,0:0:0:0:
192,192,35530,1,10,0:0:0:0:
64,192,35530,1,0,0:0:0:70:Clap.wav
448,192,35712,1,0,0:0:0:0:
64,192,35894,1,2,0:0:0:0:
192,192,36075,1,0,0:0:0:0:
320,192,36257,1,10,0:0:0:0:
448,192,36257,1,0,0:0:0:70:Clap.wav
64,192,36439,1,0,0:0:0:70:Clap.wav
192,192,36439,1,0,0:0:0:0:
448,192,36621,1,2,0:0:0:0:
320,192,36803,1,0,0:0:0:0:
64,192,36985,1,10,0:0:0:0:
192,192,36985,1,0,0:0:0:40:Clap.wav
448,192,37166,1,0,0:0:0:0:
64,192,37348,1,2,0:0:0:0:
192,192,37530,1,0,0:0:0:0:
320,192,37712,1,10,0:0:0:0:
448,192,37712,1,0,0:0:0:40:Clap.wav
192,192,37894,1,0,0:0:0:40:Clap.wav
64,192,37894,1,0,0:0:0:0:
448,192,38075,1,2,0:0:0:0:
320,192,38257,1,0,0:0:0:0:
192,192,38439,1,0,0:0:0:40:Clap.wav
64,192,38439,1,10,0:0:0:0:
320,192,38621,1,8,0:0:0:0:
192,192,38712,1,8,0:0:0:0:
64,192,38803,1,2,0:0:0:0:
448,192,38803,1,0,0:0:0:0:
320,192,38985,1,0,0:0:0:0:
192,192,39166,1,10,0:0:0:0:
64,192,39166,1,0,0:0:0:40:Clap.wav
448,192,39348,1,0,0:0:0:40:Clap.wav
320,192,39348,1,0,0:0:0:0:
64,192,39530,1,2,0:0:0:0:
192,192,39712,1,0,0:0:0:0:
320,192,39894,1,0,0:0:0:40:Clap.wav
448,192,39894,1,10,0:0:0:0:
64,192,40075,1,0,0:0:0:0:
448,192,40257,1,2,0:0:0:0:
320,192,40439,1,0,0:0:0:0:
192,192,40621,1,10,0:0:0:0:
64,192,40621,1,0,0:0:0:40:Clap.wav
320,192,40803,1,0,0:0:0:0:
448,192,40803,1,0,0:0:0:70:Clap.wav
64,192,40985,1,2,0:0:0:0:
192,192,41166,1,0,0:0:0:0:
448,192,41348,1,10,0:0:0:0:
320,192,41348,1,0,0:0:0:70:Clap.wav
64,192,41530,1,0,0:0:0:0:
448,192,41712,1,2,0:0:0:0:
320,192,41894,1,0,0:0:0:0:
64,192,42075,1,0,0:0:0:40:Clap.wav
192,192,42075,1,10,0:0:0:0:
320,192,42257,1,0,0:0:0:0:
448,192,42257,1,0,0:0:0:40:Clap.wav
64,192,42439,1,2,0:0:0:0:
192,192,42621,1,0,0:0:0:0:
320,192,42803,1,10,0:0:0:0:
448,192,42803,1,0,0:0:0:40:Clap.wav
64,192,42985,1,8,0:0:0:0:
448,192,42985,128,4,43712:0:0:0:0:
192,192,43166,1,2,0:0:0:0:
320,192,43530,1,10,0:0:0:0:
64,192,43712,128,8,44257:0:0:0:0:
192,192,43712,1,0,0:0:0:70:Crash left.wav
320,192,44075,1,0,0:0:0:0:
448,192,44257,1,10,0:0:0:0:
320,192,44348,1,8,0:0:0:0:
192,192,44439,1,0,0:0:0:70:Tom2.wav
448,192,44621,1,4,0:0:0:0:
64,192,44621,1,2,0:0:0:0:
192,192,44985,1,0,0:0:0:0:
320,192,45166,1,2,0:0:0:0:
448,192,45166,1,0,0:0:0:0:
64,192,45348,1,2,0:0:0:0:
192,192,45348,1,0,0:0:0:0:
64,192,45712,1,8,0:0:0:0:
448,192,45712,1,0,0:0:0:70:Clap.wav
192,192,45894,1,0,0:0:0:0:
64,192,45894,128,2,46075:0:0:0:0:
192,192,46257,128,2,46439:0:0:0:0:
320,192,46257,1,0,0:0:0:0:
64,192,46621,1,2,0:0:0:0:
320,192,46621,128,0,46803:0:0:0:0:
192,192,46803,1,2,0:0:0:0:
448,192,46803,1,0,0:0:0:0:
448,192,47166,1,8,0:0:0:0:
64,192,47166,1,0,0:0:0:40:Clap.wav
192,192,47348,128,0,47530:0:0:0:0:
320,192,47530,1,2,0:0:0:0:
448,192,47530,128,0,47712:0:0:0:0:
64,192,47894,1,0,0:0:0:0:
320,192,48075,128,2,48257:0:0:0:0:
448,192,48075,1,0,0:0:0:0:
64,192,48257,128,2,48439:0:0:0:0:
192,192,48257,1,0,0:0:0:0:
320,192,48621,1,8,0:0:0:0:
448,192,48621,128,0,48803:0:0:0:0:
64,192,48803,128,2,48985:0:0:0:0:
192,192,48803,1,0,0:0:0:0:
192,192,49166,128,2,49348:0:0:0:0:
320,192,49166,1,0,0:0:0:0:
320,192,49530,128,2,49712:0:0:0:0:
448,192,49530,1,0,0:0:0:0:
64,192,49712,128,2,49894:0:0:0:0:
192,192,49712,1,0,0:0:0:0:
448,192,49894,1,8,0:0:0:0:
320,192,50075,1,8,0:0:0:0:
192,192,50257,1,2,0:0:0:0:
448,192,50439,1,4,0:0:0:0:
64,192,50439,1,2,0:0:0:0:
320,192,50803,1,0,0:0:0:0:
64,192,50985,1,2,0:0:0:0:
192,192,50985,1,0,0:0:0:0:
448,192,51166,1,2,0:0:0:0:
320,192,51166,1,0,0:0:0:0:
64,192,51530,1,8,0:0:0:0:
448,192,51530,1,0,0:0:0:40:Clap.wav
320,192,51712,1,2,0:0:0:0:
448,192,51712,128,0,51894:0:0:0:0:
192,192,52075,1,2,0:0:0:0:
320,192,52075,128,0,52257:0:0:0:0:
64,192,52439,1,2,0:0:0:0:
192,192,52439,128,0,52621:0:0:0:0:
320,192,52621,1,2,0:0:0:0:
448,192,52621,128,0,52985:0:0:0:0:
64,192,52985,1,8,0:0:0:0:
192,192,52985,1,0,0:0:0:0:
448,192,53166,1,8,0:0:0:0:
320,192,53257,1,8,0:0:0:0:
64,192,53348,1,2,0:0:0:0:
192,192,53348,1,4,0:0:0:0:
320,192,53712,1,10,0:0:0:0:
448,192,53712,1,0,0:0:0:40:Clap.wav
64,192,53894,1,8,0:0:0:0:
192,192,53894,1,0,0:0:0:0:
448,192,54075,1,0,0:0:0:0:
64,192,54257,1,2,0:0:0:0:
320,192,54257,1,0,0:0:0:0:
192,192,54439,1,8,0:0:0:0:
448,192,54439,1,0,0:0:0:0:
64,192,54621,1,0,0:0:0:0:
320,192,54803,1,2,0:0:0:0:
448,192,54803,1,0,0:0:0:0:
192,192,55166,1,8,0:0:0:0:
64,192,55166,1,0,0:0:0:40:Clap.wav
448,192,55348,1,8,0:0:0:0:
320,192,55348,1,0,0:0:0:0:
64,192,55530,1,0,0:0:0:0:
448,192,55712,1,2,0:0:0:0:
192,192,55712,1,0,0:0:0:0:
320,192,55894,1,8,0:0:0:0:
64,192,55894,1,0,0:0:0:0:
448,192,56075,1,0,0:0:0:0:
64,192,56257,1,2,0:0:0:0:
192,192,56257,1,4,0:0:0:0:
192,192,56439,1,2,0:0:0:0:
320,192,56621,1,8,0:0:0:0:
448,192,56621,1,0,0:0:0:0:
320,192,56803,1,2,0:0:0:0:
64,192,56985,1,8,0:0:0:0:
192,192,56985,1,0,0:0:0:0:
64,192,57166,1,2,0:0:0:0:
320,192,57348,1,8,0:0:0:0:
448,192,57348,1,0,0:0:0:0:
448,192,57530,1,2,0:0:0:0:
64,192,57712,128,8,58075:0:0:0:0:
320,192,57894,1,2,0:0:0:0:
192,192,58075,128,2,58439:0:0:0:0:
448,192,58257,1,8,0:0:0:0:
320,192,58439,128,2,58803:0:0:0:0:
64,192,58621,1,2,0:0:0:0:
448,192,58803,128,8,59166:0:0:0:0:
192,192,58985,1,2,0:0:0:0:
64,192,59166,128,2,59712:0:0:0:0:
320,192,59166,1,4,0:0:0:0:
320,192,60075,1,8,0:0:0:0:
448,192,60075,1,0,0:0:0:0:
320,192,60257,1,8,0:0:0:0:
448,192,60257,1,0,0:0:0:0:
64,192,60439,1,8,0:0:0:0:
192,192,60530,1,8,0:0:0:0:
320,192,60621,1,2,0:0:0:0:
448,192,60621,1,4,0:0:0:0:
64,192,60985,1,2,0:0:0:0:
192,192,60985,1,0,0:0:0:70:Crash left.wav
320,192,61166,1,8,0:0:0:0:
64,192,61348,1,2,0:0:0:0:
448,192,61348,1,0,0:0:0:0:
320,192,61712,128,8,61894:0:0:0:0:
192,192,61712,128,2,61894:0:0:0:0:
64,192,62075,1,2,0:0:0:0:
448,192,62075,1,0,0:0:0:0:
320,192,62439,1,8,0:0:0:0:
448,192,62439,1,2,0:0:0:0:
192,192,62621,1,8,0:0:0:0:
64,192,62803,1,2,0:0:0:0:
448,192,62803,1,0,0:0:0:0:
192,192,63166,128,2,63348:0:0:0:0:
320,192,63166,128,8,63348:0:0:0:0:
64,192,63530,128,2,63894:0:0:0:0:
448,192,63530,1,0,0:0:0:0:
192,192,63894,1,8,0:0:0:0:
448,192,63894,128,2,64257:0:0:0:0:
320,192,64075,1,8,0:0:0:0:
192,192,64257,1,2,0:0:0:0:
64,192,64257,128,0,64621:0:0:0:0:
320,192,64621,1,8,0:0:0:0:
448,192,64621,128,2,64985:0:0:0:0:
192,192,64985,128,2,65348:0:0:0:0:
64,192,64985,1,0,0:0:0:0:
448,192,65348,1,8,0:0:0:0:
320,192,65348,1,2,0:0:0:0:
64,192,65530,1,8,0:0:0:0:
448,192,65712,1,2,0:0:0:0:
448,192,65894,1,0,0:0:0:0:
192,192,66075,1,10,0:0:0:0:
192,192,66257,1,0,0:0:0:0:
448,192,66439,1,2,0:0:0:0:
64,192,66439,128,4,66985:0:0:0:0:
448,192,66803,1,8,0:0:0:0:
320,192,66803,1,2,0:0:0:0:
192,192,66985,1,8,0:0:0:0:
320,192,67166,128,2,67530:0:0:0:0:
448,192,67166,1,0,0:0:0:0:
192,192,67530,1,8,0:0:0:0:
64,192,67530,128,2,67894:0:0:0:0:
320,192,67894,128,2,68257:0:0:0:0:
192,192,67894,1,0,0:0:0:0:
448,192,68257,1,2,0:0:0:0:
64,192,68257,128,8,68621:0:0:0:0:
192,192,68439,1,8,0:0:0:0:
448,192,68621,128,2,68985:0:0:0:0:
320,192,68621,1,0,0:0:0:0:
192,192,68985,1,8,0:0:0:0:
64,192,68985,128,2,69348:0:0:0:0:
448,192,69348,1,2,0:0:0:0:
320,192,69348,1,0,0:0:0:0:
64,192,69530,1,0,0:0:0:0:
320,192,69712,1,8,0:0:0:0:
448,192,69712,1,2,0:0:0:0:
192,192,69894,1,8,0:0:0:0:
448,192,70075,1,0,0:0:0:0:
320,192,70075,1,2,0:0:0:0:
64,192,70257,1,0,0:0:0:0:
448,192,70439,1,2,0:0:0:0:
192,192,70439,1,8,0:0:0:0:
320,192,70621,1,4,0:0:0:0:
64,192,70621,1,8,0:0:0:0:
448,192,70803,1,2,0:0:0:0:
64,192,71166,1,2,0:0:0:0:
192,192,71166,128,8,71348:0:0:0:0:
320,192,71348,1,0,0:0:0:70:Crash left.wav
448,192,71348,128,8,71530:0:0:0:0:
64,192,71530,128,2,71712:0:0:0:0:
320,192,71712,128,0,71894:0:0:0:0:
64,192,71894,1,8,0:0:0:0:
448,192,71894,128,2,72257:0:0:0:0:
64,192,72257,1,2,0:0:0:0:
192,192,72257,1,4,0:0:0:0:
320,192,72621,1,8,0:0:0:0:
448,192,72621,1,2,0:0:0:0:
192,192,72803,1,8,0:0:0:0:
64,192,72985,1,2,0:0:0:0:
448,192,72985,1,0,0:0:0:0:
192,192,73348,128,2,73530:0:0:0:0:
320,192,73348,128,8,73530:0:0:0:0:
64,192,73712,1,2,0:0:0:0:
448,192,73712,1,0,0:0:0:0:
64,192,74075,1,8,0:0:0:0:
192,192,74075,1,2,0:0:0:0:
320,192,74257,1,8,0:0:0:0:
64,192,74439,1,2,0:0:0:0:
448,192,74439,1,0,0:0:0:0:
320,192,74803,128,8,74985:0:0:0:0:
192,192,74803,128,2,74985:0:0:0:0:
448,192,75166,128,2,75530:0:0:0:0:
64,192,75166,1,0,0:0:0:0:
320,192,75530,1,8,0:0:0:0:
64,192,75530,128,2,75894:0:0:0:0:
192,192,75712,1,8,0:0:0:0:
320,192,75894,1,2,0:0:0:0:
448,192,75894,128,0,76257:0:0:0:0:
192,192,76257,1,8,0:0:0:0:
64,192,76257,128,2,76621:0:0:0:0:
320,192,76621,128,2,76985:0:0:0:0:
448,192,76621,1,0,0:0:0:0:
64,192,76985,1,8,0:0:0:0:
192,192,76985,1,2,0:0:0:0:
448,192,77166,1,8,0:0:0:0:
64,192,77348,1,2,0:0:0:0:
64,192,77530,1,0,0:0:0:0:
320,192,77712,1,10,0:0:0:0:
320,192,77894,1,8,0:0:0:0:
64,192,78075,1,2,0:0:0:0:
448,192,78075,128,4,78621:0:0:0:0:
64,192,78439,1,8,0:0:0:0:
192,192,78439,1,2,0:0:0:0:
320,192,78621,1,8,0:0:0:0:
192,192,78803,128,2,79166:0:0:0:0:
64,192,78803,1,0,0:0:0:0:
320,192,79166,1,8,0:0:0:0:
448,192,79166,128,2,79530:0:0:0:0:
192,192,79530,128,2,79894:0:0:0:0:
320,192,79530,1,0,0:0:0:0:
64,192,79894,1,2,0:0:0:0:
448,192,79894,128,8,80257:0:0:0:0:
320,192,80075,1,8,0:0:0:0:
64,192,80257,128,2,80621:0:0:0:0:
192,192,80257,1,0,0:0:0:0:
320,192,80621,1,8,0:0:0:0:
448,192,80621,128,2,80985:0:0:0:0:
64,192,80985,1,2,0:0:0:0:
192,192,80985,1,4,0:0:0:0:
448,192,81166,1,2,0:0:0:0:
192,192,81348,1,8,0:0:0:0:
64,192,81348,1,0,0:0:0:0:
320,192,81530,1,2,0:0:0:0:
64,192,81712,1,8,0:0:0:0:
192,192,81712,1,0,0:0:0:0:
448,192,81894,1,2,0:0:0:0:
64,192,82075,1,0,0:0:0:0:
320,192,82075,1,8,0:0:0:0:
192,192,82257,128,2,82621:0:0:0:0:
448,192,82257,128,0,82621:0:0:0:70:Crash left.wav
64,192,82803,1,0,0:0:0:0:
64,192,82985,1,0,0:0:0:0:
448,192,83166,1,8,0:0:0:0:
320,192,83257,1,8,0:0:0:0:
192,192,83348,1,0,0:0:0:70:Tom1.wav
64,192,83530,1,0,0:0:0:70:Tom2.wav
192,192,83621,1,0,0:0:0:70:Tom2.wav
320,192,83712,1,0,0:0:0:70:Tom1.wav
64,192,83894,1,4,0:0:0:0:
192,192,83894,1,2,0:0:0:0:
448,192,84257,1,8,0:0:0:0:
320,192,84257,1,0,0:0:0:0:
192,192,84439,1,8,0:0:0:0:
64,192,84439,1,0,0:0:0:40:Clap.wav
192,192,84803,1,2,0:0:0:0:
320,192,84803,1,0,0:0:0:0:
64,192,84985,1,8,0:0:0:0:
448,192,84985,1,0,0:0:0:40:Clap.wav
192,192,85166,1,0,0:0:0:0:
320,192,85348,1,2,0:0:0:0:
448,192,85348,1,0,0:0:0:0:
320,192,85530,1,2,0:0:0:0:
448,192,85530,1,0,0:0:0:0:
192,192,85712,1,8,0:0:0:0:
64,192,85712,1,0,0:0:0:40:Clap.wav
448,192,85894,1,2,0:0:0:0:
320,192,85894,128,0,86075:0:0:0:0:
64,192,86075,128,8,86257:0:0:0:0:
448,192,86257,128,0,86439:0:0:0:70:soft-hitclap.wav
192,192,86439,128,8,86621:0:0:0:0:
64,192,86621,128,0,86803:0:0:0:70:soft-hitclap.wav
448,192,86803,128,2,89348:0:0:0:0:
320,192,86803,128,4,89348:0:0:0:0:
