osu file format v14

[General]
AudioFilename: audio.mp3
AudioLeadIn: 0
PreviewTime: 2803
Countdown: 0
SampleSet: Soft
StackLeniency: 0.7
Mode: 3
LetterboxInBreaks: 0
EpilepsyWarning: 1
SpecialStyle: 0
WidescreenStoryboard: 1

[Editor]
DistanceSpacing: 1.2
BeatDivisor: 4
GridSize: 4
TimelineZoom: 1.6

[Metadata]
Title:Girlish Lover (TV Size)
TitleUnicode:Girlish Lover (TV Size)
Artist:Mizukara o Enshutsu Suru Otome no Kai
ArtistUnicode:自らを演出する乙女の会
Creator:Sun
Version:Feru's 7K EZ
Source:俺の彼女と幼なじみが修羅場すぎる
Tags:eli elinor [_eli_] Daeng Simatta Feerum Remuring Paran Nabi- Syadow- Ore no Kanojo to Osananajimi ga Shuraba Sugiru OreShura Opening op pop jpop j-pop anime japanese 春咲千和 Harusaki Chiwa 夏川真涼 Natsukawa Masuzu 秋篠姫香 Akishino Himeka 冬海愛衣 Fuyuumi Ai 赤﨑千夏 Akasaki Chinatsu 田村ゆかり Tamura Yukari 金元寿子 Kanemoto Hisako 茅野愛衣 Kayano
BeatmapID:2560420
BeatmapSetID:1231682

[Difficulty]
HPDrainRate:7
CircleSize:7
OverallDifficulty:7
ApproachRate:5
SliderMultiplier:1.4
SliderTickRate:1

[Events]
//Background and Video events
0,0,"BG.jpg",0,0
//Break Periods
//Storyboard Layer 0 (Background)
//Storyboard Layer 1 (Fail)
//Storyboard Layer 2 (Pass)
//Storyboard Layer 3 (Foreground)
//Storyboard Layer 4 (Overlay)
//Storyboard Sound Samples
Sample,1530,0,"Crash left.wav",70
Sample,2439,0,"Crash left.wav",70
Sample,16075,0,"Clap.wav",40
Sample,16621,0,"Clap.wav",40
Sample,17530,0,"Clap.wav",40
Sample,18075,0,"Clap.wav",40
Sample,18803,0,"Clap.wav",40
Sample,20621,0,"Tom3.wav",70
Sample,20803,0,"Tom3.wav",70
Sample,20985,0,"Tom3.wav",70
Sample,21712,0,"Clap.wav",40
Sample,22439,0,"Clap.wav",40
Sample,23166,0,"Clap.wav",40
Sample,23894,0,"Clap.wav",40
Sample,24621,0,"Clap.wav",40
Sample,25348,0,"Clap.wav",40
Sample,26075,0,"Clap.wav",40
Sample,26803,0,"Clap.wav",40
Sample,27530,0,"Clap.wav",40
Sample,28257,0,"Clap.wav",40
Sample,28985,0,"Clap.wav",40
Sample,29712,0,"Clap.wav",40
Sample,30439,0,"Clap.wav",40
Sample,31166,0,"Clap.wav",40
Sample,31894,0,"Clap.wav",40
Sample,32075,0,"Crash left.wav",70
Sample,32621,0,"Clap.wav",40
Sample,33348,0,"Clap.wav",40
Sample,34075,0,"Clap.wav",40
Sample,34803,0,"Clap.wav",40
Sample,35530,0,"Clap.wav",40
Sample,36257,0,"Clap.wav",40
Sample,36985,0,"Clap.wav",40
Sample,37712,0,"Clap.wav",40
Sample,38439,0,"Clap.wav",40
Sample,39166,0,"Clap.wav",40
Sample,39894,0,"Clap.wav",40
Sample,41348,0,"Clap.wav",40
Sample,42075,0,"Clap.wav",40
Sample,43712,0,"Crash left.wav",70
Sample,45712,0,"Clap.wav",40
Sample,47166,0,"Clap.wav",40
Sample,49894,0,"Tom3.wav",70
Sample,50075,0,"Tom3.wav",70
Sample,51530,0,"Clap.wav",40
Sample,53712,0,"Clap.wav",40
Sample,55166,0,"Clap.wav",40
Sample,60985,0,"Crash left.wav",70
Sample,71348,0,"Crash left.wav",70
Sample,84439,0,"Clap.wav",40
Sample,84985,0,"Clap.wav",40
Sample,85712,0,"Clap.wav",40

[TimingPoints]
985,363.636363636364,4,2,1,35,1,0
3894,-100,4,2,1,40,0,1
15530,-100,4,2,1,40,0,0
60621,-100,4,2,1,40,0,1
83166,-100,4,2,1,40,0,0

[HitObjects]
402,192,985,5,12,0:0:0:0:
109,192,1348,1,2,0:0:0:0:
402,192,1530,1,8,0:0:0:0:
109,192,1894,1,2,0:0:0:0:
402,192,2075,1,12,0:0:0:0:
256,192,2257,1,2,0:0:0:0:
182,192,2439,1,2,0:0:0:0:
329,192,2803,128,0,3166:0:0:0:0:
256,192,3166,128,0,3530:0:0:0:0:
182,192,3530,128,8,3894:0:0:0:0:
329,192,3894,1,2,0:0:0:0:
402,192,3894,1,4,0:0:0:0:
109,192,4257,1,10,0:0:0:0:
256,192,4439,1,8,0:0:0:0:
402,192,4621,1,2,0:0:0:0:
329,192,4985,1,10,0:0:0:0:
36,192,5166,1,0,0:0:0:0:
182,192,5530,1,0,0:0:0:0:
329,192,5712,1,10,0:0:0:0:
475,192,5894,1,8,0:0:0:0:
256,192,6075,1,2,0:0:0:0:
36,192,6439,1,10,0:0:0:0:
402,192,6803,128,2,7166:0:0:0:0:
109,192,7166,128,10,7530:0:0:0:0:
475,192,7530,128,2,7894:0:0:0:0:
36,192,7894,128,10,8257:0:0:0:0:
256,192,8257,128,2,8621:0:0:0:0:
402,192,8621,1,10,0:0:0:0:
109,192,8803,1,8,0:0:0:0:
329,192,8985,1,2,0:0:0:0:
182,192,9166,1,8,0:0:0:0:
256,192,9348,1,10,0:0:0:0:
36,192,9712,1,2,0:0:0:0:
475,192,9712,1,4,0:0:0:0:
402,192,10075,1,10,0:0:0:0:
109,192,10257,1,8,0:0:0:0:
329,192,10439,1,2,0:0:0:0:
182,192,10803,1,10,0:0:0:0:
402,192,11166,1,2,0:0:0:0:
329,192,11530,1,10,0:0:0:0:
256,192,11894,1,2,0:0:0:0:
182,192,12257,1,10,0:0:0:0:
109,192,12621,1,6,0:0:0:0:
402,192,12803,1,2,0:0:0:0:
256,192,12985,1,8,0:0:0:0:
329,192,13348,1,8,0:0:0:0:
182,192,13530,1,2,0:0:0:0:
109,192,13712,1,8,0:0:0:0:
256,192,13894,1,2,0:0:0:0:
402,192,13894,1,0,0:0:0:70:Crash left.wav
182,192,14439,128,0,14803:0:0:0:0:
402,192,14803,128,0,15166:0:0:0:0:
109,192,15166,128,8,15530:0:0:0:0:
256,192,15530,1,4,0:0:0:0:
475,192,15530,1,2,0:0:0:0:
329,192,15894,1,10,0:0:0:0:
109,192,16075,1,8,0:0:0:0:
182,192,16439,1,2,0:0:0:0:
402,192,16621,1,8,0:0:0:0:
256,192,16985,1,2,0:0:0:0:
329,192,17348,1,8,0:0:0:0:
36,192,17530,1,8,0:0:0:0:
109,192,17894,1,2,0:0:0:0:
475,192,18075,1,8,0:0:0:0:
329,192,18257,1,0,0:0:0:40:Clap.wav
182,192,18439,1,2,0:0:0:0:
256,192,18803,1,8,0:0:0:0:
402,192,18985,1,8,0:0:0:0:
329,192,19348,1,2,0:0:0:0:
109,192,19530,1,8,0:0:0:0:
182,192,19712,1,2,0:0:0:0:
475,192,19712,1,4,0:0:0:0:
36,192,20075,1,2,0:0:0:0:
329,192,20257,1,8,0:0:0:0:
109,192,20621,1,8,0:0:0:0:
402,192,20803,1,8,0:0:0:0:
109,192,20985,1,8,0:0:0:0:
182,192,21348,1,4,0:0:0:0:
329,192,21348,1,2,0:0:0:0:
256,192,21712,1,10,0:0:0:0:
109,192,21894,1,0,0:0:0:40:Clap.wav
402,192,22075,1,2,0:0:0:0:
36,192,22439,1,10,0:0:0:0:
182,192,22803,1,2,0:0:0:0:
329,192,23166,1,10,0:0:0:0:
109,192,23348,1,0,0:0:0:40:Clap.wav
475,192,23530,1,2,0:0:0:0:
182,192,23894,1,10,0:0:0:0:
402,192,24257,1,2,0:0:0:0:
36,192,24621,1,10,0:0:0:0:
329,192,24803,1,0,0:0:0:40:Clap.wav
182,192,24985,1,2,0:0:0:0:
402,192,25348,1,10,0:0:0:0:
109,192,25712,1,2,0:0:0:0:
475,192,26075,1,10,0:0:0:0:
329,192,26257,1,0,0:0:0:40:Clap.wav
182,192,26439,1,2,0:0:0:0:
256,192,26803,1,10,0:0:0:0:
109,192,27166,1,2,0:0:0:0:
402,192,27530,1,10,0:0:0:0:
182,192,27712,1,0,0:0:0:40:Clap.wav
329,192,27894,1,2,0:0:0:0:
36,192,28257,1,10,0:0:0:0:
256,192,28621,1,2,0:0:0:0:
475,192,28985,1,10,0:0:0:0:
109,192,29166,1,0,0:0:0:40:Clap.wav
329,192,29348,1,2,0:0:0:0:
256,192,29712,1,10,0:0:0:0:
36,192,30075,1,2,0:0:0:0:
402,192,30439,1,10,0:0:0:0:
109,192,30621,1,0,0:0:0:40:Clap.wav
182,192,30803,1,2,0:0:0:0:
329,192,31166,1,10,0:0:0:0:
36,192,31348,1,8,0:0:0:0:
475,192,31348,1,4,0:0:0:0:
256,192,31712,1,0,0:0:0:0:
402,192,31894,1,10,0:0:0:0:
182,192,32075,1,8,0:0:0:0:
329,192,32257,1,2,0:0:0:0:
109,192,32439,1,0,0:0:0:0:
256,192,32621,1,2,0:0:0:0:
329,192,32985,1,2,0:0:0:0:
402,192,32985,1,4,0:0:0:0:
109,192,33348,1,10,0:0:0:0:
475,192,33530,1,0,0:0:0:40:Clap.wav
256,192,33712,1,2,0:0:0:0:
182,192,34075,1,10,0:0:0:0:
329,192,34439,1,2,0:0:0:0:
36,192,34803,1,10,0:0:0:0:
402,192,34985,1,0,0:0:0:40:Clap.wav
182,192,35166,1,2,0:0:0:0:
256,192,35530,1,10,0:0:0:0:
109,192,35894,1,2,0:0:0:0:
182,192,36257,1,10,0:0:0:0:
475,192,36439,1,0,0:0:0:40:Clap.wav
329,192,36621,1,2,0:0:0:0:
36,192,36985,1,10,0:0:0:0:
109,192,37348,1,2,0:0:0:0:
402,192,37712,1,10,0:0:0:0:
256,192,37894,1,0,0:0:0:40:Clap.wav
109,192,38075,1,2,0:0:0:0:
475,192,38439,1,10,0:0:0:0:
256,192,38803,1,2,0:0:0:0:
109,192,39166,1,10,0:0:0:0:
182,192,39348,1,0,0:0:0:40:Clap.wav
402,192,39530,128,2,39894:0:0:0:0:
109,192,39894,128,10,40257:0:0:0:0:
329,192,40257,128,2,40803:0:0:0:0:
182,192,40803,128,0,41166:0:0:0:40:Clap.wav
402,192,41348,1,10,0:0:0:0:
109,192,41712,1,2,0:0:0:0:
256,192,42075,1,10,0:0:0:0:
475,192,42257,1,0,0:0:0:40:Clap.wav
36,192,42439,1,2,0:0:0:0:
182,192,42803,1,10,0:0:0:0:
329,192,42985,128,12,43348:0:0:0:0:
109,192,43348,1,0,0:0:0:0:
402,192,43530,1,10,0:0:0:0:
182,192,43712,128,8,44075:0:0:0:0:
402,192,44075,1,0,0:0:0:0:
109,192,44257,1,10,0:0:0:0:
256,192,44621,1,2,0:0:0:0:
475,192,44621,1,4,0:0:0:0:
36,192,44985,1,0,0:0:0:0:
402,192,45348,1,2,0:0:0:0:
109,192,45712,1,8,0:0:0:0:
329,192,45894,1,2,0:0:0:0:
256,192,46257,1,2,0:0:0:0:
402,192,46621,1,2,0:0:0:0:
109,192,46803,1,2,0:0:0:0:
475,192,47166,1,8,0:0:0:0:
182,192,47348,1,0,0:0:0:0:
329,192,47530,1,2,0:0:0:0:
329,192,48075,1,2,0:0:0:0:
182,192,48257,1,2,0:0:0:0:
109,192,48621,1,8,0:0:0:0:
402,192,48803,1,2,0:0:0:0:
256,192,49166,1,2,0:0:0:0:
329,192,49530,1,2,0:0:0:0:
475,192,49712,1,2,0:0:0:0:
182,192,49894,1,8,0:0:0:0:
36,192,50075,1,8,0:0:0:0:
109,192,50439,1,2,0:0:0:0:
402,192,50439,1,4,0:0:0:0:
182,192,50803,1,0,0:0:0:0:
329,192,51166,1,2,0:0:0:0:
109,192,51530,1,8,0:0:0:0:
402,192,51712,1,2,0:0:0:0:
256,192,52075,1,2,0:0:0:0:
109,192,52439,1,2,0:0:0:0:
329,192,52621,1,2,0:0:0:0:
256,192,52985,1,8,0:0:0:0:
182,192,53348,1,2,0:0:0:0:
475,192,53348,1,4,0:0:0:0:
109,192,53712,1,10,0:0:0:0:
329,192,53894,1,8,0:0:0:0:
256,192,54257,1,2,0:0:0:0:
36,192,54439,1,8,0:0:0:0:
402,192,54803,1,2,0:0:0:0:
109,192,55166,128,8,55530:0:0:0:0:
329,192,55530,128,0,55894:0:0:0:0:
182,192,55894,128,8,56257:0:0:0:0:
402,192,56257,128,6,57348:0:0:0:0:
36,192,57348,1,8,0:0:0:0:
109,192,57712,128,8,58075:0:0:0:0:
256,192,58075,128,2,58439:0:0:0:0:
402,192,58439,128,2,58803:0:0:0:0:
182,192,58803,128,8,59166:0:0:0:0:
109,192,59166,1,2,0:0:0:0:
402,192,59166,1,4,0:0:0:0:
256,192,60075,1,8,0:0:0:0:
109,192,60257,1,8,0:0:0:0:
402,192,60439,1,8,0:0:0:0:
36,192,60621,1,2,0:0:0:0:
182,192,60621,1,4,0:0:0:0:
329,192,60985,1,2,0:0:0:0:
109,192,61166,1,8,0:0:0:0:
475,192,61348,1,2,0:0:0:0:
182,192,61712,1,8,0:0:0:0:
402,192,61712,1,2,0:0:0:0:
329,192,62075,1,2,0:0:0:0:
109,192,62439,1,10,0:0:0:0:
475,192,62621,1,8,0:0:0:0:
182,192,62803,1,2,0:0:0:0:
36,192,63166,1,8,0:0:0:0:
329,192,63166,1,2,0:0:0:0:
256,192,63530,128,2,63894:0:0:0:0:
109,192,63894,128,10,64257:0:0:0:0:
402,192,64257,128,2,64621:0:0:0:0:
182,192,64621,128,10,64985:0:0:0:0:
329,192,64985,128,2,65530:0:0:0:0:
109,192,65530,1,8,0:0:0:0:
402,192,65712,128,2,66075:0:0:0:0:
182,192,66075,1,10,0:0:0:0:
329,192,66257,1,0,0:0:0:0:
36,192,66439,1,2,0:0:0:0:
475,192,66439,1,4,0:0:0:0:
109,192,66803,1,10,0:0:0:0:
256,192,66985,1,8,0:0:0:0:
402,192,67166,1,2,0:0:0:0:
182,192,67530,1,8,0:0:0:0:
329,192,67530,1,2,0:0:0:0:
109,192,67894,1,2,0:0:0:0:
475,192,68257,1,10,0:0:0:0:
256,192,68439,1,8,0:0:0:0:
36,192,68621,1,2,0:0:0:0:
109,192,68985,1,8,0:0:0:0:
402,192,68985,1,2,0:0:0:0:
329,192,69348,1,2,0:0:0:0:
256,192,69530,1,0,0:0:0:0:
182,192,69712,1,10,0:0:0:0:
36,192,70075,1,2,0:0:0:0:
182,192,70257,1,0,0:0:0:0:
329,192,70439,1,10,0:0:0:0:
109,192,70621,1,8,0:0:0:0:
475,192,70621,1,4,0:0:0:0:
402,192,71166,1,10,0:0:0:0:
182,192,71348,1,8,0:0:0:0:
329,192,71530,1,2,0:0:0:0:
109,192,71712,1,0,0:0:0:0:
256,192,71894,128,10,72257:0:0:0:0:
36,192,72257,1,2,0:0:0:0:
402,192,72257,1,4,0:0:0:0:
182,192,72621,1,10,0:0:0:0:
329,192,72803,1,8,0:0:0:0:
109,192,72985,1,2,0:0:0:0:
256,192,73348,1,8,0:0:0:0:
402,192,73348,1,2,0:0:0:0:
36,192,73712,1,2,0:0:0:0:
329,192,74075,1,10,0:0:0:0:
182,192,74257,1,8,0:0:0:0:
402,192,74439,1,2,0:0:0:0:
109,192,74803,1,8,0:0:0:0:
256,192,74803,1,2,0:0:0:0:
329,192,75166,128,2,75530:0:0:0:0:
182,192,75530,128,10,75894:0:0:0:0:
402,192,75894,128,2,76257:0:0:0:0:
109,192,76257,128,10,76621:0:0:0:0:
256,192,76621,128,2,77166:0:0:0:0:
109,192,77166,1,8,0:0:0:0:
475,192,77348,128,2,77712:0:0:0:0:
182,192,77712,1,10,0:0:0:0:
329,192,77894,1,8,0:0:0:0:
36,192,78075,1,2,0:0:0:0:
475,192,78075,1,4,0:0:0:0:
109,192,78439,1,10,0:0:0:0:
402,192,78621,1,8,0:0:0:0:
182,192,78803,1,2,0:0:0:0:
36,192,79166,1,8,0:0:0:0:
329,192,79166,1,2,0:0:0:0:
475,192,79530,1,2,0:0:0:0:
182,192,79894,1,10,0:0:0:0:
36,192,80075,1,8,0:0:0:0:
402,192,80257,1,2,0:0:0:0:
109,192,80621,1,8,0:0:0:0:
475,192,80621,1,2,0:0:0:0:
329,192,80985,1,6,0:0:0:0:
182,192,81166,1,2,0:0:0:0:
329,192,81348,1,8,0:0:0:0:
36,192,81712,1,8,0:0:0:0:
402,192,81894,1,2,0:0:0:0:
256,192,82075,1,8,0:0:0:0:
109,192,82257,1,2,0:0:0:0:
475,192,82257,1,0,0:0:0:70:Crash left.wav
182,192,82803,128,0,83166:0:0:0:0:
329,192,83166,128,8,83530:0:0:0:0:
109,192,83530,128,0,83894:0:0:0:70:Tom2.wav
256,192,83894,1,2,0:0:0:0:
402,192,83894,1,4,0:0:0:0:
182,192,84257,1,8,0:0:0:0:
329,192,84439,1,8,0:0:0:0:
256,192,84803,1,2,0:0:0:0:
36,192,84985,1,8,0:0:0:0:
402,192,85348,1,2,0:0:0:0:
182,192,85530,1,2,0:0:0:0:
329,192,85712,1,8,0:0:0:0:
109,192,85894,1,2,0:0:0:0:
256,192,86075,128,8,86803:0:0:0:0:
36,192,86803,1,2,0:0:0:0:
402,192,86803,1,4,0:0:0:0:
