osu file format v14

[General]
AudioFilename: audio.mp3
AudioLeadIn: 0
PreviewTime: 183963
Countdown: 0
SampleSet: Soft
StackLeniency: 0.6
Mode: 0
LetterboxInBreaks: 0
WidescreenStoryboard: 1

[Editor]
DistanceSpacing: 1.4
BeatDivisor: 4
GridSize: 32
TimelineZoom: 1.8

[Metadata]
Title:Girlish Lover
TitleUnicode:Girlish Lover
Artist:Mizukara o Enshutsu Suru Otome no Kai
ArtistUnicode:自らを演出する乙女の会
Creator:- Ex -
Version:Insane
Source:俺の彼女と幼なじみが修羅場すぎる
Tags:Ore no Kanojo to Osananajimi ga Shuraba Sugiru OreShura Opening op pop jpop j-pop anime japanese 春咲千和 Harusaki Chiwa 夏川真涼 Natsukawa Masuzu 秋篠姫香 Akishino Himeka 冬海愛衣 Fuyuumi Ai 赤﨑千夏 Akasaki Chinatsu 田村ゆかり Tamura Yukari 金元寿子 Kanemoto Hisako 茅野愛衣 Kayano full ver version female vocals vocalist -_ex_- l1ght_u light_u -hitomi lafayla terakomari
BeatmapID:4052224
BeatmapSetID:1956141

[Difficulty]
HPDrainRate:5
CircleSize:4
OverallDifficulty:8
ApproachRate:8.8
SliderMultiplier:1.6
SliderTickRate:1

[Events]
//Background and Video events
0,0,"bg.jpg",0,0
//Break Periods
2,90508,91515
//Storyboard Layer 0 (Background)
//Storyboard Layer 1 (Fail)
//Storyboard Layer 2 (Pass)
//Storyboard Layer 3 (Foreground)
//Storyboard Layer 4 (Overlay)
//Storyboard Sound Samples

[TimingPoints]
-4037,363.636363636364,4,2,1,50,1,0
1053,-100,4,2,1,50,0,0
1781,-100,4,2,1,70,0,0
3599,-100,4,2,1,55,0,0
4690,-100,4,2,3,80,0,1
4872,-100,4,2,1,80,0,1
14690,-100,4,2,1,80,0,0
22144,-111.111111111111,4,2,2,60,0,0
22417,-111.111111111111,4,2,1,60,0,0
33781,-100,4,2,1,70,0,0
45417,-125,4,2,1,60,0,0
54144,-111.111111111111,4,2,1,65,0,0
57053,-100,4,2,1,70,0,0
58508,-100,4,2,1,75,0,0
60326,-100,4,2,1,55,0,0
61417,-100,4,2,3,80,0,1
61599,-100,4,2,1,80,0,1
83053,-100,4,2,1,80,0,0
83599,-100,4,2,1,55,0,0
84690,-100,4,2,1,70,0,0
90508,-100,4,2,1,50,0,0
92144,-100,4,2,1,55,0,0
93417,-111.111111111111,4,2,2,60,0,0
93599,-111.111111111111,4,2,1,60,0,0
102144,-100,4,2,1,70,0,0
113781,-125,4,2,1,60,0,0
122508,-111.111111111111,4,2,1,65,0,0
125417,-100,4,2,1,70,0,0
126872,-100,4,2,1,75,0,0
129781,-100,4,2,3,80,0,1
129963,-100,4,2,1,80,0,1
151417,-100,4,2,1,80,0,0
151963,-100,4,2,1,55,0,0
153053,-100,4,2,1,70,0,0
161781,-100,4,2,1,75,0,0
167053,-125,4,2,1,65,0,0
167599,-111.111111111111,4,2,2,55,0,0
167781,-111.111111111111,4,2,1,55,0,0
173417,-111.111111111111,4,2,1,60,0,0
176326,-111.111111111111,4,2,1,65,0,0
179235,-100,4,2,1,70,0,0
180690,-100,4,2,1,75,0,0
183963,-111.111111111111,4,2,1,60,0,0
184326,-125,4,2,1,50,0,0
184690,-142.857142857143,4,2,1,40,0,0
184963,-142.857142857143,4,2,1,5,0,0
185053,-125,4,2,2,60,0,0
185144,-125,4,2,1,60,0,0
187963,-117.647058823529,4,2,1,65,0,0
188690,-111.111111111111,4,2,1,65,0,0
189417,-105.263157894737,4,2,1,70,0,0
190872,-100,4,2,3,80,0,1
190963,-100,4,2,1,80,0,1
206690,-100,4,2,1,80,0,0
207235,-100,4,2,1,55,0,0
208326,-100,4,2,1,70,0,0
222872,-100,4,2,2,70,0,0
230144,-100,4,2,2,5,0,0

[Colours]
Combo1 : 174,255,174
Combo2 : 221,187,255
Combo3 : 251,191,242
Combo4 : 192,192,192
Combo5 : 128,128,128
Combo6 : 255,255,128

[HitObjects]
30,143,1053,37,8,0:0:0:0:
30,143,1144,1,8,3:0:0:0:
30,143,1235,1,4,3:0:0:0:
30,143,1326,1,2,3:0:0:0:
30,143,1417,2,0,P|80:130|121:123,1,80,12|0,0:0|1:0,0:0:0:0:
257,133,1781,5,12,0:0:0:0:
253,257,1963,1,0,1:0:0:0:
352,203,2144,1,0,1:0:0:0:
167,171,2326,2,0,P|160:116|159:72,1,80,12|0,0:0|1:0,0:0:0:0:
295,125,2690,1,0,1:0:0:0:
108,272,2872,69,12,0:0:0:0:
263,229,3053,1,0,1:0:0:0:
48,172,3235,1,4,1:2:0:0:
377,7,4144,5,0,1:0:0:0:
377,7,4235,1,0,1:0:0:0:
377,7,4326,2,0,P|362:63|351:95,1,80,14|0,0:0|0:0,0:0:0:0:
275,222,4690,38,0,P|218:208|193:206,1,80,4|0,1:0|0:0,0:0:0:0:
304,369,5053,1,10,0:0:0:0:
378,226,5235,1,10,0:0:0:0:
408,349,5417,1,2,1:2:0:0:
243,308,5599,1,0,0:0:0:0:
419,212,5781,1,10,0:0:0:0:
254,131,5963,6,0,P|243:92|238:52,1,80,2|0,0:0|1:2,0:0:0:0:
414,162,6326,1,2,0:0:0:0:
258,234,6508,1,10,0:0:0:0:
384,287,6690,1,10,0:0:0:0:
336,73,6872,2,0,P|264:37|163:72,1,160,2|14,1:2|0:0,0:0:0:0:
119,132,7417,1,0,1:2:0:0:
199,247,7599,70,0,P|236:259|277:264,1,80,4|0,1:0|0:0,0:0:0:0:
452,176,7963,1,10,0:0:0:0:
274,128,8144,1,10,0:0:0:0:
387,61,8326,1,2,1:2:0:0:
365,231,8508,1,2,0:2:0:0:
365,231,8599,1,2,0:2:0:0:
365,231,8690,2,0,L|348:311,1,80,10|0,0:2|0:0,0:0:0:0:
274,128,9053,6,0,L|291:48,1,80,2|0,1:2|0:0,0:0:0:0:
164,70,9417,1,10,0:0:0:0:
341,214,9599,1,10,0:0:0:0:
341,214,9690,1,0,3:2:0:0:
341,214,9781,1,2,1:2:0:0:
413,94,9963,1,10,0:0:0:0:
207,216,10144,1,10,0:0:0:0:
396,363,10326,1,8,0:0:0:0:
503,194,10508,70,0,B|446:169|384:200|384:200|342:161,1,160,4|8,1:0|0:0,0:0:0:0:
222,62,11053,1,8,0:0:0:0:
136,119,11235,2,0,P|94:131|38:143,1,80,2|0,1:2|3:0,0:0:0:0:
173,260,11599,2,0,P|211:250|250:239,1,80,10|0,0:0|0:0,0:0:0:0:
36,296,11963,6,0,P|46:246|53:184,1,80,2|0,1:2|0:0,0:0:0:0:
203,369,12326,2,0,P|193:319|186:257,1,80,10|8,0:0|0:0,0:0:0:0:
256,130,12690,1,2,1:2:0:0:
331,254,12872,1,0,0:0:0:0:
400,58,13053,1,8,0:0:0:0:
512,205,13235,69,2,0:2:0:0:
512,205,13326,1,2,0:2:0:0:
512,205,13417,2,0,P|467:216|415:225,1,80,4|2,1:0|1:2,0:0:0:0:
184,155,13781,1,10,0:0:0:0:
356,60,13963,1,0,1:0:0:0:
227,15,14145,1,10,0:0:0:0:
257,234,14327,1,0,1:0:0:0:
404,139,14509,1,10,0:0:0:0:
123,65,14690,5,4,1:2:0:0:
101,222,15781,69,8,0:0:0:0:
190,312,15963,1,10,0:0:0:0:
190,312,16053,1,10,0:0:0:0:
190,312,16144,1,10,0:0:0:0:
190,312,16235,1,10,0:0:0:0:
190,312,16326,6,0,P|258:329|352:276,1,160,4|8,1:0|0:0,0:0:0:0:
454,219,16872,2,0,P|388:203|364:197,1,80,8|0,0:0|0:0,0:0:0:0:
251,162,17235,1,0,1:0:0:0:
373,93,17417,1,8,0:0:0:0:
283,42,17599,1,0,0:0:0:0:
251,162,17781,70,0,P|246:221|237:271,1,80,0|0,1:0|0:0,0:0:0:0:
150,332,18144,1,8,0:0:0:0:
52,197,18326,2,0,B|18:134|46:72|46:72|81:101,1,160,8|0,0:0|1:0,0:0:0:0:
151,157,18872,1,8,0:0:0:0:
217,9,19053,1,8,0:0:0:0:
364,53,19235,6,0,P|403:60|444:61,1,80,0|0,1:0|0:0,0:0:0:0:
339,160,19599,1,8,0:0:0:0:
422,298,19781,2,0,P|449:229|413:130,1,160,8|0,0:0|1:0,0:0:0:0:
249,22,20326,2,0,P|239:70|232:118,1,80,8|0,0:0|1:0,0:0:0:0:
190,296,20690,69,0,1:0:0:0:
329,217,20872,1,0,1:0:0:0:
120,135,21053,1,8,0:0:0:0:
120,135,21417,5,8,0:0:0:0:
332,30,21599,1,8,0:0:0:0:
280,301,21781,2,0,P|283:340|292:380,1,80,10|0,0:0|0:0,0:0:0:0:
435,372,22144,6,0,P|453:290|430:211,1,143.999995605469,4|8,1:2|0:0,0:0:0:0:
431,129,22690,2,0,P|471:122|520:109,1,71.9999978027344,2|0,0:0|1:0,0:0:0:0:
417,43,23053,2,0,P|377:50|328:63,1,71.9999978027344,2|8,0:0|0:0,0:0:0:0:
239,65,23417,1,2,0:0:0:0:
247,190,23599,6,0,B|185:178|141:204|141:204|101:176,1,143.999995605469,0|8,1:0|0:0,0:0:0:0:
204,291,24144,1,0,3:0:0:0:
107,338,24326,2,0,P|65:350|9:362,1,71.9999978027344,0|0,1:0|0:0,0:0:0:0:
53,252,24690,1,8,0:0:0:0:
53,252,24872,1,0,0:0:0:0:
204,291,25053,70,0,P|268:309|353:280,1,143.999995605469,0|8,1:0|0:0,0:0:0:0:
412,202,25599,2,0,P|354:190|322:185,1,71.9999978027344,0|0,3:0|1:0,0:0:0:0:
207,156,25963,1,0,0:0:0:0:
329,80,26144,1,8,0:0:0:0:
239,13,26326,5,0,0:0:0:0:
239,13,26508,2,0,P|229:66|218:111,1,71.9999978027344,0|0,1:0|0:0,0:0:0:0:
203,188,26872,1,8,0:0:0:0:
56,136,27053,2,0,B|34:189|59:246|59:246|25:272,1,143.999995605469,0|2,3:0|0:0,0:0:0:0:
137,343,27599,2,0,P|150:282|155:256,1,71.9999978027344,10|2,0:2|0:0,0:0:0:0:
240,188,27963,70,0,P|314:180|391:166,1,143.999995605469,0|8,1:0|0:0,0:0:0:0:
453,87,28508,1,0,3:0:0:0:
372,18,28690,2,0,P|362:54|347:97,1,71.9999978027344,2|0,1:2|0:0,0:0:0:0:
445,235,29053,2,0,P|433:200|423:166,1,71.9999978027344,10|0,0:0|0:0,0:0:0:0:
321,303,29417,6,0,P|253:319|189:289,1,143.999995605469,2|8,1:2|0:0,0:0:0:0:
134,179,29963,1,2,3:2:0:0:
77,251,30144,2,0,P|26:258|-11:261,1,71.9999978027344,0|0,1:0|0:0,0:0:0:0:
60,129,30508,1,8,0:0:0:0:
220,136,30690,69,2,0:2:0:0:
220,136,30781,1,2,0:2:0:0:
220,136,30872,2,0,P|231:187|234:208,1,71.9999978027344,2|0,1:2|0:0,0:0:0:0:
59,108,31235,1,10,0:0:0:0:
191,49,31417,1,0,3:0:0:0:
98,22,31599,1,2,1:2:0:0:
134,179,31781,1,0,0:0:0:0:
220,42,31963,1,8,0:0:0:0:
338,213,32144,6,0,P|401:244|491:213,1,143.999995605469,14|2,0:0|3:2,0:0:0:0:
363,55,32690,1,0,1:0:0:0:
261,227,32872,1,12,0:0:0:0:
225,93,33054,1,0,1:0:0:0:
420,158,33235,1,8,0:0:0:0:
334,338,33417,1,8,0:0:0:0:
311,355,33507,1,8,3:0:0:0:
284,366,33598,1,4,3:0:0:0:
256,369,33689,1,2,3:0:0:0:
227,365,33781,6,0,P|176:358|139:355,1,80,4|0,1:0|0:0,0:0:0:0:
261,227,34144,1,10,0:0:0:0:
356,259,34326,2,0,P|407:266|444:269,1,80,10|0,0:0|1:0,0:0:0:0:
335,97,34690,2,0,P|340:136|350:175,1,80,2|8,0:0|0:0,0:0:0:0:
418,39,35053,6,0,P|346:3|245:38,1,160,2|0,0:0|0:0,0:0:0:0:
153,136,35599,2,0,P|102:143|65:146,1,80,8|8,0:0|0:0,0:0:0:0:
108,53,35963,1,2,1:2:0:0:
216,201,36144,1,0,0:0:0:0:
353,111,36326,2,0,P|404:118|441:121,1,80,10|0,0:0|0:0,0:0:0:0:
511,283,36690,70,0,B|449:264|395:298|395:298|352:262,1,160,2|10,1:2|0:0,0:0:0:0:
216,201,37235,1,10,0:0:0:0:
169,302,37417,2,0,P|182:363|185:388,1,80,0|0,1:0|0:0,0:0:0:0:
45,273,37781,1,8,0:0:0:0:
186,198,37963,1,0,0:0:0:0:
83,158,38144,6,0,P|69:96|66:71,1,80,0|2,1:0|0:2,0:0:0:0:
66,79,38417,1,2,0:2:0:0:
66,79,38508,1,10,0:2:0:0:
186,198,38690,1,8,0:0:0:0:
233,68,38872,1,0,1:0:0:0:
369,196,39053,2,0,P|420:203|457:206,1,80,2|8,0:0|0:0,0:0:0:0:
512,44,39417,69,8,0:0:0:0:
512,44,39508,1,8,0:0:0:0:
512,44,39599,2,0,P|447:7|352:23,1,160,2|8,1:2|0:0,0:0:0:0:
270,70,40144,1,8,0:0:0:0:
369,196,40326,2,0,P|420:203|457:206,1,80,2|0,1:2|0:0,0:0:0:0:
270,70,40690,2,0,P|230:66|190:60,1,80,10|0,0:0|3:0,0:0:0:0:
5,20,41053,6,0,P|16:75|23:106,1,80,2|0,1:2|0:0,0:0:0:0:
59,287,41417,1,8,0:0:0:0:
6,197,41599,2,0,P|76:187|158:229,1,160,10|0,0:0|0:0,0:0:0:0:
240,320,42144,1,8,0:0:0:0:
287,149,42326,69,2,0:2:0:0:
287,149,42417,1,2,0:2:0:0:
287,149,42508,2,0,P|275:74|260:-11,1,160,6|8,1:2|0:0,0:0:0:0:
375,67,43053,1,8,0:0:0:0:
191,161,43235,2,0,P|151:157|111:151,1,80,2|0,1:2|3:0,0:0:0:0:
21,98,43599,1,8,0:0:0:0:
103,286,43781,6,0,P|161:292|251:241,1,160,12|2,0:0|0:0,0:0:0:0:
305,149,44326,1,0,1:2:0:0:
431,302,44508,2,0,P|425:341|415:380,1,80,12|0,0:0|1:0,0:0:0:0:
315,284,44872,1,0,3:0:0:0:
488,204,45053,1,8,0:0:0:0:
504,172,45143,1,8,3:0:0:0:
512,137,45234,1,4,3:0:0:0:
510,101,45325,1,2,3:0:0:0:
498,67,45417,38,0,P|443:78|408:84,1,64,4|0,1:2|0:0,0:0:0:0:
316,151,45781,2,0,P|371:162|406:168,1,64,2|2,3:2|3:2,0:0:0:0:
504,172,46144,2,0,P|522:236|493:321,1,128,2|8,1:2|0:0,0:0:0:0:
419,360,46690,6,0,P|407:302|402:270,1,64,2|0,1:2|0:0,0:0:0:0:
374,194,47053,1,2,1:2:0:0:
374,194,47417,1,2,1:2:0:0:
283,303,47599,2,0,P|225:315|193:320,1,64,2|0,1:2|0:0,0:0:0:0:
125,267,47963,1,8,0:0:0:0:
50,371,48144,1,2,0:0:0:0:
44,203,48326,70,0,P|94:172|165:174,1,128,2|0,1:2|3:0,0:0:0:0:
241,232,48872,1,2,1:2:0:0:
304,105,49053,2,0,P|293:54|285:24,1,64,2|0,1:2|0:0,0:0:0:0:
210,105,49417,1,10,0:0:0:0:
361,205,49599,5,2,1:2:0:0:
361,205,49963,1,2,1:2:0:0:
361,205,50326,1,2,1:2:0:0:
448,270,50508,2,0,P|486:281|538:292,1,64,2|8,1:2|0:0,0:0:0:0:
417,145,50872,1,8,0:0:0:0:
319,280,51054,1,0,1:0:0:0:
235,160,51235,70,0,P|176:148|150:141,1,64,4|0,1:2|0:0,0:0:0:0:
270,43,51599,2,0,P|329:55|355:62,1,64,2|2,3:2|1:2,0:0:0:0:
468,19,51963,2,0,P|483:65|465:148,1,128,2|8,1:2|0:0,0:0:0:0:
504,249,52508,6,0,P|458:239|418:227,1,64,2|0,1:2|0:0,0:0:0:0:
351,200,52872,1,2,1:2:0:0:
351,200,53235,1,2,1:2:0:0:
288,330,53417,2,0,P|242:340|206:345,1,64,12|0,0:0|0:0,0:0:0:0:
225,342,53690,1,0,3:2:0:0:
225,342,53781,1,8,0:0:0:0:
56,304,53963,5,8,0:0:0:0:
56,304,54053,1,8,0:0:0:0:
56,304,54144,2,0,P|45:355|42:376,1,71.9999978027344,4|0,1:0|0:0,0:0:0:0:
182,272,54508,1,8,0:0:0:0:
33,212,54690,1,8,0:0:0:0:
126,126,54872,2,0,P|117:91|112:56,1,71.9999978027344,2|0,0:0|1:0,0:0:0:0:
274,0,55235,1,10,0:0:0:0:
223,117,55417,1,2,0:0:0:0:
406,181,55599,6,0,P|457:192|478:195,1,71.9999978027344,0|0,1:0|0:0,0:0:0:0:
351,31,55963,1,10,0:0:0:0:
283,225,56144,1,8,0:0:0:0:
223,117,56326,1,2,0:0:0:0:
406,181,56508,1,0,1:0:0:0:
288,349,56690,2,0,P|237:360|216:363,1,71.9999978027344,10|0,0:0|0:0,0:0:0:0:
59,213,57053,70,0,P|116:200|140:197,1,80,4|0,1:0|1:0,0:0:0:0:
326,245,57417,1,8,0:0:0:0:
240,99,57599,1,0,1:0:0:0:
201,256,57781,1,8,0:0:0:0:
360,156,57963,1,0,1:0:0:0:
224,6,58144,2,0,P|167:19|143:22,1,80,10|0,0:0|1:0,0:0:0:0:
360,156,58508,6,0,P|399:150|438:140,1,80,14|0,0:0|1:0,0:0:0:0:
239,93,58872,1,10,0:0:0:0:
290,309,59054,1,4,1:2:0:0:
360,156,59236,1,10,0:0:0:0:
131,119,59418,1,0,1:0:0:0:
122,374,59599,2,0,P|183:366|208:361,1,80,10|0,0:0|1:0,0:0:0:0:
359,120,59963,69,12,0:0:0:0:
359,120,60872,2,0,L|398:105,2,40,8|8|10,0:0|0:2|0:0,0:0:0:0:
179,202,61235,21,8,0:0:0:0:
179,202,61326,1,8,0:0:0:0:
179,202,61417,2,0,P|125:210|76:224,1,80,4|0,1:0|0:0,0:0:0:0:
171,58,61781,1,10,0:0:0:0:
280,220,61963,1,10,0:0:0:0:
385,87,62144,1,2,1:2:0:0:
240,140,62326,1,0,0:0:0:0:
398,246,62508,1,10,0:0:0:0:
154,158,62690,6,0,P|140:108|133:59,1,80,2|0,0:0|1:2,0:0:0:0:
286,0,63053,1,2,0:0:0:0:
258,125,63235,1,10,0:0:0:0:
419,69,63417,1,10,0:0:0:0:
324,235,63599,2,0,B|303:297|340:353|340:353|365:320,1,160,2|14,1:2|0:0,0:0:0:0:
426,238,64144,1,0,1:2:0:0:
235,346,64326,70,0,P|197:359|157:367,1,80,4|0,1:0|0:0,0:0:0:0:
3,236,64690,1,10,0:0:0:0:
166,267,64872,1,10,0:0:0:0:
54,354,65053,1,2,1:2:0:0:
158,155,65235,1,2,0:2:0:0:
158,155,65326,1,2,0:2:0:0:
158,155,65417,2,0,P|196:168|236:176,1,80,10|0,0:2|0:0,0:0:0:0:
76,47,65781,6,0,P|36:39|0:26,1,80,2|0,1:2|0:0,0:0:0:0:
198,15,66144,1,10,0:0:0:0:
108,223,66326,1,10,0:0:0:0:
108,223,66417,1,0,3:2:0:0:
108,223,66508,1,2,1:2:0:0:
268,96,66690,1,10,0:0:0:0:
342,255,66872,1,10,0:0:0:0:
396,158,67053,1,8,0:0:0:0:
220,329,67235,70,0,P|154:344|62:275,1,160,4|8,1:0|0:0,0:0:0:0:
250,201,67781,1,8,0:0:0:0:
333,272,67963,2,0,P|372:280|411:286,1,80,2|0,1:2|3:0,0:0:0:0:
512,150,68326,2,0,P|472:143|433:135,1,80,10|0,0:0|0:0,0:0:0:0:
303,310,68690,6,0,P|313:260|320:198,1,80,2|0,1:2|0:0,0:0:0:0:
487,379,69053,2,0,P|477:329|470:267,1,80,10|10,0:0|0:0,0:0:0:0:
418,86,69417,1,2,1:2:0:0:
328,192,69599,1,0,0:0:0:0:
256,14,69781,1,10,0:0:0:0:
119,118,69963,69,2,0:0:0:0:
119,118,70054,1,2,0:2:0:0:
119,118,70145,2,0,P|74:129|22:138,1,80,0|2,1:2|0:0,0:0:0:0:
174,268,70508,1,10,0:0:0:0:
240,83,70690,1,10,0:0:0:0:
55,226,70872,1,2,1:2:0:0:
253,287,71053,2,0,P|264:332|273:384,1,80,2|2,0:0|1:2,0:0:0:0:
21,370,71417,6,0,P|0:315|16:200,1,160,14|0,0:0|0:0,0:0:0:0:
133,70,71963,1,2,1:2:0:0:
223,238,72145,1,10,0:2:0:0:
308,95,72327,1,10,0:0:0:0:
83,157,72509,1,2,1:2:0:0:
184,35,72690,1,8,0:0:0:0:
227,23,72781,1,8,3:0:0:0:
271,27,72872,1,4,3:0:0:0:
311,48,72963,1,2,3:0:0:0:
351,69,73053,70,0,P|408:83|433:85,1,80,4|0,1:0|0:0,0:0:0:0:
321,253,73417,1,10,0:0:0:0:
479,190,73599,1,10,0:0:0:0:
316,171,73781,1,2,1:2:0:0:
370,317,73963,1,0,0:0:0:0:
501,173,74145,1,10,0:0:0:0:
288,268,74326,6,0,P|249:279|209:284,1,80,2|0,0:0|1:2,0:0:0:0:
310,114,74690,1,2,0:0:0:0:
388,265,74872,1,10,0:0:0:0:
451,157,75053,1,10,0:0:0:0:
219,188,75235,2,0,B|155:167|97:203|97:203|50:163,1,160,2|14,1:2|0:0,0:0:0:0:
0,109,75781,1,0,1:2:0:0:
165,276,75963,70,0,P|178:314|186:354,1,80,4|0,1:0|0:0,0:0:0:0:
8,257,76326,1,10,0:0:0:0:
159,178,76508,1,10,0:0:0:0:
0,109,76690,1,2,1:2:0:0:
76,337,76872,1,2,0:2:0:0:
76,337,76963,1,2,0:2:0:0:
76,337,77053,2,0,P|28:353|-11:361,1,80,10|0,0:2|0:0,0:0:0:0:
159,178,77417,6,0,P|197:168|235:155,1,80,2|0,1:2|0:0,0:0:0:0:
422,64,77781,1,10,0:0:0:0:
305,226,77963,1,10,0:0:0:0:
305,226,78053,1,0,3:2:0:0:
305,226,78144,1,2,1:2:0:0:
293,84,78326,1,10,0:0:0:0:
469,171,78507,1,10,0:0:0:0:
368,343,78689,69,8,0:0:0:0:
368,343,78781,1,0,3:2:0:0:
368,343,78872,2,0,P|302:358|210:289,1,160,4|10,1:0|0:0,0:0:0:0:
463,208,79417,1,10,0:0:0:0:
508,303,79599,2,0,P|498:341|483:383,1,80,2|0,1:2|0:0,0:0:0:0:
309,251,79963,2,0,P|320:212|333:170,1,80,10|2,0:0|0:0,0:0:0:0:
435,27,80326,6,0,P|473:36|512:47,1,80,0|2,1:2|0:0,0:0:0:0:
284,91,80690,2,0,P|245:79|206:70,1,80,10|10,0:0|0:0,0:0:0:0:
55,183,81053,1,2,1:2:0:0:
13,25,81235,1,0,0:0:0:0:
188,166,81417,1,14,0:0:0:0:
2,282,81599,69,2,0:2:0:0:
2,282,81690,1,2,0:2:0:0:
2,282,81781,2,0,P|10:343|15:368,1,80,4|2,1:0|1:2,0:0:0:0:
111,201,82144,1,10,0:0:0:0:
205,369,82326,1,10,0:0:0:0:
290,226,82508,1,2,1:2:0:0:
45,298,82690,1,10,0:0:0:0:
88,97,82872,1,10,0:2:0:0:
239,347,83053,5,12,0:0:0:0:
241,151,83963,69,8,0:0:0:0:
241,151,84053,1,8,0:0:0:0:
241,151,84144,2,0,L|304:145,1,40,8|8,3:0|3:0,0:0:0:0:
363,54,84326,1,4,3:0:0:0:
402,35,84417,1,4,3:0:0:0:
445,38,84508,1,2,3:0:0:0:
483,58,84599,1,2,3:0:0:0:
505,95,84690,6,0,P|511:162|465:266,1,160,4|8,1:0|0:0,0:0:0:0:
487,355,85235,2,0,P|421:339|396:330,1,80,8|0,0:0|0:0,0:0:0:0:
284,298,85598,1,0,1:0:0:0:
390,219,85780,1,8,0:0:0:0:
286,191,85962,1,0,0:0:0:0:
284,298,86144,70,0,P|273:356|260:405,1,80,0|0,1:0|0:0,0:0:0:0:
193,241,86508,1,8,0:0:0:0:
361,196,86690,2,0,P|381:116|354:27,1,160,8|0,0:0|1:0,0:0:0:0:
194,0,87235,1,8,0:0:0:0:
247,128,87417,1,8,0:0:0:0:
88,163,87599,6,0,P|48:156|10:143,1,80,0|0,1:0|0:0,0:0:0:0:
68,56,87963,1,8,0:0:0:0:
146,247,88144,2,0,B|143:314|195:366|195:366|207:337,1,160,8|0,0:0|1:0,0:0:0:0:
345,270,88690,2,0,P|279:254|254:245,1,80,8|0,0:0|1:0,0:0:0:0:
88,163,89053,69,0,1:0:0:0:
224,59,89235,1,0,1:0:0:0:
267,250,89417,1,8,0:0:0:0:
267,250,89781,5,8,0:0:0:0:
402,34,89963,1,8,0:0:0:0:
503,315,90144,1,10,0:0:0:0:
444,346,92144,5,10,3:2:0:0:
450,240,92326,1,10,3:2:0:0:
320,341,92508,2,0,P|282:355|242:363,1,80,4|2,1:0|0:0,0:0:0:0:
154,231,92872,5,0,1:0:0:0:
154,231,92963,1,0,1:0:0:0:
153,231,93053,2,0,P|145:249|140:269,1,40,8|8,0:0|3:0,0:0:0:0:
39,350,93235,2,0,P|43:330|50:312,1,40,4|2,3:0|3:0,0:0:0:0:
0,221,93417,70,0,B|44:202|103:223|103:223|140:194,1,143.999995605469,4|8,1:2|0:0,0:0:0:0:
223,132,93963,2,0,P|235:174|247:230,1,71.9999978027344,2|0,0:0|1:0,0:0:0:0:
274,308,94326,1,2,0:0:0:0:
182,271,94508,1,8,0:0:0:0:
182,271,94690,1,2,0:0:0:0:
346,257,94872,6,0,P|381:263|416:271,1,71.9999978027344,0|0,1:0|0:0,0:0:0:0:
481,202,95235,1,8,0:0:0:0:
358,157,95417,2,0,P|335:99|360:0,1,143.999995605469,0|0,3:0|0:0,0:0:0:0:
457,23,95963,2,0,P|451:58|443:93,1,71.9999978027344,8|0,0:0|0:0,0:0:0:0:
334,186,96326,70,0,B|277:177|235:214|235:214|190:175,1,143.999995605469,0|8,1:0|0:0,0:0:0:0:
112,101,96872,1,0,3:0:0:0:
67,186,97053,2,0,P|20:196|-9:201,1,71.9999978027344,0|0,1:0|0:0,0:0:0:0:
44,64,97417,2,0,P|79:57|114:49,1,71.9999978027344,8|0,0:0|0:0,0:0:0:0:
278,3,97781,6,0,P|303:62|287:147,1,143.999995605469,0|8,1:0|0:0,0:0:0:0:
224,256,98326,1,0,3:0:0:0:
302,329,98508,2,0,P|353:336|390:339,1,71.9999978027344,0|2,1:0|0:0,0:0:0:0:
328,235,98872,1,10,0:2:0:0:
148,226,99054,69,2,0:0:0:0:
148,226,99145,1,2,0:2:0:0:
148,226,99236,2,0,P|137:277|134:298,1,71.9999978027344,2|0,1:2|0:0,0:0:0:0:
302,212,99599,1,10,0:0:0:0:
151,135,99781,1,0,3:0:0:0:
256,118,99963,1,2,1:2:0:0:
224,256,100145,1,0,0:0:0:0:
151,135,100327,1,8,0:0:0:0:
352,263,100508,6,0,P|418:283|499:250,1,143.999995605469,14|2,0:0|3:2,0:0:0:0:
454,68,101053,1,0,1:0:0:0:
284,161,101235,1,12,0:0:0:0:
415,191,101417,1,0,1:0:0:0:
343,18,101598,1,8,0:0:0:0:
171,87,101780,1,8,0:0:0:0:
154,110,101872,1,8,3:0:0:0:
143,137,101963,1,4,3:0:0:0:
142,166,102053,1,2,3:0:0:0:
145,197,102144,6,0,P|152:248|155:285,1,80,4|0,1:0|0:0,0:0:0:0:
49,189,102508,1,10,0:0:0:0:
243,105,102690,2,0,P|236:156|233:193,1,80,10|0,0:0|1:0,0:0:0:0:
10,120,103053,2,0,P|49:115|88:105,1,80,2|8,0:0|0:0,0:0:0:0:
201,7,103417,6,0,P|283:12|338:77,1,160,2|0,0:0|0:0,0:0:0:0:
406,183,103963,2,0,P|455:195|502:203,1,80,8|8,0:0|0:0,0:0:0:0:
507,108,104326,1,2,1:2:0:0:
347,268,104508,1,0,0:0:0:0:
434,323,104690,2,0,P|483:335|530:343,1,80,10|0,0:0|0:0,0:0:0:0:
309,190,105053,70,0,P|238:161|157:181,1,160,2|10,1:2|0:0,0:0:0:0:
86,329,105599,1,10,0:0:0:0:
181,370,105781,2,0,P|235:362|284:348,1,80,0|0,1:0|0:0,0:0:0:0:
381,252,106144,1,8,0:0:0:0:
448,362,106326,1,0,0:0:0:0:
495,201,106508,6,0,P|504:162|509:122,1,80,0|2,1:0|0:2,0:0:0:0:
509,122,106781,1,2,0:2:0:0:
509,122,106872,1,10,0:2:0:0:
370,5,107053,1,8,0:0:0:0:
291,153,107235,1,0,1:0:0:0:
195,30,107417,2,0,P|155:22|101:7,1,80,2|8,0:0|0:0,0:0:0:0:
8,180,107781,69,8,0:0:0:0:
8,180,107872,1,8,0:0:0:0:
8,180,107963,2,0,P|83:197|162:165,1,160,2|8,1:2|0:0,0:0:0:0:
243,103,108508,1,8,0:0:0:0:
292,273,108690,2,0,P|305:331|312:354,1,80,2|0,1:2|0:0,0:0:0:0:
486,289,109053,2,0,P|427:302|404:309,1,80,10|0,0:0|3:0,0:0:0:0:
246,186,109417,6,0,P|295:171|335:166,1,80,2|0,1:2|0:0,0:0:0:0:
292,273,109781,1,8,0:0:0:0:
163,103,109963,2,0,P|150:206|134:292,1,160,10|0,0:0|0:0,0:0:0:0:
94,375,110508,1,8,0:0:0:0:
252,250,110690,69,2,0:2:0:0:
252,250,110781,1,2,0:2:0:0:
252,250,110872,2,0,P|319:240|422:205,1,160,6|8,1:2|0:0,0:0:0:0:
506,162,111417,1,8,0:0:0:0:
512,353,111599,2,0,P|466:337|419:330,1,80,2|4,1:2|3:0,0:0:0:0:
335,367,111963,1,8,0:0:0:0:
288,170,112144,6,0,P|303:91|320:13,1,160,12|2,0:0|0:0,0:0:0:0:
424,113,112690,1,0,1:2:0:0:
202,110,112872,2,0,P|162:102|118:87,1,80,12|0,0:0|1:0,0:0:0:0:
43,15,113235,1,0,3:0:0:0:
25,46,113325,1,0,3:0:0:0:
12,79,113416,1,8,0:0:0:0:
4,115,113507,1,8,3:0:0:0:
3,150,113598,1,4,3:0:0:0:
6,186,113689,1,2,3:0:0:0:
17,220,113781,38,0,P|54:232|94:240,1,64,4|0,1:2|0:0,0:0:0:0:
91,363,114144,2,0,P|59:355|29:345,1,64,2|2,3:2|3:2,0:0:0:0:
167,249,114508,2,0,P|235:230|303:251,1,128,2|8,1:2|0:0,0:0:0:0:
374,338,115053,6,0,P|338:345|303:352,1,64,2|0,1:2|0:0,0:0:0:0:
203,344,115418,1,2,1:2:0:0:
203,344,115781,1,2,1:2:0:0:
289,243,115963,2,0,P|320:248|351:255,1,64,2|0,1:2|0:0,0:0:0:0:
464,265,116326,1,8,0:0:0:0:
384,154,116508,1,2,0:0:0:0:
506,51,116690,70,0,P|524:111|504:189,1,128,2|0,1:2|3:0,0:0:0:0:
464,265,117235,1,2,1:2:0:0:
354,133,117417,2,0,P|322:139|291:145,1,64,2|0,1:2|0:0,0:0:0:0:
201,85,117781,1,10,0:0:0:0:
92,185,117963,5,2,1:2:0:0:
92,185,118326,1,2,1:2:0:0:
92,185,118690,1,2,1:2:0:0:
61,283,118872,2,0,P|23:294|-29:305,1,64,2|8,1:2|0:0,0:0:0:0:
3,160,119235,1,8,0:0:0:0:
143,257,119417,1,0,1:0:0:0:
221,165,119599,70,0,P|277:149|305:145,1,64,4|0,1:2|0:0,0:0:0:0:
418,222,119963,2,0,P|382:214|348:203,1,64,2|2,3:2|1:2,0:0:0:0:
253,64,120326,2,0,P|311:54|389:105,1,128,2|8,1:2|0:0,0:0:0:0:
483,166,120872,6,0,P|494:111|501:80,1,64,2|0,1:2|0:0,0:0:0:0:
512,0,121235,1,2,1:2:0:0:
512,0,121599,1,2,1:2:0:0:
384,58,121781,2,0,P|348:69|313:76,1,64,12|0,0:0|0:0,0:0:0:0:
193,25,122144,1,8,0:0:0:0:
175,48,122234,1,8,0:0:0:0:
164,74,122325,1,8,0:0:0:0:
160,103,122416,1,8,0:0:0:0:
156,131,122508,6,0,P|145:182|142:203,1,71.9999978027344,0|0,1:0|0:0,0:0:0:0:
224,381,122872,1,12,0:0:0:0:
297,238,123053,1,8,0:0:0:0:
199,286,123235,2,0,P|164:295|129:300,1,71.9999978027344,2|0,0:0|1:0,0:0:0:0:
265,155,123599,1,10,0:0:0:0:
346,330,123781,1,2,0:0:0:0:
410,235,123963,6,0,P|421:184|424:163,1,71.9999978027344,0|0,1:0|0:0,0:0:0:0:
308,10,124326,1,10,0:0:0:0:
315,154,124508,1,8,0:0:0:0:
433,27,124690,1,2,0:0:0:0:
239,80,124872,1,0,1:0:0:0:
400,145,125053,1,10,0:0:0:0:
279,264,125235,69,0,3:2:0:0:
279,264,125326,1,0,3:2:0:0:
279,264,125417,2,0,P|270:330|269:366,1,80,4|0,1:0|1:0,0:0:0:0:
110,235,125781,1,8,0:0:0:0:
262,167,125963,1,0,1:0:0:0:
145,94,126144,1,8,0:0:0:0:
100,313,126326,1,0,1:0:0:0:
9,136,126508,2,0,P|0:70|-1:34,1,80,10|0,0:0|1:0,0:0:0:0:
170,2,126872,6,0,P|173:41|179:81,1,80,14|0,0:0|1:0,0:0:0:0:
217,317,127235,1,10,0:0:0:0:
335,167,127417,1,4,1:2:0:0:
110,235,127599,1,10,0:0:0:0:
202,31,127781,1,0,1:0:0:0:
373,191,127963,2,0,P|412:194|452:200,1,80,10|0,0:0|1:0,0:0:0:0:
301,293,128326,70,0,L|237:283,3,40,12|4|4|4,0:0|3:0|3:0|3:0,0:0:0:0:
197,370,128690,2,0,L|133:380,1,40,10|8,0:0|0:0,0:0:0:0:
108,230,128872,2,0,L|44:220,1,40,8|8,0:0|0:0,0:0:0:0:
0,315,129053,5,2,3:0:0:0:
35,334,129144,1,4,3:0:0:0:
74,342,129235,1,8,3:0:0:0:
114,336,129326,1,4,3:0:0:0:
155,316,129417,1,10,0:0:0:0:
190,296,129508,1,8,0:0:0:0:
229,288,129599,1,8,0:0:0:0:
269,294,129690,1,8,0:0:0:0:
305,313,129781,6,0,P|363:325|397:330,1,80,4|0,1:0|0:0,0:0:0:0:
486,249,130144,1,10,0:0:0:0:
309,179,130326,1,10,0:0:0:0:
454,107,130508,1,2,1:2:0:0:
342,23,130690,1,0,0:0:0:0:
262,249,130872,1,10,0:0:0:0:
174,120,131053,6,0,P|129:109|77:100,1,80,2|0,0:0|1:2,0:0:0:0:
15,283,131417,1,2,0:0:0:0:
172,213,131599,1,10,0:0:0:0:
0,140,131781,1,10,0:0:0:0:
114,336,131963,2,0,P|186:372|287:337,1,160,2|14,1:2|0:0,0:0:0:0:
330,269,132508,1,0,1:2:0:0:
454,296,132690,70,0,P|449:335|440:375,1,80,4|0,1:0|0:0,0:0:0:0:
324,178,133053,1,10,0:0:0:0:
512,169,133235,1,10,0:0:0:0:
454,296,133417,1,2,1:2:0:0:
391,81,133599,1,2,0:2:0:0:
391,81,133690,1,2,0:2:0:0:
391,81,133781,2,0,P|399:41|404:2,1,80,10|0,0:2|0:0,0:0:0:0:
239,167,134144,6,0,P|233:206|226:245,1,80,2|0,1:2|0:0,0:0:0:0:
32,140,134508,1,10,0:0:0:0:
214,70,134690,1,10,0:0:0:0:
214,70,134781,1,0,3:2:0:0:
214,70,134872,1,2,1:2:0:0:
92,13,135053,1,10,0:0:0:0:
141,239,135235,1,10,0:0:0:0:
241,40,135417,69,8,0:0:0:0:
241,40,135508,1,0,3:2:0:0:
241,40,135599,2,0,P|313:4|414:39,1,160,4|8,1:0|0:0,0:0:0:0:
512,171,136144,1,8,0:0:0:0:
359,151,136326,2,0,P|317:163|261:175,1,80,2|0,1:2|3:0,0:0:0:0:
428,297,136690,2,0,P|466:287|505:276,1,80,10|0,0:0|0:0,0:0:0:0:
291,332,137054,6,0,P|301:282|308:220,1,80,2|0,1:2|0:0,0:0:0:0:
465,379,137417,2,0,P|455:329|448:267,1,80,10|10,0:0|0:0,0:0:0:0:
419,105,137781,1,2,1:2:0:0:
244,178,137963,1,0,0:0:0:0:
360,232,138144,1,10,0:0:0:0:
301,4,138326,69,2,0:0:0:0:
301,4,138417,1,2,0:0:0:0:
301,4,138508,2,0,P|296:43|287:83,1,80,0|2,1:2|0:0,0:0:0:0:
244,178,138872,1,10,0:0:0:0:
133,60,139053,1,10,0:0:0:0:
51,228,139235,1,2,1:2:0:0:
0,33,139417,2,0,P|5:72|14:112,1,80,2|2,0:0|1:2,0:0:0:0:
4,349,139781,6,0,P|72:375|152:348,1,160,14|0,0:0|0:0,0:0:0:0:
293,226,140326,1,2,1:2:0:0:
201,54,140508,1,10,0:2:0:0:
128,197,140690,1,10,0:0:0:0:
351,133,140872,1,2,1:2:0:0:
252,257,141053,1,8,0:0:0:0:
209,269,141144,1,8,3:0:0:0:
165,265,141235,1,4,3:0:0:0:
125,244,141326,1,2,3:0:0:0:
85,223,141416,70,0,P|28:209|3:207,1,80,4|0,1:0|0:0,0:0:0:0:
126,39,141781,1,14,0:0:0:0:
319,109,141963,1,10,0:0:0:0:
179,182,142145,1,2,1:2:0:0:
279,263,142327,1,0,0:0:0:0:
362,46,142509,1,10,0:0:0:0:
435,139,142690,6,0,P|483:151|536:160,1,80,2|0,0:0|1:2,0:0:0:0:
392,0,143053,1,2,0:0:0:0:
312,157,143235,1,10,0:0:0:0:
250,26,143417,1,10,0:0:0:0:
138,178,143599,2,0,P|125:251|166:343,1,160,2|14,1:2|0:0,0:0:0:0:
254,372,144144,1,0,1:2:0:0:
403,259,144326,70,0,P|466:262|509:270,1,80,4|0,1:0|0:0,0:0:0:0:
423,377,144690,1,10,0:0:0:0:
283,248,144872,1,10,0:0:0:0:
241,347,145053,1,2,1:2:0:0:
412,185,145235,1,2,0:0:0:0:
412,185,145326,1,2,0:0:0:0:
412,185,145417,2,0,P|422:123|434:97,1,80,10|0,0:2|0:0,0:0:0:0:
219,101,145781,6,0,P|278:120|299:135,1,80,2|0,1:2|0:0,0:0:0:0:
437,276,146144,1,10,0:0:0:0:
306,299,146326,1,10,0:0:0:0:
306,299,146417,1,0,3:2:0:0:
306,299,146508,1,2,1:2:0:0:
317,105,146690,1,10,0:0:0:0:
490,195,146872,1,10,0:0:0:0:
506,226,146962,1,8,0:0:0:0:
512,261,147053,1,8,0:0:0:0:
512,297,147144,1,8,0:0:0:0:
501,331,147235,70,0,P|442:351|339:302,1,160,4|10,1:0|0:0,0:0:0:0:
247,202,147781,1,10,0:0:0:0:
207,291,147963,2,0,P|150:300|107:303,1,80,2|0,1:2|0:0,0:0:0:0:
2,187,148326,2,0,P|42:182|82:175,1,80,10|2,0:0|0:0,0:0:0:0:
240,69,148690,6,0,P|226:126|224:151,1,80,0|2,1:2|0:0,0:0:0:0:
90,306,149053,2,0,P|85:265|74:226,1,80,10|10,0:0|0:0,0:0:0:0:
30,134,149417,1,2,1:2:0:0:
240,69,149599,1,0,0:0:0:0:
114,18,149781,1,14,0:0:0:0:
175,246,149963,69,0,3:2:0:0:
175,246,150053,1,0,3:2:0:0:
175,246,150144,2,0,P|213:256|254:261,1,80,4|2,1:0|1:2,0:0:0:0:
448,156,150508,1,10,0:0:0:0:
276,61,150690,1,10,0:0:0:0:
409,23,150872,1,2,1:2:0:0:
367,242,151054,1,10,0:0:0:0:
209,128,151236,1,10,0:2:0:0:
509,46,151417,5,12,0:0:0:0:
457,224,152326,69,8,0:0:0:0:
422,205,152417,1,8,0:0:0:0:
383,197,152508,1,8,3:0:0:0:
343,203,152599,1,8,3:0:0:0:
302,223,152690,1,4,3:0:0:0:
267,243,152781,1,4,3:0:0:0:
228,251,152872,1,2,3:0:0:0:
188,245,152963,1,2,3:0:0:0:
152,226,153054,6,0,P|94:214|-8:175,1,160,4|8,1:0|0:0,0:0:0:0:
0,16,153599,2,0,P|37:30|76:39,1,80,10|0,0:2|1:0,0:0:0:0:
235,27,153963,1,2,0:0:0:0:
186,124,154144,1,8,0:0:0:0:
343,203,154326,70,0,P|381:193|418:178,1,80,2|2,0:0|1:2,0:0:0:0:
463,84,154690,1,2,0:0:0:0:
463,84,154781,1,2,0:0:0:0:
463,84,154872,1,10,0:0:0:0:
328,36,155053,1,12,0:0:0:0:
372,168,155235,1,2,1:2:0:0:
423,10,155417,1,0,0:0:0:0:
236,3,155599,1,8,0:0:0:0:
220,32,155690,1,8,0:0:0:0:
211,64,155781,1,8,0:0:0:0:
211,98,155872,1,8,0:0:0:0:
219,135,155963,6,0,P|287:147|332:149,1,80,4|0,1:0|0:0,0:0:0:0:
381,288,156326,1,8,0:0:0:0:
512,129,156508,1,10,0:0:0:0:
384,165,156690,1,2,1:2:0:0:
401,60,156872,1,2,0:0:0:0:
267,218,157053,1,10,0:0:0:0:
414,291,157235,70,0,P|480:273|522:255,1,80,2|2,3:2|1:2,0:0:0:0:
391,105,157599,1,2,0:0:0:0:
267,218,157781,1,8,0:0:0:0:
434,336,157963,1,8,0:0:0:0:
305,381,158144,1,2,1:2:0:0:
340,256,158326,1,0,1:0:0:0:
354,227,158416,1,0,1:0:0:0:
362,196,158507,1,8,0:0:0:0:
365,164,158598,1,8,0:0:0:0:
361,133,158689,1,8,0:0:0:0:
350,102,158780,1,8,0:0:0:0:
335,75,158872,6,0,P|267:63|222:61,1,80,4|0,1:0|0:0,0:0:0:0:
97,99,159235,1,10,0:0:0:0:
209,206,159417,1,10,0:0:0:0:
46,314,159599,1,2,1:2:0:0:
171,366,159781,1,2,0:0:0:0:
134,242,159963,1,10,0:0:0:0:
95,125,160144,70,0,P|27:113|-18:111,1,80,2|0,3:2|1:2,0:0:0:0:
134,242,160508,1,0,3:0:0:0:
221,72,160690,1,10,0:0:0:0:
323,166,160872,2,0,P|362:161|401:153,1,80,10|0,0:0|1:0,0:0:0:0:
313,21,161235,1,2,0:0:0:0:
199,173,161417,1,8,0:0:0:0:
187,202,161507,1,8,0:0:0:0:
183,234,161598,1,8,0:0:0:0:
185,266,161689,1,8,0:0:0:0:
193,297,161781,6,0,P|232:302|271:310,1,80,4|0,1:0|1:0,0:0:0:0:
197,381,162144,1,0,1:0:0:0:
79,266,162326,70,0,P|40:271|1:279,1,80,12|0,0:0|1:0,0:0:0:0:
214,208,162690,1,0,1:0:0:0:
0,128,162872,5,12,0:0:0:0:
197,85,163053,1,0,1:0:0:0:
154,311,163235,1,0,1:0:0:0:
73,66,163417,69,12,0:0:0:0:
310,33,163599,1,0,1:0:0:0:
345,263,163781,1,0,1:0:0:0:
115,178,163963,6,0,P|67:170|8:166,1,80,12|0,0:0|1:0,0:0:0:0:
285,369,164326,2,0,P|324:373|364:379,1,80,12|0,0:0|1:0,0:0:0:0:
512,282,164690,69,14,0:0:0:0:
344,188,164932,5,10,3:0:0:0:
507,94,165175,69,6,3:0:0:0:
425,259,165417,5,10,0:0:0:0:
356,51,165659,69,10,3:0:0:0:
254,220,165902,5,12,3:0:0:0:
512,282,166144,69,4,1:0:0:0:
73,75,167053,22,0,P|34:66|-2:54,2,64,8|4|2,3:0|3:0|3:0,0:0:0:0:
194,143,167599,6,0,P|250:127|278:123,1,71.9999978027344,4|0,1:2|0:0,0:0:0:0:
390,201,167963,2,0,P|354:193|320:182,1,71.9999978027344,8|2,0:0|0:0,0:0:0:0:
226,43,168326,2,0,P|284:33|362:84,1,143.999995605469,0|8,1:0|0:0,0:0:0:0:
456,145,168872,70,0,P|467:90|491:0,2,143.999995605469,2|2|0,0:0|0:0|3:0,0:0:0:0:
440,254,169781,2,0,P|503:257|546:265,1,71.9999978027344,0|4,1:0|3:0,0:0:0:0:
451,351,170145,1,8,0:0:0:0:
343,256,170327,1,2,0:0:0:0:
299,350,170508,6,0,B|241:335|195:374|195:374|143:349,1,143.999995605469,0|8,1:0|0:0,0:0:0:0:
137,260,171053,1,0,3:0:0:0:
2,305,171235,2,0,P|10:367|22:409,1,71.9999978027344,0|0,1:0|0:0,0:0:0:0:
137,260,171599,1,8,0:0:0:0:
26,182,171781,70,0,P|3:115|22:35,2,143.999995605469,2|2|0,0:0|3:0|3:0,0:0:0:0:
137,260,172690,1,0,1:0:0:0:
189,138,172872,1,4,3:0:0:0:
65,192,173053,1,10,0:2:0:0:
240,202,173235,1,2,0:0:0:0:
204,346,173417,6,0,P|158:340|132:335,1,71.9999978027344,6|0,1:2|0:0,0:0:0:0:
289,282,173781,2,0,L|358:300,1,71.9999978027344,10|0,0:0|3:0,0:0:0:0:
445,228,174144,2,0,P|396:196|296:204,1,143.999995605469,2|8,1:2|0:0,0:0:0:0:
275,362,174690,69,10,0:0:0:0:
275,362,175053,1,10,3:2:0:0:
275,362,175417,1,8,0:0:0:0:
201,277,175599,2,0,P|164:270|129:258,1,71.9999978027344,4|8,1:2|0:0,0:0:0:0:
29,283,175963,1,8,0:0:0:0:
15,257,176053,1,8,3:0:0:0:
8,229,176144,1,4,3:0:0:0:
7,200,176235,1,2,3:0:0:0:
11,172,176326,22,0,P|25:115|27:90,1,71.9999978027344,0|0,1:0|0:0,0:0:0:0:
156,0,176690,1,12,0:0:0:0:
137,130,176872,1,8,0:0:0:0:
245,142,177053,2,0,P|303:135|327:128,1,71.9999978027344,2|0,0:0|1:0,0:0:0:0:
459,37,177417,1,10,0:0:0:0:
331,14,177599,1,2,0:0:0:0:
439,178,177781,6,0,P|450:229|453:250,1,71.9999978027344,0|0,1:0|0:0,0:0:0:0:
298,333,178144,1,10,0:0:0:0:
452,248,178326,1,8,0:0:0:0:
320,208,178508,1,2,0:0:0:0:
400,378,178690,1,0,1:0:0:0:
201,364,178872,2,0,P|149:356|128:352,1,71.9999978027344,10|0,0:0|0:0,0:0:0:0:
270,176,179235,70,0,P|309:183|348:189,1,80,4|0,1:0|1:0,0:0:0:0:
290,294,179599,1,8,0:0:0:0:
150,165,179781,1,0,1:0:0:0:
130,268,179963,1,8,0:0:0:0:
279,102,180144,1,0,1:0:0:0:
107,25,180326,2,0,P|67:32|28:38,1,80,8|0,0:0|1:0,0:0:0:0:
26,228,180690,6,0,P|65:221|104:214,1,80,12|0,0:0|1:0,0:0:0:0:
279,102,181053,1,8,0:0:0:0:
418,199,181235,1,4,1:2:0:0:
236,315,181417,1,8,0:0:0:0:
361,367,181599,1,0,1:0:0:0:
324,243,181781,1,8,0:0:0:0:
287,119,181963,69,0,1:0:0:0:
287,119,182053,1,0,1:0:0:0:
287,119,182144,2,0,P|275:78|262:37,1,80,12|0,0:2|1:0,0:0:0:0:
157,179,182508,1,10,0:0:0:0:
377,240,182690,1,4,1:2:0:0:
226,314,182872,1,10,0:0:0:0:
344,384,183053,5,0,1:0:0:0:
102,306,183235,1,14,0:0:0:0:
284,167,183417,1,0,1:0:0:0:
0,99,183599,69,14,3:0:0:0:
312,13,183963,54,0,P|360:29|407:46,1,71.9999978027344,2|0,0:0|0:0,0:0:0:0:
451,188,184326,6,0,P|493:173|535:158,1,64,2|0,0:0|0:0,0:0:0:0:
372,342,184690,70,0,P|329:327|287:312,1,83.9999974365235,2|0,0:0|0:0,0:0:0:0:
262,321,185053,22,0,B|221:327|167:271|186:210|211:181|236:145|320:161|317:229|317:229|279:185|226:204,1,384,6|2,1:2|0:2,0:0:0:0:
90,10,186508,6,0,B|78:48|66:97|19:62|-7:125|21:166|48:203|77:216|169:169|156:72|87:66|32:52|4:57|-21:80,1,384,4|2,1:2|0:0,0:0:0:0:
219,9,187963,69,4,1:0:0:0:
219,9,188690,1,4,1:0:0:0:
219,9,189417,2,0,B|273:5|318:39|318:39|370:13,1,151.999995941162,4|2,1:2|1:2,0:0:0:0:
236,110,189963,5,2,0:0:0:0:
236,110,190053,1,2,0:0:0:0:
236,110,190144,2,0,P|232:134|230:163,1,37.9999989852906,8|8,0:0|0:0,0:0:0:0:
186,243,190326,2,0,P|190:267|192:296,1,37.9999989852906,8|8,3:0|3:0,0:0:0:0:
395,355,190508,69,4,3:0:0:0:
422,320,190599,1,4,3:0:0:0:
434,277,190690,1,2,3:0:0:0:
430,232,190781,1,2,3:0:0:0:
415,198,190872,22,0,P|368:189|242:173,1,160,4|8,1:0|0:0,0:0:0:0:
111,306,191417,1,8,0:0:0:0:
15,265,191599,2,0,P|6:208|3:165,1,80,2|0,1:2|3:0,0:0:0:0:
119,60,191962,2,0,P|124:100|131:140,1,80,10|0,0:0|0:0,0:0:0:0:
237,298,192326,6,0,P|180:284|155:282,1,80,2|0,1:2|0:0,0:0:0:0:
0,148,192689,2,0,P|41:143|80:132,1,80,10|10,0:0|0:0,0:0:0:0:
275,81,193053,1,2,1:2:0:0:
171,1,193235,1,0,0:0:0:0:
153,209,193417,1,10,0:0:0:0:
353,186,193599,69,2,0:0:0:0:
353,186,193690,1,2,0:0:0:0:
353,186,193781,2,0,P|392:181|432:172,1,80,0|2,1:2|0:0,0:0:0:0:
480,329,194144,1,10,0:0:0:0:
317,178,194326,1,10,0:0:0:0:
247,325,194508,1,2,1:2:0:0:
434,362,194690,2,0,P|473:367|513:376,1,80,2|2,0:0|1:2,0:0:0:0:
300,249,195053,6,0,B|236:228|178:264|178:264|131:224,1,160,14|0,0:0|0:0,0:0:0:0:
252,365,195599,1,2,1:2:0:0:
418,199,195781,1,10,0:2:0:0:
484,351,195963,1,10,0:0:0:0:
297,162,196144,1,10,0:2:0:0:
252,365,196326,1,8,0:0:0:0:
295,377,196417,1,8,3:0:0:0:
339,373,196508,1,4,3:0:0:0:
379,352,196599,1,2,3:0:0:0:
419,331,196690,70,0,P|476:317|501:315,1,80,4|0,1:0|0:0,0:0:0:0:
342,149,197053,1,14,0:0:0:0:
512,174,197235,1,10,0:0:0:0:
414,45,197417,1,2,1:2:0:0:
353,192,197599,1,0,0:0:0:0:
240,40,197781,1,10,0:0:0:0:
99,153,197963,6,0,P|51:165|-2:174,1,80,2|0,0:0|1:2,0:0:0:0:
93,286,198326,1,2,0:0:0:0:
219,142,198508,1,10,0:0:0:0:
258,280,198690,1,10,0:0:0:0:
94,74,198872,2,0,P|150:37|254:47,1,160,2|14,1:2|0:0,0:0:0:0:
328,107,199417,1,0,1:2:0:0:
222,242,199599,70,0,P|225:305|233:348,1,80,4|0,1:0|0:0,0:0:0:0:
345,241,199963,1,10,0:0:0:0:
136,129,200144,1,10,0:0:0:0:
300,92,200326,1,2,1:2:0:0:
178,258,200508,1,2,0:0:0:0:
178,258,200599,1,2,0:0:0:0:
178,258,200690,2,0,P|115:255|72:247,1,80,10|0,0:2|0:0,0:0:0:0:
199,51,201053,6,0,P|238:55|278:56,1,80,2|0,1:2|0:0,0:0:0:0:
436,128,201417,1,10,0:0:0:0:
278,295,201599,1,10,0:0:0:0:
278,295,201690,1,0,3:2:0:0:
278,295,201781,1,2,1:2:0:0:
216,137,201963,1,10,0:0:0:0:
441,174,202144,1,10,0:0:0:0:
453,217,202235,1,8,0:0:0:0:
449,261,202326,1,8,0:0:0:0:
428,301,202417,1,8,0:0:0:0:
407,341,202507,70,0,P|329:349|251:296,1,160,4|10,1:0|0:0,0:0:0:0:
330,80,203053,1,10,0:0:0:0:
435,100,203235,2,0,P|483:112|536:121,1,80,2|0,1:2|0:0,0:0:0:0:
311,219,203599,2,0,P|271:212|233:202,1,80,10|2,0:0|0:0,0:0:0:0:
39,124,203963,6,0,P|53:181|55:206,1,80,0|2,1:2|0:0,0:0:0:0:
173,366,204326,2,0,P|178:325|189:286,1,80,10|10,0:0|0:0,0:0:0:0:
241,90,204690,1,2,1:2:0:0:
35,91,204872,1,0,0:0:0:0:
204,194,205053,1,14,0:0:0:0:
78,302,205235,69,0,3:2:0:0:
78,302,205326,1,0,3:2:0:0:
78,302,205417,2,0,P|37:297|-2:286,1,80,4|2,1:0|1:2,0:0:0:0:
124,94,205781,1,10,0:0:0:0:
292,274,205963,1,10,0:0:0:0:
348,95,206144,1,2,1:2:0:0:
143,277,206326,1,10,0:0:0:0:
394,345,206508,1,10,0:2:0:0:
206,73,206690,5,12,0:0:0:0:
51,72,207599,69,8,0:0:0:0:
86,91,207690,1,8,0:0:0:0:
125,99,207781,1,8,3:0:0:0:
165,93,207872,1,8,3:0:0:0:
206,73,207963,1,4,3:0:0:0:
241,53,208054,1,4,3:0:0:0:
280,45,208145,1,2,3:0:0:0:
320,51,208236,1,2,3:0:0:0:
356,70,208327,6,0,P|421:86|516:121,1,160,4|8,1:0|0:0,0:0:0:0:
435,271,208872,2,0,P|382:251|328:237,1,80,8|0,0:0|1:0,0:0:0:0:
170,201,209235,1,0,0:0:0:0:
279,124,209417,1,8,0:0:0:0:
181,80,209599,70,0,P|166:42|154:4,1,80,2|2,0:2|1:2,0:0:0:0:
266,17,209963,1,0,0:0:0:0:
99,135,210144,1,8,0:0:0:0:
276,211,210326,1,8,0:0:0:0:
192,274,210508,2,0,P|154:289|116:301,1,80,0|2,1:0|1:2,0:0:0:0:
122,138,210872,1,8,0:0:0:0:
311,229,211053,5,8,0:0:0:0:
311,229,211144,1,8,0:0:0:0:
311,229,211235,2,0,P|349:244|387:256,1,80,4|0,1:0|0:0,0:0:0:0:
492,186,211599,1,10,0:0:0:0:
338,50,211781,1,10,0:0:0:0:
315,180,211963,1,0,1:0:0:0:
484,18,212144,1,2,3:2:0:0:
484,18,212235,1,2,3:2:0:0:
484,18,212326,1,8,0:0:0:0:
512,215,212508,70,0,B|533:278|490:339|490:339|467:310,1,160,2|2,0:0|0:0,0:0:0:0:
393,240,213053,1,8,0:0:0:0:
240,321,213235,1,8,0:0:0:0:
240,321,213326,1,8,0:0:0:0:
240,321,213417,2,0,P|216:325|187:327,1,40,8|8,0:0|0:0,0:0:0:0:
112,364,213599,2,0,P|88:360|59:358,1,40,8|8,3:0|3:0,0:0:0:0:
0,155,213781,5,8,0:0:0:0:
35,128,213872,1,8,0:0:0:0:
78,116,213963,1,4,3:0:0:0:
123,120,214054,1,4,3:0:0:0:
157,137,214144,70,0,P|214:151|239:153,1,80,4|0,1:0|0:0,0:0:0:0:
396,204,214508,1,10,0:0:0:0:
215,252,214690,1,10,0:0:0:0:
328,123,214872,1,2,1:2:0:0:
169,55,215053,1,2,0:0:0:0:
263,4,215235,1,10,0:0:0:0:
94,187,215417,6,0,P|37:201|12:203,1,80,2|0,0:0|1:0,0:0:0:0:
158,342,215781,2,0,P|197:337|236:326,1,80,2|8,0:0|0:0,0:0:0:0:
396,254,216144,1,10,0:0:0:0:
396,254,216235,1,10,0:0:0:0:
396,254,216326,1,2,1:2:0:0:
385,363,216508,1,2,0:0:0:0:
272,230,216690,2,0,P|277:191|288:152,1,80,8|8,0:0|0:0,0:0:0:0:
401,17,217053,70,0,P|390:55|384:95,1,80,4|0,1:2|0:0,0:0:0:0:
311,318,217417,1,8,0:0:0:0:
268,115,217599,1,2,1:2:0:0:
381,233,217781,1,8,0:0:0:0:
439,75,217963,1,0,1:0:0:0:
494,172,218144,1,8,0:0:0:0:
297,19,218326,6,0,P|231:4|139:73,1,160,4|0,1:0|1:0,0:0:0:0:
301,162,218872,1,8,0:0:0:0:
384,94,219053,2,0,P|422:83|462:77,1,80,2|8,1:2|0:0,0:0:0:0:
512,266,219417,1,0,1:0:0:0:
381,233,219599,1,8,0:0:0:0:
345,228,219689,1,8,0:0:0:0:
310,236,219780,1,8,0:0:0:0:
279,254,219871,1,8,0:0:0:0:
256,282,219963,70,0,B|192:275|147:306|147:306|92:274,1,160,4|8,1:2|0:0,0:0:0:0:
0,191,220508,2,0,P|77:168|156:131,1,160,8|0,0:0|1:0,0:0:0:0:
269,63,221053,1,8,0:0:0:0:
294,171,221235,1,2,0:0:0:0:
435,104,221417,6,0,P|473:115|512:120,1,80,0|0,1:0|1:0,0:0:0:0:
401,1,221781,1,10,0:0:0:0:
334,181,221963,1,0,1:0:0:0:
334,181,222053,1,0,1:0:0:0:
334,181,222144,2,0,P|343:226|348:248,1,40,8|8,0:0|0:0,0:0:0:0:
418,298,222326,69,8,0:0:0:0:
383,317,222417,1,8,0:0:0:0:
344,325,222508,1,10,0:0:0:0:
304,319,222599,1,10,0:0:0:0:
263,299,222690,1,10,0:0:0:0:
228,279,222781,1,10,0:0:0:0:
189,271,222872,5,4,1:2:0:0:
256,192,222963,12,2,230144,0:0:0:0:
