osu file format v14

[General]
AudioFilename: audio.mp3
AudioLeadIn: 0
PreviewTime: 58591
Countdown: 0
SampleSet: Soft
StackLeniency: 0.5
Mode: 0
LetterboxInBreaks: 0
WidescreenStoryboard: 0

[Editor]
DistanceSpacing: 1.3
BeatDivisor: 4
GridSize: 4
TimelineZoom: 1.7

[Metadata]
Title:Smile (TV Size)
TitleUnicode:スマイル (TV Size)
Artist:Mizuhashi Mai
ArtistUnicode:水橋舞
Creator:bossandy
Version:Ren's Normal
Source:ひとひら
Tags:Hitohira Silent Rock DeRandom Otaku ending ed Anime Japanese
BeatmapID:1967347
BeatmapSetID:941587

[Difficulty]
HPDrainRate:4
CircleSize:3
OverallDifficulty:4
ApproachRate:4.8
SliderMultiplier:1.3
SliderTickRate:1

[Events]
//Background and Video events
0,0,"BG.jpg",0,0
Video,181,"Smile (TV Size).avi"
//Break Periods
//Storyboard Layer 0 (Background)
//Storyboard Layer 1 (Fail)
//Storyboard Layer 2 (Pass)
//Storyboard Layer 3 (Foreground)
//Storyboard Layer 4 (Overlay)
//Storyboard Sound Samples

[TimingPoints]
2269,408.135500986327,4,2,1,70,1,0
16961,408.135500986327,4,2,1,60,1,0
16961,-100,4,2,1,60,0,0
59407,408.135500986327,4,2,1,80,1,1
59407,-100,4,2,1,80,0,1
82262,408.135500986327,4,2,1,70,1,0
82262,-100,4,2,1,70,0,0
88589,-100,4,2,1,50,0,0

[Colours]
Combo1 : 67,91,117
Combo2 : 183,154,84
Combo3 : 191,193,179
Combo4 : 200,116,116
Combo5 : 109,113,80
Combo6 : 123,94,125
Combo7 : 112,72,81
Combo8 : 249,222,131

[HitObjects]
47,62,2268,6,0,B|119:62|90:113|185:118,1,130,4|4,0:0|0:0,0:0:0:0:
297,38,3289,2,0,P|326:39|371:53,1,65,0|2,0:0|0:0,0:0:0:0:
407,70,3697,1,4,0:0:0:0:
351,157,4105,2,0,P|359:189|366:241,1,65,0|2,0:0|0:0,0:0:0:0:
368,272,4513,1,4,0:0:0:0:
452,332,4921,2,0,P|457:299|465:268,1,65,0|2,0:0|0:0,0:0:0:0:
481,218,5330,1,4,0:0:0:0:
509,118,5738,6,0,P|483:99|445:80,1,65,0|2,0:0|0:0,0:0:0:0:
407,70,6146,1,4,0:0:0:0:
330,140,6554,2,0,P|304:159|266:178,1,65,0|2,0:0|0:0,0:0:0:0:
228,188,6962,1,4,0:0:0:0:
189,91,7370,2,0,P|163:72|125:53,1,65,0|2,0:0|0:0,0:0:0:0:
82,52,7778,2,0,B|33:168|112:139|67:255,1,195,4|2,0:0|0:0,0:0:0:0:
39,339,8799,6,0,P|104:334|174:331,1,130,4|2,0:0|0:0,0:0:0:0:
212,359,9411,1,2,0:0:0:0:
285,285,9819,1,2,0:0:0:0:
358,358,10227,1,2,0:0:0:0:
431,284,10635,1,2,0:0:0:0:
357,210,11043,2,0,P|358:142|400:78,1,130,2|2,0:0|0:0,0:0:0:0:
424,52,11656,1,2,0:0:0:0:
324,20,12064,5,4,0:0:0:0:
324,20,12268,2,0,B|203:23|272:97|125:100,1,195,4|4,0:0|0:0,0:0:0:0:
101,98,13084,1,4,0:0:0:0:
27,171,13492,1,0,0:0:0:0:
27,171,13696,2,0,P|41:218|46:299,1,130,4|2,0:0|0:0,0:0:0:0:
37,349,14308,2,0,B|220:302|108:217|316:166,1,325,4|2,0:0|3:2,0:0:0:0:
296,171,16961,6,0,L|319:29,1,130,4|2,3:2|3:2,0:0:0:0:
420,42,17777,2,0,L|440:170,1,130,0|2,3:0|3:2,0:0:0:0:
482,201,18389,2,0,P|446:261|430:321,1,130,0|2,0:0|0:0,0:0:0:0:
340,371,19205,2,0,P|322:308|245:191,1,195,0|2,0:0|3:2,0:0:0:0:
215,163,20022,1,0,0:0:0:0:
215,163,20226,6,0,L|350:171,2,130,0|2|0,3:0|3:2|3:0,0:0:0:0:
111,163,21450,1,2,3:2:0:0:
111,163,21654,2,0,B|112:96|112:96|159:34,1,130,0|2,0:0|0:0,0:0:0:0:
248,13,22470,1,0,0:0:0:0:
345,45,22878,2,0,B|384:96|384:96|385:163,1,130,2|0,0:0|0:0,0:0:0:0:
361,209,23491,6,0,B|434:202|416:166|484:164,2,130,0|2|0,3:0|3:2|3:0,0:0:0:0:
256,198,24715,1,2,3:2:0:0:
256,198,24919,2,0,P|253:262|255:341,1,130,0|2,0:0|0:0,0:0:0:0:
359,339,25735,2,0,P|362:275|360:196,1,130,0|0,0:0|0:0,0:0:0:0:
342,106,26552,1,0,0:0:0:0:
342,106,26756,6,0,B|274:108|289:66|205:69,1,130,0|2,3:0|3:2,0:0:0:0:
182,104,27368,2,0,B|114:106|129:64|45:67,1,130,0|0,0:0|0:0,0:0:0:0:
58,170,28184,2,0,B|115:203|115:203|254:189,1,195,4|2,0:0|3:2,0:0:0:0:
295,185,29000,2,0,P|286:229|285:265,1,65,4|0,3:2|3:0,0:0:0:0:
290,300,29409,1,6,3:2:0:0:
290,300,29613,1,0,0:0:0:0:
363,373,30021,6,0,P|414:351|491:351,2,130,4|2|0,3:2|3:2|3:0,0:0:0:0:
290,300,31245,1,2,3:2:0:0:
290,300,31449,2,0,P|239:322|162:322,1,130,0|2,0:0|0:0,0:0:0:0:
147,220,32266,2,0,P|198:198|275:198,1,130,0|0,0:0|0:0,0:0:0:0:
367,236,33082,1,0,0:0:0:0:
367,236,33286,6,0,P|377:173|398:95,1,130,0|2,3:0|3:2,0:0:0:0:
298,70,34102,2,0,P|288:133|267:211,1,130,0|2,3:0|0:0,0:0:0:0:
252,245,34714,2,0,B|197:216|197:216|108:241,1,130,0|2,0:0|0:0,0:0:0:0:
39,282,35531,1,0,0:0:0:0:
119,347,35939,2,0,B|174:376|174:376|263:351,1,130,2|0,0:0|0:0,0:0:0:0:
284,331,36551,6,0,L|424:349,1,130,0|2,3:0|3:2,0:0:0:0:
469,260,37367,2,0,L|340:243,1,130,0|2,3:0|3:2,0:0:0:0:
289,233,37979,1,0,3:0:0:0:
342,143,38388,1,2,0:0:0:0:
249,95,38796,2,0,L|120:78,1,130,0|0,0:0|0:0,0:0:0:0:
25,122,39612,1,0,0:0:0:0:
25,122,39816,6,0,P|42:178|59:262,1,130,0|2,3:0|3:2,0:0:0:0:
72,350,40632,2,0,P|40:339|0:337,2,65,0|0|2,3:0|0:0|3:2,0:0:0:0:
118,373,41245,2,0,P|131:309|149:247,1,130,0|0,3:0|3:0,0:0:0:0:
180,147,42061,2,0,B|239:173|239:173|302:159,1,130,0|0,3:0|3:0,0:0:0:0:
353,146,42673,1,2,3:2:0:0:
426,72,43081,5,4,3:2:0:0:
499,145,43489,2,0,P|483:206|474:292,2,130,2|0|2,3:0|3:0|3:0,0:0:0:0:
426,72,44714,2,0,P|369:49|277:48,1,130,0|2,3:0|3:0,0:0:0:0:
264,81,45326,2,0,P|199:76|139:53,1,130,0|0,3:0|3:0,0:0:0:0:
39,21,46142,6,0,P|50:88|52:178,1,130,4|0,3:2|0:0,0:0:0:0:
52,201,46754,1,2,3:0:0:0:
36,303,47163,2,0,P|70:304|111:302,1,65,0|0,3:0|0:0,0:0:0:0:
152,299,47571,1,2,3:0:0:0:
226,226,47979,2,0,P|270:218|314:219,1,65,0|0,3:0|3:0,0:0:0:0:
341,225,48387,1,2,3:0:0:0:
341,225,48591,2,0,P|343:166|339:70,1,130,0|0,3:0|3:0,0:0:0:0:
336,43,49203,1,2,3:2:0:0:
256,110,49611,5,4,3:2:0:0:
176,43,50019,2,0,L|35:52,2,130,2|0|2,3:0|3:0|3:0,0:0:0:0:
256,110,51244,1,0,3:0:0:0:
336,43,51652,1,2,3:0:0:0:
336,43,51856,2,0,L|477:52,1,130,0|0,3:0|3:0,0:0:0:0:
489,152,52672,6,0,L|359:143,1,130,4|0,3:2|3:0,0:0:0:0:
309,128,53285,2,0,P|328:174|343:272,1,130,2|2,3:0|3:0,0:0:0:0:
342,304,53897,1,2,3:2:0:0:
419,373,54305,2,0,P|429:308|452:248,1,130,4|0,3:2|3:0,0:0:0:0:
472,200,54917,2,0,P|461:135|438:75,1,130,2|2,3:0|3:0,0:0:0:0:
412,30,55529,1,2,3:2:0:0:
354,116,55937,1,4,0:0:0:0:
256,192,56142,12,4,58386,3:2:0:0:
354,116,59407,6,0,P|288:115|232:57,1,130,4|2,3:2|0:0,0:0:0:0:
236,22,60019,2,0,P|172:33|94:21,1,130,0|0,0:0|0:0,0:0:0:0:
56,19,60631,1,2,3:2:0:0:
16,115,61039,2,0,B|55:167|55:167|55:251,1,130,0|2,3:0|0:0,0:0:0:0:
55,283,61651,2,0,B|107:244|107:244|191:244,1,130,0|0,0:0|0:0,0:0:0:0:
223,244,62263,2,0,P|215:281|213:327,1,65,2|0,3:2|0:0,0:0:0:0:
214,359,62672,5,0,3:0:0:0:
315,336,63080,1,2,0:0:0:0:
315,336,63284,2,0,B|417:313|364:254|487:221,1,195,0|2,0:0|3:2,0:0:0:0:
418,135,64304,2,0,P|374:155|319:205,2,97.5,2|0|2,3:2|3:0|0:0,0:0:0:0:
468,121,65120,1,0,3:0:0:0:
406,36,65529,2,0,L|316:36,1,65,2|0,3:2|0:0,0:0:0:0:
304,72,65937,6,0,L|142:72,1,130,0|2,3:0|3:2,0:0:0:0:
137,35,66549,1,0,0:0:0:0:
38,155,67161,2,0,P|48:191|49:228,1,65,2|0,0:2|0:0,0:0:0:0:
16,258,67569,2,0,P|64:262|112:271,1,97.5,2|0,3:2|0:0,0:0:0:0:
180,316,68181,2,0,P|247:309|313:297,1,130,2|0,0:0|0:0,0:0:0:0:
359,290,68794,1,2,3:2:0:0:
454,247,69202,6,0,P|441:325|436:380,2,130,0|2|0,3:0|3:2|3:0,0:0:0:0:
475,145,70426,1,2,3:2:0:0:
475,145,70630,1,0,3:0:0:0:
475,145,70834,2,0,B|410:132|410:132|339:169,1,130,0|2,3:0|0:0,0:0:0:0:
271,226,71651,2,0,B|214:255|214:255|149:242,1,130,0|2,3:0|3:2,0:0:0:0:
98,231,72263,1,0,0:0:0:0:
98,231,72467,6,0,P|109:172|115:91,1,130,4|2,3:2|0:0,0:0:0:0:
108,50,73079,1,0,3:2:0:0:
255,99,73691,2,0,P|294:98|330:82,1,65,2|0,3:2|0:0,0:0:0:0:
360,60,74099,2,0,L|350:193,1,130,0|2,3:0|0:0,0:0:0:0:
352,240,74712,1,0,3:0:0:0:
352,240,74916,1,0,0:0:0:0:
455,240,75324,2,0,P|449:283|449:331,1,65,2|0,3:2|0:0,0:0:0:0:
459,355,75732,6,0,P|415:322|339:322,1,130,0|2,3:0|0:0,0:0:0:0:
259,257,76548,2,0,P|215:290|196:364,2,130,0|2|0,3:0|0:0|3:0,0:0:0:0:
308,240,77569,1,0,3:0:0:0:
226,174,77977,2,0,B|201:115|201:115|230:41,1,130,0|0,3:0|3:0,0:0:0:0:
251,8,78589,1,2,0:0:0:0:
330,74,78997,6,0,B|396:96|459:71|459:71|412:171|439:286,1,325,2|0,0:0|0:0,0:0:0:0:
441,309,80221,1,2,0:0:0:0:
337,300,80630,2,0,P|286:316|218:365,1,130,0|0,3:0|3:0,0:0:0:0:
168,270,81446,2,0,P|220:231|281:210,1,130,0|0,3:0|3:0,0:0:0:0:
385,211,82262,5,6,3:2:0:0:
337,300,82670,2,0,P|388:316|456:365,2,130,6|0|2,0:0|0:0|0:0,0:0:0:0:
286,289,83690,1,4,3:2:0:0:
198,345,84098,2,0,P|155:341|115:334,1,65,0|2,3:0|0:0,0:0:0:0:
81,337,84506,1,4,3:2:0:0:
7,263,84914,2,0,P|22:219|25:177,1,65,0|2,3:0|0:0,0:0:0:0:
14,149,85323,6,0,B|72:149|72:149|83:158|83:158|149:157,1,130,4|0,3:2|3:0,0:0:0:0:
177,120,85935,1,2,0:0:0:0:
177,120,86139,2,0,B|235:120|235:120|246:129|246:129|312:128,1,130,4|0,3:2|3:0,0:0:0:0:
340,91,86751,1,2,0:0:0:0:
340,91,86955,1,4,3:2:0:0:
256,192,87159,12,4,88588,0:1:0:0:
