osu file format v14

[General]
AudioFilename: audio.mp3
AudioLeadIn: 0
PreviewTime: 36527
Countdown: 0
SampleSet: Normal
StackLeniency: 0.2
Mode: 0
LetterboxInBreaks: 0
WidescreenStoryboard: 1

[Editor]
Bookmarks: 365,5554,15932,26310,36689,39283,49644,60006,70384,78188,87234
DistanceSpacing: 1.2
BeatDivisor: 4
GridSize: 32
TimelineZoom: 1.5

[Metadata]
Title:Gamushara (TV Size)
TitleUnicode:ガムシャラ (TV Size)
Artist:Miyuna
ArtistUnicode:みゆな
Creator:Voltaeyx
Version:AR3 (Insane)
Source:
Tags:
BeatmapID:1831041
BeatmapSetID:876063

[Difficulty]
HPDrainRate:4
CircleSize:3.2
OverallDifficulty:9
ApproachRate:3
SliderMultiplier:1.5
SliderTickRate:1

[Events]
//Background and Video events
0,0,"bg.png",0,0
//Break Periods
//Storyboard Layer 0 (Background)
//Storyboard Layer 1 (Fail)
//Storyboard Layer 2 (Pass)
//Storyboard Layer 3 (Foreground)
//Storyboard Sound Samples

[TimingPoints]
365,324.324324324324,4,1,0,50,1,0
4905,-200,4,1,0,20,0,0
5067,-200,4,1,0,40,0,0
5229,-200,4,1,0,60,0,0
5554,-133.333333333333,4,1,0,60,0,0
22419,-100,4,1,0,60,0,0
23067,-200,4,1,0,60,0,0
23716,-133.333333333333,4,1,0,60,0,0
26310,-200,4,1,0,60,0,0
37662,-400,4,1,0,60,0,0
39283,323.79924446843,4,1,0,50,1,1
39283,-100,4,1,0,50,0,1
60006,324.324324324324,4,1,0,50,1,1
70384,325.20325203252,4,1,0,50,1,1
76888,-100,4,1,0,50,0,0
82741,-200,4,1,0,20,0,0
82904,-200,4,1,0,40,0,0
83066,-200,4,1,0,60,0,0
83392,320.17075773746,4,1,0,50,1,0

[HitObjects]
99,131,365,6,0,L|95:205,1,75
45,284,689,1,0,0:0:0:0:
13,203,851,1,0,0:0:0:0:
177,205,1013,1,0,0:0:0:0:
143,285,1175,1,0,0:0:0:0:
203,359,1337,2,0,L|277:363,1,75
375,342,1662,1,0,0:0:0:0:
410,245,1824,1,0,0:0:0:0:
255,171,1986,1,0,0:0:0:0:
282,270,2148,1,0,0:0:0:0:
292,280,2959,6,0,L|327:212,1,75
399,155,3283,1,0,0:0:0:0:
480,187,3445,1,0,0:0:0:0:
478,23,3607,1,0,0:0:0:0:
398,57,3769,1,0,0:0:0:0:
315,26,3932,2,0,L|253:68,1,75
172,125,4256,1,0,0:0:0:0:
75,90,4418,1,0,0:0:0:0:
1,245,4580,1,0,0:0:0:0:
100,218,4742,1,0,0:0:0:0:
73,310,4905,6,0,L|61:345,2,37.5
132,384,5392,1,0,0:0:0:0:
181,309,5554,6,0,P|197:255|195:199,1,112.500004291535
218,384,6040,1,0,0:0:0:0:
299,363,6202,2,0,P|355:361|408:377,1,112.500004291535
277,269,6689,1,0,0:0:0:0:
326,194,6851,2,0,P|342:140|340:84,1,112.500004291535
367,274,7337,1,0,0:0:0:0:
449,252,7499,2,0,P|476:248|504:250,2,56.2500021457673
427,158,7986,1,0,0:0:0:0:
490,88,8148,6,0,P|474:37|421:33,1,112.500004291535
341,85,8635,1,0,0:0:0:0:
257,37,8797,2,0,P|207:54|206:107,1,112.500004291535
278,167,9283,1,0,0:0:0:0:
245,250,9446,1,0,0:0:0:0:
255,260,10094,5,0,0:0:0:0:
341,85,10419,1,0,0:0:0:0:
265,268,10743,6,0,L|249:380,1,112.500004291535
171,326,11229,1,0,0:0:0:0:
116,193,11392,2,0,L|124:249,1,56.2500021457673
208,104,11716,2,0,L|200:160,1,56.2500021457673
265,268,12040,2,0,P|318:250|357:210,1,112.500004291535
285,152,12527,1,0,0:0:0:0:
386,56,12689,2,0,P|359:65|340:85,1,56.2500021457673
466,150,13013,2,0,P|441:137|414:138,1,56.2500021457673
512,228,13337,6,0,L|508:284,1,56.2500021457673
430,377,13662,2,0,L|426:320,1,56.2500021457673
356,210,13986,2,0,L|337:263,1,56.2500021457673
239,333,14311,2,0,L|249:276,1,56.2500021457673
168,206,14635,2,0,L|199:159,2,56.2500021457673
155,290,15121,1,0,0:0:0:0:
0,241,15283,1,0,0:0:0:0:
106,148,15446,1,0,0:0:0:0:
38,42,15608,1,0,0:0:0:0:
4,134,15770,1,0,0:0:0:0:
14,144,15932,6,0,P|66:124|122:120,1,112.500004291535
280,151,16419,1,0,0:0:0:0:
234,76,16581,2,0,P|185:47|131:33,1,112.500004291535
318,29,17067,1,0,0:0:0:0:
384,87,17229,2,0,P|403:139|407:195,1,112.500004291535
377,353,17716,1,0,0:0:0:0:
452,307,17878,2,0,P|480:258|494:204,1,112.500004291535
351,272,18364,1,0,0:0:0:0:
267,243,18527,6,0,P|211:237|156:247,1,112.500004291535
11,318,19013,1,0,0:0:0:0:
36,234,19175,2,0,P|74:193|123:166,1,112.500004291535
278,126,19662,1,0,0:0:0:0:
205,78,19824,1,0,0:0:0:0:
195,68,20473,5,0,0:0:0:0:
194,323,20797,1,0,0:0:0:0:
185,58,21121,6,0,L|70:45,1,112.500004291535
0,138,21608,1,0,0:0:0:0:
169,152,21770,2,0,L|112:155,1,56.2500021457673
99,241,22094,2,0,L|44:254,1,56.2500021457673
45,340,22419,2,0,B|19:351|19:351|87:337|139:349,1,150
261,268,22905,1,0,0:0:0:0:
387,329,23067,2,0,L|387:367,1,37.5
470,384,23392,2,0,L|508:384,1,37.5
467,299,23716,6,0,L|472:243,1,56.2500021457673
470,71,24040,1,0,0:0:0:0:
423,157,24202,1,0,0:0:0:0:
379,15,24364,2,0,L|373:70,1,56.2500021457673
376,243,24688,1,0,0:0:0:0:
326,160,24851,1,0,0:0:0:0:
294,354,25013,2,0,B|254:317|254:317|198:333,1,112.500004291535
87,264,25500,5,0,0:0:0:0:
99,318,25581,1,0,0:0:0:0:
111,372,25662,1,0,0:0:0:0:
198,240,25824,1,0,0:0:0:0:
3,356,25986,1,0,0:0:0:0:
114,168,26148,1,0,0:0:0:0:
0,227,26310,6,0,L|14:153,1,75
14,153,26959,1,0,0:0:0:0:
195,23,27608,6,0,L|209:96,1,75
210,97,28257,1,0,0:0:0:0:
175,335,28905,6,0,L|101:320,1,75
262,303,29554,2,0,L|335:288,1,75
429,213,30202,6,0,L|443:139,1,75
443,139,30851,1,0,0:0:0:0:
333,98,31175,1,0,0:0:0:0:
255,191,31500,1,0,0:0:0:0:
265,201,32148,5,0,0:0:0:0:
79,266,32473,1,0,0:0:0:0:
14,80,32797,1,0,0:0:0:0:
185,272,33121,1,0,0:0:0:0:
7,186,33446,1,0,0:0:0:0:
93,8,33770,1,0,0:0:0:0:
279,312,34094,1,0,0:0:0:0:
279,312,36689,5,0,0:0:0:0:
282,301,36770,1,0,0:0:0:0:
285,290,36851,1,0,0:0:0:0:
288,279,36932,1,0,0:0:0:0:
291,268,37013,1,0,0:0:0:0:
294,257,37094,1,0,0:0:0:0:
297,246,37175,5,0,0:0:0:0:
292,229,37256,1,0,0:0:0:0:
288,213,37337,1,0,0:0:0:0:
283,196,37418,1,0,0:0:0:0:
279,180,37499,1,0,0:0:0:0:
274,163,37581,1,0,0:0:0:0:
269,146,37662,6,0,L|287:71,1,75
295,83,39283,6,0,P|337:24|408:29,1,150
365,165,39768,1,0,0:0:0:0:
472,173,39930,2,0,L|481:98,2,75
507,361,40416,1,0,0:0:0:0:
443,282,40578,2,0,P|474:262|511:260,1,75
406,376,40901,2,0,P|371:362|334:366,1,75
204,368,41225,1,0,0:0:0:0:
259,185,41387,1,0,0:0:0:0:
179,261,41549,1,0,0:0:0:0:
179,261,41873,6,0,L|113:297,1,75
87,213,42197,2,0,L|14:231,1,75
56,115,42520,2,0,L|130:115,1,75
2,7,42844,2,0,L|74:27,1,75
196,56,43168,2,0,P|267:74|341:62,1,150
472,23,43654,1,0,0:0:0:0:
421,199,43816,1,0,0:0:0:0:
422,102,43978,1,0,0:0:0:0:
473,278,44139,1,0,0:0:0:0:
473,278,44463,6,0,L|400:297,1,75
162,354,44787,1,0,0:0:0:0:
269,163,44949,1,0,0:0:0:0:
347,375,45111,1,0,0:0:0:0:
158,260,45273,1,0,0:0:0:0:
510,194,45435,1,0,0:0:0:0:
341,224,45597,1,0,0:0:0:0:
341,62,45758,5,0,0:0:0:0:
252,256,45920,1,0,0:0:0:0:
147,36,46082,1,0,0:0:0:0:
78,310,46244,1,0,0:0:0:0:
182,175,46406,1,0,0:0:0:0:
256,350,46568,1,0,0:0:0:0:
421,199,46730,1,0,0:0:0:0:
215,93,46892,1,0,0:0:0:0:
400,296,47054,6,0,P|437:294|474:289,1,75
496,96,47377,2,0,P|458:97|421:102,1,75
342,149,47701,2,0,P|342:186|340:223,1,75
165,331,48025,2,0,P|164:293|166:256,1,75
106,384,48349,5,0,0:0:0:0:
0,263,48511,1,0,0:0:0:0:
35,117,48673,1,0,0:0:0:0:
93,191,48835,1,0,0:0:0:0:
91,205,48916,1,0,0:0:0:0:
89,219,48996,1,0,0:0:0:0:
166,74,49158,1,0,0:0:0:0:
168,88,49239,1,0,0:0:0:0:
170,102,49320,1,0,0:0:0:0:
172,116,49401,1,0,0:0:0:0:
174,130,49482,1,0,0:0:0:0:
176,144,49563,1,0,0:0:0:0:
178,158,49644,6,0,P|236:134|233:198,1,150
248,50,50130,1,0,0:0:0:0:
324,223,50292,2,0,P|304:255|273:273,2,75
331,124,50777,1,0,0:0:0:0:
498,100,50939,2,0,L|485:173,1,75
406,75,51263,2,0,L|393:1,1,75
426,247,51587,1,0,0:0:0:0:
374,320,51749,1,0,0:0:0:0:
295,365,51911,1,0,0:0:0:0:
295,365,52234,6,0,L|221:380,1,75
221,291,52558,2,0,L|146:287,1,75
96,176,52882,2,0,L|168:200,1,75
77,57,53206,2,0,L|140:98,1,75
14,129,53530,2,0,P|4:201|48:260,1,150
119,371,54015,1,0,0:0:0:0:
95,371,54096,1,0,0:0:0:0:
73,365,54177,1,0,0:0:0:0:
253,201,54339,1,0,0:0:0:0:
227,384,54501,1,0,0:0:0:0:
227,384,54825,6,0,L|300:371,1,75
431,352,55149,1,0,0:0:0:0:
259,290,55311,1,0,0:0:0:0:
416,173,55472,1,0,0:0:0:0:
244,111,55634,1,0,0:0:0:0:
388,13,55796,1,0,0:0:0:0:
327,149,55958,1,0,0:0:0:0:
316,62,56120,5,0,0:0:0:0:
338,236,56282,1,0,0:0:0:0:
170,163,56444,1,0,0:0:0:0:
236,21,56606,1,0,0:0:0:0:
252,201,56768,1,0,0:0:0:0:
162,73,56930,1,0,0:0:0:0:
96,214,57091,1,0,0:0:0:0:
259,290,57253,1,0,0:0:0:0:
108,305,57415,6,0,P|70:305|34:316,1,75
180,373,57739,2,0,P|217:373|253:384,1,75
380,384,58063,2,0,P|380:346|391:310,1,75
430,167,58387,2,0,P|430:204|441:240,1,75
499,109,58710,5,0,0:0:0:0:
377,32,58872,1,0,0:0:0:0:
466,26,59034,1,0,0:0:0:0:
356,119,59196,1,0,0:0:0:0:
272,44,59358,1,0,0:0:0:0:
265,65,59439,1,0,0:0:0:0:
263,87,59520,1,0,0:0:0:0:
266,108,59601,1,0,0:0:0:0:
274,127,59682,1,0,0:0:0:0:
276,147,59763,1,0,0:0:0:0:
272,166,59844,1,0,0:0:0:0:
263,183,59925,1,0,0:0:0:0:
248,197,60006,6,0,P|239:234|247:273,1,75
305,353,60330,1,0,0:0:0:0:
151,232,60492,1,0,0:0:0:0:
208,372,60654,2,0,P|180:344|143:332,1,75
62,376,60978,1,0,0:0:0:0:
0,177,61141,1,0,0:0:0:0:
24,298,61303,2,0,P|51:270|63:233,1,75
65,77,61627,2,0,P|80:110|80:147,1,75
134,3,61951,1,0,0:0:0:0:
176,175,62114,1,0,0:0:0:0:
225,73,62276,1,0,0:0:0:0:
225,73,62600,6,0,P|252:47|274:17,1,75
300,166,62924,2,0,P|319:134|333:99,1,75
411,162,63249,2,0,P|407:200|396:236,1,75
502,204,63573,2,0,P|507:241|506:278,1,75
512,116,63897,2,0,B|493:44|493:44|419:25,1,150
334,100,64384,1,0,0:0:0:0:
152,90,64546,2,0,P|175:30|224:72,1,150
224,72,65195,6,0,L|231:146,1,75
253,370,65519,1,0,0:0:0:0:
132,233,65681,1,0,0:0:0:0:
242,258,65843,1,0,0:0:0:0:
346,213,66006,1,0,0:0:0:0:
74,329,66168,1,0,0:0:0:0:
421,299,66330,1,0,0:0:0:0:
22,208,66492,5,0,0:0:0:0:
328,308,66654,1,0,0:0:0:0:
334,100,66816,1,0,0:0:0:0:
170,324,66978,1,0,0:0:0:0:
121,121,67141,1,0,0:0:0:0:
449,167,67303,1,0,0:0:0:0:
226,0,67465,1,0,0:0:0:0:
231,146,67627,1,0,0:0:0:0:
57,52,67789,6,0,P|35:83|27:119,1,75
242,258,68114,2,0,P|207:243|181:217,1,75
349,16,68438,2,0,P|383:30|409:56,1,75
421,299,68762,2,0,P|453:280|475:250,1,75
500,69,69087,6,0,L|485:142,1,75
368,185,69411,1,0,0:0:0:0:
326,329,69573,1,0,0:0:0:0:
326,329,69654,1,0,0:0:0:0:
326,329,69735,2,0,L|329:291,1,37.5
16,325,69897,2,0,L|9:288,1,37.5
181,217,70060,2,0,L|177:179,1,37.5
178,384,70222,2,0,L|177:346,1,37.5
106,274,70384,6,0,P|77:206|91:133,1,150
170,72,70871,1,0,0:0:0:0:
267,74,71034,2,0,B|328:74|328:74|346:56|346:56|410:56,1,150
500,69,71522,1,0,0:0:0:0:
463,222,71684,2,0,P|450:186|454:149,1,75
504,369,72010,2,0,P|516:333|512:296,1,75
329,280,72335,2,0,P|320:344|386:328,2,150
409,56,73310,5,0,0:0:0:0:
91,133,73636,1,0,0:0:0:0:
329,280,73961,5,0,0:0:0:0:
288,184,74123,1,0,0:0:0:0:
225,264,74286,1,0,0:0:0:0:
249,88,74449,1,0,0:0:0:0:
390,196,74611,1,0,0:0:0:0:
139,384,74936,5,0,0:0:0:0:
106,9,75262,1,0,0:0:0:0:
39,331,75587,6,0,L|29:254,1,75
14,96,75912,1,0,0:0:0:0:
172,158,76075,1,0,0:0:0:0:
160,196,76156,1,0,0:0:0:0:
148,235,76237,1,0,0:0:0:0:
329,280,76400,1,0,0:0:0:0:
333,92,76562,1,0,0:0:0:0:
497,126,76725,1,0,0:0:0:0:
507,136,78188,6,0,L|503:209,1,75
508,304,78514,1,0,0:0:0:0:
420,330,78676,1,0,0:0:0:0:
309,316,78839,1,0,0:0:0:0:
223,343,79001,1,0,0:0:0:0:
112,329,79164,2,0,L|122:256,1,75
125,161,79490,1,0,0:0:0:0:
215,143,79652,1,0,0:0:0:0:
412,147,79815,1,0,0:0:0:0:
324,166,79977,1,0,0:0:0:0:
314,176,80790,6,0,L|310:103,1,75
377,39,81115,1,0,0:0:0:0:
289,13,81277,1,0,0:0:0:0:
178,27,81440,1,0,0:0:0:0:
92,0,81602,1,0,0:0:0:0:
120,86,81766,2,0,L|124:159,1,75
145,249,82091,1,0,0:0:0:0:
57,223,82253,1,0,0:0:0:0:
256,235,82416,1,0,0:0:0:0:
342,262,82578,1,0,0:0:0:0:
284,321,82741,6,0,L|286:357,2,37.5
400,346,83229,1,0,0:0:0:0:
501,384,83392,6,0,L|499:309,1,75
497,187,83712,1,0,0:0:0:0:
406,167,83874,1,0,0:0:0:0:
324,60,84037,1,0,0:0:0:0:
236,41,84199,1,0,0:0:0:0:
120,86,84352,2,0,L|124:159,1,75
156,319,84672,1,0,0:0:0:0:
65,339,84834,1,0,0:0:0:0:
289,205,84997,1,0,0:0:0:0:
201,224,85159,1,0,0:0:0:0:
73,255,85313,5,0,0:0:0:0:
95,250,85393,1,0,0:0:0:0:
118,246,85473,1,0,0:0:0:0:
252,125,85633,1,0,0:0:0:0:
230,130,85713,1,0,0:0:0:0:
207,134,85793,1,0,0:0:0:0:
256,309,85953,6,0,L|330:318,1,75
480,384,86273,1,0,0:0:0:0:
448,110,86435,1,0,0:0:0:0:
454,296,86598,1,0,0:0:0:0:
475,196,86760,1,0,0:0:0:0:
