osu file format v14

[General]
AudioFilename: audio.mp3
AudioLeadIn: 0
PreviewTime: 38425
Countdown: 0
SampleSet: Soft
StackLeniency: 0.7
Mode: 2
LetterboxInBreaks: 0
WidescreenStoryboard: 1

[Editor]
Bookmarks: 5759,60210
DistanceSpacing: 1.2
BeatDivisor: 4
GridSize: 8
TimelineZoom: 3.099999

[Metadata]
Title:Gamushara (TV Size)
TitleUnicode:ガムシャラ (TV Size)
Artist:Miyuna
ArtistUnicode:みゆな
Creator:Verti
Version:Cup
Source:ブラッククローバー
Tags:rock jrock j-rock anime japanese jp black clover opening op 5 yuno asta vanessa noelle shonen female vocal vocals vocalist cut ver muya- HakuYT juansy- golo- kegare- chickenbible secre Juanfmlal short five asta アスタ studio pierrot
BeatmapID:3915395
BeatmapSetID:1518652

[Difficulty]
HPDrainRate:2
CircleSize:2.5
OverallDifficulty:6
ApproachRate:6
SliderMultiplier:1.15
SliderTickRate:1

[Events]
//Background and Video events
0,0,"gamushara.jpg",0,0
//Break Periods
//Storyboard Layer 0 (Background)
//Storyboard Layer 1 (Fail)
//Storyboard Layer 2 (Pass)
//Storyboard Layer 3 (Foreground)
//Storyboard Layer 4 (Overlay)
//Storyboard Sound Samples

[TimingPoints]
570,324.324324324324,4,2,1,70,1,0
5597,-100,4,2,1,70,0,0
5759,-100,4,2,1,70,0,0
9650,-100,4,2,1,70,0,0
11920,350.877192982456,4,2,1,70,1,0
12095,298.507462686567,4,2,1,70,1,0
12244,324.324324324324,4,2,1,70,1,0
13541,326.086956521739,4,2,1,70,1,0
14845,324.324324324324,4,2,1,70,1,0
15493,310.880829015544,4,2,1,70,1,0
16119,327.868852459016,4,2,1,70,1,0
18741,324.324324324324,4,2,1,70,1,0
20038,-100,4,2,1,70,0,0
21335,323.450134770889,4,2,1,70,1,0
23922,324.324324324324,4,2,1,70,1,0
23922,-100,4,2,1,70,0,0
24903,307.692307692308,4,2,1,70,1,0
25210,329.67032967033,4,2,1,70,1,0
25539,326.086956521739,4,2,1,70,1,0
25946,-100,4,2,1,70,0,0
26108,-100,4,2,1,70,0,0
26270,-100,4,2,1,70,0,0
26514,324.763193504736,4,2,1,70,1,0
26514,-83.3333333333333,4,2,1,70,0,0
29436,-100,4,2,1,70,0,0
29761,-100,4,2,1,70,0,0
30735,-100,4,2,1,70,0,0
31060,-100,4,2,1,70,0,0
31703,331.491712707182,4,2,1,70,1,0
32365,324.324324324324,4,2,1,40,1,0
32689,319.148936170213,4,2,1,45,1,0
32689,-100,4,2,1,45,0,0
33008,324.324324324324,4,2,1,55,1,0
33008,-100,4,2,1,55,0,0
33332,-100,4,2,1,60,0,0
33656,-100,4,2,1,65,0,0
33980,-100,4,2,1,70,0,0
34302,324.324324324324,4,2,1,75,1,0
34302,-100,4,2,1,75,0,0
34464,-100,4,2,1,55,0,0
36886,312.5,4,2,1,70,1,0
37205,280.373831775701,4,2,1,70,1,0
37275,377.358490566038,4,2,1,70,1,0
37369,322.58064516129,4,2,1,70,1,0
37521,326.086956521739,4,2,1,70,1,0
37684,301.507537688442,4,2,1,70,1,0
37759,340.909090909091,4,2,1,70,1,0
37844,332.409972299169,4,2,1,70,1,0
38512,319.148936170212,4,2,1,70,1,0
39492,329.67032967033,4,2,1,80,1,1
39492,-100,4,2,1,80,0,1
39821,-100,4,2,1,80,0,1
40151,304.568527918782,4,2,1,80,1,1
40151,-100,4,2,1,80,0,1
40458,324.324324324324,4,2,1,80,1,1
40782,323.450134770889,4,2,1,80,1,1
40782,-100,4,2,1,80,0,1
42075,-100,4,2,1,80,0,1
43046,306.122448979592,4,2,1,80,1,1
43199,346.820809248555,4,2,1,80,1,1
43372,326.975476839237,4,2,1,80,1,1
43698,-100,4,2,1,80,0,1
44679,-100,4,2,1,80,0,1
45006,-100,4,2,1,80,0,1
45987,324.324324324324,4,2,1,80,1,1
45987,-100,4,2,1,80,0,1
46635,319.148936170213,4,2,1,80,1,1
46635,-100,4,2,1,80,0,1
47273,319.148936170213,4,2,1,80,1,1
47592,-100,4,2,1,80,0,1
48549,324.324324324324,4,2,1,80,1,1
48549,-100,4,2,1,80,0,1
50170,331.95020746888,4,2,1,80,1,1
50336,317.460317460317,4,2,1,80,1,1
50494,324.324324324324,4,2,1,80,1,1
50494,-100,4,2,1,80,0,1
51142,324.324324324324,4,2,1,80,1,1
51142,-100,4,2,1,80,0,1
51633,346.820809248555,4,2,1,80,1,1
51806,331.491712707182,4,2,1,80,1,1
52137,-100,4,2,1,80,0,1
52454,324.324324324324,4,2,1,80,1,1
52454,-100,4,2,1,80,0,1
53751,-100,4,2,1,80,0,1
54075,-100,4,2,1,80,0,1
54399,-100,4,2,1,80,0,1
55048,319.659030367608,4,2,1,80,1,1
55367,-100,4,2,1,80,0,1
56326,324.324324324324,4,2,1,80,1,1
56326,-100,4,2,1,80,0,1
57623,-100,4,2,1,80,0,1
57947,-100,4,2,1,80,0,1
58920,322.58064516129,4,2,1,80,1,1
58920,-100,4,2,1,80,0,1
60129,-100,4,2,1,80,0,0
60210,325.20325203252,4,2,1,80,1,1
60210,-100,4,2,1,80,0,1
60535,-100,4,2,1,80,0,1
61510,326.086956521739,4,2,1,80,1,1
61510,-100,4,2,1,80,0,1
62162,-100,4,2,1,80,0,1
62814,327.868852459016,4,2,1,80,1,1
62814,-100,4,2,1,80,0,1
63141,324.324324324324,4,2,1,80,1,1
63141,-100,4,2,1,80,0,1
64438,-100,4,2,1,80,0,1
65411,331.491712707183,4,2,1,80,1,1
65411,-100,4,2,1,80,0,1
65576,344.827586206896,4,2,1,80,1,1
65748,324.324324324324,4,2,1,80,1,1
65748,-100,4,2,1,80,0,1
66072,-100,4,2,1,80,0,1
66396,-100,4,2,1,80,0,1
66477,294.117647058823,4,2,1,80,1,1
66550,342.857142857143,4,2,1,80,1,1
66721,324.324324324324,4,2,1,80,1,1
66721,-100,4,2,1,80,0,1
67045,-100,4,2,1,80,0,1
67369,-100,4,2,1,80,0,1
68018,-100,4,2,1,80,0,1
68666,300,4,2,1,80,1,1
68666,-100,4,2,1,80,0,1
68816,329.670329670329,4,2,1,80,1,1
68980,-100,4,2,1,80,0,1
69310,324.324324324324,4,2,1,80,1,1
69634,-100,4,2,1,80,0,1
70120,317.460317460317,4,2,1,80,1,1
70120,-100,4,2,1,80,0,1
70596,333.333333333333,4,2,1,70,1,0
71739,320.855614973262,4,2,1,70,1,0
71899,324.324324324324,4,2,1,70,1,0
72733,307.692307692308,4,2,1,70,1,0
72886,329.670329670329,4,2,1,70,1,0
73215,322.58064516129,4,2,1,70,1,0
74505,329.67032967033,4,2,1,70,1,0
75164,326.086956521739,4,2,1,70,1,0
75795,326.086956521739,4,2,1,70,1,0
76945,368.098159509203,4,2,1,70,1,0
77129,324.324324324324,4,2,1,50,1,0
77129,-100,4,2,1,50,0,0
78420,309.278350515464,4,2,1,70,1,0
78574,297.029702970297,4,2,1,70,1,0
78722,324.324324324324,4,2,1,70,1,0
79694,326.975476839237,4,2,1,70,1,0
81001,315.789473684211,4,2,1,70,1,0
82309,324.324324324324,4,2,1,70,1,0
82957,312.5,4,2,1,70,1,0
83269,326.086956521739,4,2,1,70,1,0
83595,326.086956521739,4,2,1,70,1,0
84899,333.333333333333,4,2,1,70,1,0
85208,361.44578313253,4,2,1,70,1,0
85388,297.029702970297,4,2,1,70,1,0
85462,271.493212669683,4,2,1,70,1,0
85665,345.323741007194,4,2,1,70,1,0
85838,285.714285714286,4,2,1,70,1,0
85980,366.97247706422,4,2,1,70,1,0
86163,324.324324324324,4,2,1,70,1,0
86629,324.324324324324,4,2,1,70,1,0
86710,333.333333333333,4,2,1,70,1,0
86791,375,4,2,1,70,1,0
86884,375,4,2,1,70,1,0
86973,342.857142857143,4,2,1,70,1,0

[Colours]
Combo1 : 255,255,106
Combo2 : 182,182,182
Combo3 : 252,208,143
Combo4 : 117,117,117

[HitObjects]
184,176,570,5,0,0:0:0:0:
304,176,894,2,0,L|368:176,2,57.5,2|0|2,2:0|0:0|2:0,0:0:0:0:
184,176,1542,5,0,0:0:0:0:
304,176,1867,2,0,L|368:176,2,57.5,2|2|2,0:0|0:0|0:0,0:0:0:0:
128,144,3164,5,0,0:0:0:0:
256,120,3488,1,2,0:0:0:0:
192,136,3651,1,2,0:0:0:0:
128,144,3813,1,2,0:0:0:0:
256,184,4137,5,0,0:0:0:0:
384,152,4461,1,2,0:0:0:0:
320,144,4624,1,2,0:0:0:0:
256,128,4786,1,2,0:0:0:0:
232,192,5597,5,0,0:0:0:0:
304,192,5759,2,0,L|176:192,1,115,6|8,1:2|0:2,0:0:0:0:
312,128,6407,2,0,L|432:128,1,115,2|0,0:2|0:2,0:0:0:0:
368,72,6894,1,10,0:2:0:0:
304,64,7056,6,0,L|168:64,1,115,2|8,0:2|0:2,0:0:0:0:
312,192,7705,2,0,L|312:64,1,115,2|8,1:2|0:0,0:0:0:0:
192,56,8353,6,0,L|320:56,1,115,2|8,1:2|0:2,0:0:0:0:
368,56,8840,1,2,0:2:0:0:
248,56,9164,1,0,1:2:0:0:
128,168,9488,1,10,0:2:0:0:
56,160,9651,6,0,L|184:160,1,115,2|8,0:2|0:2,0:0:0:0:
288,120,10299,2,0,L|160:120,1,115,2|10,1:2|0:2,0:0:0:0:
288,45,10948,6,0,L|288:160,1,115,2|10,1:2|0:2,0:0:0:0:
168,176,11597,2,0,L|283:176,1,115,2|2,0:2|0:2,0:0:0:0:
168,40,12244,6,0,L|296:40,1,115,2|8,0:2|0:2,0:0:0:0:
408,40,12892,2,0,L|280:40,1,115,2|10,1:2|0:2,0:0:0:0:
168,152,13541,6,0,L|296:152,1,115,2|10,1:2|0:2,0:0:0:0:
168,152,14193,2,0,L|35:152,1,115,2|2,0:2|0:2,0:0:0:0:
168,216,14845,6,0,L|168:96,1,115,2|8,0:2|0:2,0:0:0:0:
288,88,15493,2,0,L|360:88,2,57.5,2|0|8,1:2|1:2|0:2,0:0:0:0:
232,216,15959,1,0,0:0:0:0:
168,208,16119,6,0,L|168:80,1,115,2|8,1:2|0:2,0:0:0:0:
232,72,16610,1,2,0:2:0:0:
352,168,16938,2,0,L|472:168,1,115,0|10,1:2|0:2,0:0:0:0:
408,104,17430,5,2,0:2:0:0:
288,96,17758,1,8,0:2:0:0:
224,96,17922,1,2,0:2:0:0:
160,104,18086,1,2,1:2:0:0:
48,136,18414,1,8,0:2:0:0:
176,184,18741,6,0,L|296:184,1,115,2|8,1:2|0:2,0:0:0:0:
176,224,19389,2,0,L|176:104,1,115,2|0,0:2|0:2,0:0:0:0:
296,64,20038,6,0,L|160:64,1,115,2|8,0:2|0:2,0:0:0:0:
56,64,20686,2,0,L|56:192,1,115,2|10,1:2|0:2,0:0:0:0:
176,144,21335,6,0,L|56:144,1,115,2|10,1:2|0:2,0:0:0:0:
176,192,21981,2,0,L|296:192,1,115,2|2,0:2|0:2,0:0:0:0:
416,184,22628,6,0,L|416:56,1,115,2|8,0:2|0:2,0:0:0:0:
296,56,23275,2,0,L|416:56,1,115,2|8,1:2|0:2,0:0:0:0:
296,128,23922,6,0,L|168:128,1,115,2|8,1:2|0:2,0:0:0:0:
64,128,24570,1,2,0:2:0:0:
64,240,24903,1,0,0:0:0:0:
128,128,25056,1,10,0:2:0:0:
184,128,25210,5,2,0:2:0:0:
64,240,25539,2,0,L|64:160,1,57.5,8|8,0:2|0:2,0:0:0:0:
128,160,25865,1,10,0:2:0:0:
248,120,26191,1,10,0:2:0:0:
72,216,26514,6,0,L|216:216,2,137.999995788574,6|4|10,1:2|1:2|0:2,0:0:0:0:
256,160,27813,2,0,L|400:160,2,137.999995788574,6|6|10,1:2|1:2|0:2,0:0:0:0:
120,104,29112,6,0,L|264:104,2,137.999995788574,6|6|10,1:2|1:2|0:2,0:0:0:0:
256,184,30411,2,0,L|383:184,2,115,6|4|10,1:2|1:2|0:2,0:0:0:0:
144,192,31703,5,6,1:2:0:0:
384,128,32365,2,0,L|264:128,1,115,8|10,0:2|0:2,0:0:0:0:
144,160,33008,2,0,L|144:32,1,115,10|8,0:2|0:2,0:0:0:0:
256,264,33656,2,0,L|384:264,1,115,8|8,0:2|0:2,0:0:0:0:
256,192,34302,5,10,0:2:0:0:
296,168,36886,5,8,1:2:0:0:
360,168,37042,1,8,0:2:0:0:
296,168,37205,1,0,1:2:0:0:
232,144,37369,1,8,0:2:0:0:
232,144,37521,1,8,0:2:0:0:
296,64,37684,1,0,1:2:0:0:
360,48,37844,5,4,1:2:0:0:
208,176,38512,6,0,L|72:176,2,115,2|2|2,1:2|0:0|0:0,0:0:0:0:
360,208,39492,6,0,L|360:80,1,115,6|8,1:2|0:2,0:0:0:0:
296,96,39986,1,2,0:0:0:0:
232,96,40151,1,2,1:2:0:0:
344,192,40458,1,8,0:0:0:0:
280,192,40620,1,0,0:0:0:0:
216,192,40782,6,0,L|88:192,2,115,2|10|0,1:2|0:2|1:2,0:0:0:0:
280,176,41590,1,0,1:2:0:0:
344,176,41752,1,10,0:2:0:0:
464,184,42075,6,0,L|464:64,1,115,2|8,1:2|0:2,0:0:0:0:
344,120,42722,2,0,L|464:120,1,115,2|10,1:2|0:2,0:0:0:0:
344,168,43372,5,0,1:2:0:0:
224,168,43698,2,0,L|224:48,1,115,10|2,0:2|1:2,0:0:0:0:
344,176,44352,1,10,0:2:0:0:
224,168,44679,1,0,1:2:0:0:
104,120,45006,6,0,L|232:120,1,115,10|2,0:2|1:2,0:0:0:0:
336,120,45660,1,10,0:2:0:0:
216,120,45987,6,0,L|88:120,1,115,2|10,1:2|0:2,0:0:0:0:
216,176,46635,1,2,1:2:0:0:
272,176,46794,1,0,1:2:0:0:
336,176,46954,6,0,L|336:56,1,115,10|0,0:2|1:2,0:0:0:0:
216,184,47592,2,0,L|344:184,1,115,10|2,0:2|1:2,0:0:0:0:
448,176,48230,1,10,0:2:0:0:
331,184,48549,6,0,L|203:184,1,115,0|10,1:2|0:2,0:0:0:0:
331,184,49197,2,0,L|403:184,2,57.5,2|8|10,1:2|0:2|0:2,0:0:0:0:
184,120,49846,6,0,L|304:120,1,115,6|8,1:2|0:2,0:0:0:0:
360,120,50335,1,2,0:2:0:0:
360,56,50494,1,2,1:2:0:0:
240,128,50818,1,8,0:2:0:0:
300,152,50980,1,2,0:2:0:0:
360,171,51142,6,0,L|360:51,1,115,2|10,1:2|0:2,0:0:0:0:
224,112,51806,1,2,0:0:0:0:
96,72,52137,1,10,0:2:0:0:
208,80,52454,6,0,L|328:80,2,115,2|10|2,1:2|0:2|1:2,0:0:0:0:
88,88,53426,1,10,0:2:0:0:
208,160,53751,5,0,1:2:0:0:
328,176,54075,2,0,L|328:48,1,115,10|2,0:2|1:2,0:0:0:0:
200,88,54724,1,10,0:2:0:0:
328,208,55048,5,4,1:2:0:0:
448,176,55367,2,0,L|320:176,1,115,10|0,0:2|1:2,0:0:0:0:
216,168,56006,1,10,0:2:0:0:
336,176,56326,6,0,L|336:48,1,115,2|10,1:2|0:2,0:0:0:0:
216,112,56974,2,0,L|216:-8,1,115,2|10,1:2|0:2,0:0:0:0:
96,144,57623,6,0,L|216:144,1,115,0|8,1:2|0:2,0:0:0:0:
328,96,58271,2,0,L|208:96,1,115,0|8,1:2|0:2,0:0:0:0:
328,144,58920,6,0,L|448:144,1,115,8|10,0:2|0:2,0:0:0:0:
328,184,59565,1,10,0:2:0:0:
264,184,59726,1,0,1:2:0:0:
200,184,59887,1,10,0:2:0:0:
56,144,60210,6,0,L|184:144,1,115,6|10,1:2|0:2,0:0:0:0:
232,144,60697,1,2,0:2:0:0:
171,144,60860,1,2,1:2:0:0:
48,80,61185,1,10,0:2:0:0:
112,80,61348,1,0,0:2:0:0:
168,80,61510,6,0,L|296:80,1,115,2|10,1:2|0:2,0:0:0:0:
400,80,62162,1,0,1:2:0:0:
280,112,62488,1,10,0:2:0:0:
160,184,62814,6,0,L|160:64,1,115,2|10,1:2|0:2,0:0:0:0:
280,64,63465,2,0,L|144:64,1,115,2|10,1:2|0:2,0:0:0:0:
48,64,64113,1,0,1:2:0:0:
168,176,64438,6,0,L|296:176,1,115,10|2,0:2|1:2,0:0:0:0:
432,160,65086,2,0,L|312:160,1,115,10|2,0:2|1:2,0:0:0:0:
192,160,65748,6,0,L|320:160,2,115,10|2|10,0:2|1:2|0:2,0:0:0:0:
72,160,66721,1,2,1:2:0:0:
192,176,67045,6,0,L|312:176,1,115,10|2,0:2|1:2,0:0:0:0:
424,168,67693,1,10,0:2:0:0:
304,168,68018,5,0,1:2:0:0:
184,144,68342,2,0,L|184:24,1,115,10|2,0:2|1:2,0:0:0:0:
304,176,68980,1,10,0:0:0:0:
424,168,69310,6,0,L|424:48,1,115,0|10,1:2|0:2,0:0:0:0:
296,88,69958,1,6,1:2:0:0:
360,88,70120,1,8,1:2:0:0:
424,88,70278,1,10,0:2:0:0:
288,144,70596,6,0,L|152:144,1,115,6|0,1:2|1:2,0:0:0:0:
296,184,71262,2,0,L|296:64,1,115,10|0,0:2|1:2,0:0:0:0:
184,56,71899,6,0,L|304:56,1,115,2|2,0:2|1:2,0:0:0:0:
416,56,72547,1,8,0:2:0:0:
299,56,72886,1,2,0:2:0:0:
176,152,73215,6,0,L|56:152,2,115,2|2|10,1:2|1:2|0:2,0:0:0:0:
296,152,74182,1,2,0:2:0:0:
360,144,74344,1,8,0:0:0:0:
240,216,74669,5,8,0:2:0:0:
176,216,74834,2,0,L|176:80,1,115,2|10,1:2|0:2,0:0:0:0:
296,96,75490,1,0,0:0:0:0:
152,176,75795,6,0,L|32:176,1,115,6|8,1:2|0:2,0:0:0:0:
168,176,76447,2,0,L|232:176,2,57.5,8|8|0,3:2|3:2|1:2,0:0:0:0:
112,176,76945,1,8,0:2:0:0:
37,176,77129,5,0,0:0:0:0:
256,192,78420,5,0,0:0:0:0:
368,184,78722,1,2,0:2:0:0:
312,192,78884,1,0,0:2:0:0:
256,192,79046,1,2,0:2:0:0:
136,192,79370,5,0,0:2:0:0:
256,192,79694,1,2,0:2:0:0:
312,192,79857,1,0,0:2:0:0:
368,192,80020,1,2,0:2:0:0:
192,192,81001,5,0,0:2:0:0:
64,128,81316,1,2,0:2:0:0:
128,136,81474,1,0,0:2:0:0:
192,192,81632,1,2,0:2:0:0:
312,200,81948,5,0,0:2:0:0:
440,136,82309,1,2,0:2:0:0:
376,144,82471,1,0,0:2:0:0:
312,200,82633,1,2,0:2:0:0:
192,216,82957,5,0,0:2:0:0:
336,256,83269,1,8,0:2:0:0:
448,256,83595,5,0,1:2:0:0:
328,224,83921,2,0,L|264:224,2,57.5,10|2|2,0:2|0:2|0:2,0:0:0:0:
392,224,84410,1,2,1:2:0:0:
272,200,84736,1,8,0:2:0:0:
336,200,84899,5,2,0:2:0:0:
392,200,85065,1,2,1:2:0:0:
448,200,85208,1,10,0:2:0:0:
336,128,85462,5,8,0:2:0:0:
264,128,85665,1,0,1:2:0:0:
184,120,85838,1,8,0:0:0:0:
232,112,85980,1,0,0:2:0:0:
296,72,86163,5,0,1:2:0:0:
352,72,86325,1,8,0:2:0:0:
464,72,86629,1,10,1:3:0:0:
352,72,86973,6,0,P|272:144|352:208,1,230,14|0,0:2|0:0,0:0:0:0:
