osu file format v14

[General]
AudioFilename: audio.mp3
AudioLeadIn: 0
PreviewTime: 38460
Countdown: 0
SampleSet: Soft
StackLeniency: 0.5
Mode: 0
LetterboxInBreaks: 0
WidescreenStoryboard: 1

[Editor]
DistanceSpacing: 0.9
BeatDivisor: 4
GridSize: 4
TimelineZoom: 3.300005

[Metadata]
Title:Gamushara (TV Size)
TitleUnicode:ガムシャラ (TV Size)
Artist:Miyuna
ArtistUnicode:みゆな
Creator:HakuYT
Version:Normal
Source:ブラッククローバー
Tags:rock jrock j-rock anime japanese black clover opening 5 chizu-kun
BeatmapID:2825658
BeatmapSetID:858503

[Difficulty]
HPDrainRate:3
CircleSize:3
OverallDifficulty:4
ApproachRate:5
SliderMultiplier:0.999999999999999
SliderTickRate:1

[Events]
//Background and Video events
0,0,"IMG_20191106_144246.jpg",0,0
Video,0,"VD.mp4"
//Break Periods
//Storyboard Layer 0 (Background)
//Storyboard Layer 1 (Fail)
//Storyboard Layer 2 (Pass)
//Storyboard Layer 3 (Foreground)
//Storyboard Layer 4 (Overlay)
//Storyboard Sound Samples

[TimingPoints]
616,324.324324324324,4,2,1,70,1,0
616,-100,4,2,1,70,0,0
940,-100,4,2,1,70,0,0
1588,-100,4,2,1,70,0,0
1913,-100,4,2,1,70,0,0
2399,-100,4,2,1,70,0,0
3210,-100,4,2,1,70,0,0
3534,-100,4,2,1,70,0,0
4183,-100,4,2,1,70,0,0
4507,-100,4,2,1,70,0,0
4994,-100,4,2,1,70,0,0
5724,-100,4,2,1,5,0,0
5805,-100,4,2,1,70,0,0
18697,-100,4,2,1,5,0,0
18778,-100,4,2,1,70,0,0
23886,-100,4,2,1,5,0,0
23967,-100,4,2,1,70,0,0
25913,-100,4,2,1,70,0,0
25994,-100,4,2,1,5,0,0
26075,-100,4,2,1,70,0,0
26156,-100,4,2,1,5,0,0
26237,-100,4,2,1,70,0,0
26318,-100,4,2,1,5,0,0
26399,-100,4,2,1,70,0,0
26480,-100,4,2,1,5,0,0
26561,-111.111111111111,4,2,1,70,0,0
29399,-111.111111111111,4,2,1,5,0,0
29480,-111.111111111111,4,2,1,70,0,0
29724,-111.111111111111,4,2,1,5,0,0
29805,-111.111111111111,4,2,1,70,0,0
30697,-111.111111111111,4,2,1,5,0,0
30778,-111.111111111111,4,2,1,70,0,0
31021,-100,4,2,1,5,0,0
31102,-100,4,2,1,70,0,0
31751,-100,4,2,1,70,0,0
32399,-100,4,2,1,40,0,0
32643,-100,4,2,1,5,0,0
32724,-100,4,2,1,45,0,0
32967,-100,4,2,1,5,0,0
33048,-100,4,2,1,50,0,0
33291,-100,4,2,1,5,0,0
33372,-100,4,2,1,55,0,0
33615,-100,4,2,1,5,0,0
33697,-100,4,2,1,60,0,0
33940,-100,4,2,1,5,0,0
34021,-100,4,2,1,70,0,0
34264,-100,4,2,1,5,0,0
34345,-100,4,2,1,70,0,0
36920,324.324324324324,4,2,1,70,1,0
36920,-100,4,2,1,70,0,0
37892,-100,4,2,1,70,0,0
38480,-100,4,2,1,5,0,0
38541,-100,4,2,1,70,0,0
39190,326.086956521739,4,2,1,70,1,0
39516,329.67032967033,4,2,1,80,1,0
39516,-90.9090909090909,4,2,1,80,0,0
39778,-90.9090909090909,4,2,1,5,0,0
39845,-90.9090909090909,4,2,1,80,0,0
40175,319.148936170213,4,2,1,80,1,0
40175,-90.9090909090909,4,2,1,80,0,0
40813,324.324324324324,4,2,1,80,1,0
40813,-90.9090909090909,4,2,1,80,0,0
42048,-90.9090909090909,4,2,1,5,0,0
42110,-90.9090909090909,4,2,1,80,0,0
43245,346.820809248555,4,2,1,80,1,0
43418,324.324324324324,4,2,1,80,1,0
43670,-90.9090909090909,4,2,1,5,0,0
43742,-90.9090909090909,4,2,1,80,0,0
44643,-90.9090909090909,4,2,1,5,0,0
44715,-90.9090909090909,4,2,1,80,0,0
44967,-90.9090909090909,4,2,1,5,0,0
45039,-90.9090909090909,4,2,1,80,0,0
47561,-90.9090909090909,4,2,1,5,0,0
47634,-90.9090909090909,4,2,1,80,0,0
50156,-90.9090909090909,4,2,1,5,0,0
50228,309.278350515464,4,2,1,80,1,0
50228,-90.9090909090909,4,2,1,80,0,0
50382,324.324324324324,4,2,1,80,1,0
50382,-90.9090909090909,4,2,1,80,0,0
51679,346.820809248555,4,2,1,80,1,0
51852,324.324324324324,4,2,1,80,1,0
51852,-90.9090909090909,4,2,1,80,0,0
52419,-90.9090909090909,4,2,1,5,0,0
52500,324.324324324324,4,2,1,80,1,0
52500,-90.9090909090909,4,2,1,80,0,0
53797,-90.9090909090909,4,2,1,80,0,0
54770,-90.9090909090909,4,2,1,80,0,0
55030,-90.9090909090909,4,2,1,5,0,0
55094,319.659030367608,4,2,1,80,1,0
55094,-90.9090909090909,4,2,1,80,0,0
55354,-90.9090909090909,4,2,1,5,0,0
55413,-90.9090909090909,4,2,1,80,0,0
55733,-90.9090909090909,4,2,1,80,0,0
56052,-90.9090909090909,4,2,1,80,0,0
56372,324.324324324324,4,2,1,80,1,0
56372,-90.9090909090909,4,2,1,80,0,0
57595,-90.9090909090909,4,2,1,5,0,0
57669,-90.9090909090909,4,2,1,80,0,0
57919,-90.9090909090909,4,2,1,5,0,0
57993,-90.9090909090909,4,2,1,80,0,0
59128,-90.9090909090909,4,2,1,80,0,0
60263,-90.9090909090909,4,2,1,80,0,0
60506,-90.9090909090909,4,2,1,5,0,0
60587,-90.9090909090909,4,2,1,80,0,0
61803,-90.9090909090909,4,2,1,5,0,0
61884,-90.9090909090909,4,2,1,80,0,0
62128,-90.9090909090909,4,2,1,5,0,0
62209,-90.9090909090909,4,2,1,80,0,0
62776,-90.9090909090909,4,2,1,5,0,0
62857,-90.9090909090909,4,2,1,80,0,0
64398,-90.9090909090909,4,2,1,5,0,0
64479,-90.9090909090909,4,2,1,80,0,0
65371,-90.9090909090909,4,2,1,5,0,0
65452,-90.9090909090909,4,2,1,80,0,0
65615,342.857142857143,4,2,1,80,1,0
65786,324.324324324324,4,2,1,80,1,0
65786,-90.9090909090909,4,2,1,80,0,0
66029,-90.9090909090909,4,2,1,5,0,0
66110,-90.9090909090909,4,2,1,80,0,0
66353,-90.9090909090909,4,2,1,5,0,0
66434,-90.9090909090909,4,2,1,80,0,0
66596,342.857142857143,4,2,1,80,1,0
66677,-90.9090909090909,4,2,1,5,0,0
66767,324.324324324324,4,2,1,80,1,0
66767,-90.9090909090909,4,2,1,80,0,0
67010,-90.9090909090909,4,2,1,5,0,0
67091,-90.9090909090909,4,2,1,80,0,0
67334,-90.9090909090909,4,2,1,5,0,0
67415,-90.9090909090909,4,2,1,80,0,0
67983,-90.9090909090909,4,2,1,5,0,0
68064,-90.9090909090909,4,2,1,80,0,0
68712,304.568527918782,4,2,1,80,1,0
68712,-95.2380952380952,4,2,1,80,0,0
68864,324.324324324324,4,2,1,80,1,0
68864,-90.9090909090909,4,2,1,80,0,0
69350,324.324324324324,4,2,1,80,1,0
69350,-90.9090909090909,4,2,1,80,0,0
70647,-100,4,2,1,70,0,0
71782,359.281437125748,4,2,1,70,1,0
71961,324.324324324324,4,2,1,70,1,0
71961,-100,4,2,1,70,0,0
72771,307.692307692308,4,2,1,70,1,0
72924,324.324324324324,4,2,1,70,1,0
72924,-100,4,2,1,70,0,0
75842,324.324324324324,4,2,1,70,1,0
78458,309.278350515464,4,2,1,70,1,0
78612,297.029702970297,4,2,1,70,1,0
78760,324.324324324324,4,2,1,70,1,0
78760,-100,4,2,1,70,0,0
79408,-100,4,2,1,70,0,0
79732,-100,4,2,1,70,0,0
81030,-100,4,2,1,70,0,0
81354,-100,4,2,1,70,0,0
82003,-100,4,2,1,70,0,0
82327,-100,4,2,1,70,0,0
83626,-100,4,2,1,70,0,0
85246,361.44578313253,4,2,1,70,1,0
85425,297.029702970297,4,2,1,70,1,0
85876,285.714285714286,4,2,1,70,1,0
86018,366.97247706422,4,2,1,70,1,0
86201,324.324324324324,4,2,1,70,1,0
87011,-100,4,2,1,70,0,0
87741,-100,4,2,1,5,0,0

[Colours]
Combo1 : 255,223,191
Combo2 : 128,128,128
Combo3 : 255,191,191

[HitObjects]
97,39,616,6,0,L|84:180,1,99.9999999999999,0|2,0:2|0:2,0:0:0:0:
86,192,1102,1,0,0:2:0:0:
86,192,1264,1,2,0:2:0:0:
184,206,1588,2,0,L|193:305,1,99.9999999999999,0|2,0:2|0:2,0:0:0:0:
199,355,2074,1,0,0:0:0:0:
199,355,2236,1,2,0:2:0:0:
460,208,3210,6,0,P|409:171|363:169,1,99.9999999999999,0|2,0:2|0:2,0:0:0:0:
324,179,3697,1,0,0:2:0:0:
324,179,3859,1,2,0:2:0:0:
305,80,4183,2,0,P|254:43|208:41,1,99.9999999999999,0|2,0:2|0:2,0:0:0:0:
169,51,4670,1,0,0:2:0:0:
169,51,4832,1,2,0:2:0:0:
136,340,5805,6,0,P|180:312|244:320,1,99.9999999999999,6|8,1:2|0:2,0:0:0:0:
325,348,6453,1,2,0:2:0:0:
325,348,6615,2,0,L|435:334,1,99.9999999999999,0|10,1:2|0:2,0:0:0:0:
463,304,7102,2,0,B|477:258|477:258|455:197,1,99.9999999999999,2|8,0:2|0:2,0:0:0:0:
415,119,7751,2,0,L|425:57,1,50,2|0,1:2|1:2,0:0:0:0:
412,20,8075,6,0,P|368:-1|305:17,1,99.9999999999999,8|2,0:2|1:2,0:0:0:0:
248,78,8724,2,0,L|232:181,1,99.9999999999999,8|2,0:2|0:2,0:0:0:0:
228,226,9210,1,0,1:2:0:0:
256,326,9534,1,10,0:2:0:0:
256,326,9697,2,0,P|204:331|160:297,1,99.9999999999999,2|8,0:2|0:2,0:0:0:0:
73,344,10345,1,2,1:2:0:0:
33,252,10670,1,10,0:2:0:0:
102,180,10994,6,0,L|121:73,1,99.9999999999999,2|10,1:2|0:2,0:0:0:0:
210,40,11643,2,0,L|227:138,1,99.9999999999999,2|2,0:2|0:2,0:0:0:0:
262,181,12129,1,8,0:0:0:0:
262,181,12291,2,0,P|308:207|354:190,1,99.9999999999999,2|8,0:2|0:2,0:0:0:0:
446,219,12940,6,0,B|462:260|462:260|442:336,1,99.9999999999999,2|10,1:2|0:2,0:0:0:0:
358,361,13588,2,0,P|322:338|261:344,1,99.9999999999999,2|8,1:2|0:0,0:0:0:0:
171,373,14237,1,2,0:2:0:0:
72,357,14561,1,2,0:2:0:0:
106,272,14886,2,0,P|149:248|207:263,1,99.9999999999999,2|8,0:2|0:2,0:0:0:0:
289,219,15534,2,0,P|337:227|380:203,1,99.9999999999999,2|8,1:2|0:2,0:0:0:0:
410,163,16021,1,2,0:2:0:0:
410,163,16183,6,0,L|426:54,1,99.9999999999999,2|8,1:2|0:2,0:0:0:0:
399,20,16670,1,2,0:2:0:0:
399,20,16832,2,0,L|339:15,1,50,2|0,1:2|1:2,0:0:0:0:
273,80,17318,1,10,0:2:0:0:
273,80,17480,2,0,L|162:71,1,99.9999999999999,2|8,0:2|0:2,0:0:0:0:
135,103,17967,1,2,0:2:0:0:
135,103,18129,2,0,L|24:94,1,99.9999999999999,2|8,1:2|0:2,0:0:0:0:
28,194,18778,6,0,B|43:223|43:223|26:294,1,99.9999999999999,2|8,1:2|0:2,0:0:0:0:
81,372,19426,2,0,P|131:353|193:362,1,99.9999999999999,2|0,0:2|0:2,0:0:0:0:
230,366,19913,1,10,0:2:0:0:
230,366,20075,2,0,P|280:347|342:356,1,99.9999999999999,2|8,0:2|0:2,0:0:0:0:
424,367,20724,1,2,1:2:0:0:
462,274,21048,1,10,0:2:0:0:
365,249,21372,6,0,L|353:137,1,99.9999999999999,2|10,1:2|0:2,0:0:0:0:
453,132,22021,2,0,L|441:20,1,99.9999999999999,2|2,0:2|0:2,0:0:0:0:
344,9,22670,2,0,P|298:3|254:38,1,99.9999999999999,2|8,0:2|0:2,0:0:0:0:
214,123,23318,2,0,L|224:188,1,50,2|0,1:2|1:2,0:0:0:0:
229,222,23643,1,8,0:2:0:0:
316,258,23967,6,0,B|355:241|355:241|419:255,1,99.9999999999999,2|8,1:2|0:2,0:0:0:0:
484,319,24615,2,0,P|458:344|394:352,1,99.9999999999999,0|0,0:2|0:2,0:0:0:0:
350,361,25102,1,10,0:2:0:0:
350,361,25264,2,0,L|247:352,1,99.9999999999999,2|8,0:2|0:2,0:0:0:0:
165,298,25913,2,0,L|108:310,1,50,10|8,0:2|0:2,0:0:0:0:
72,332,26237,2,0,L|15:320,1,50,10|8,0:2|0:2,0:0:0:0:
18,272,26561,6,0,P|34:227|19:173,2,89.999997253418,6|4|10,1:2|1:2|0:2,0:0:0:0:
163,127,27859,2,0,L|271:143,2,89.999997253418,6|6|10,1:2|1:2|0:2,0:0:0:0:
111,320,29156,6,0,P|159:300|212:306,1,89.999997253418,6|6,1:2|1:2,0:0:0:0:
289,338,29805,1,10,0:2:0:0:
386,358,30129,1,2,0:2:0:0:
472,310,30453,2,0,L|481:210,1,89.999997253418,6|4,1:2|1:2,0:0:0:0:
468,110,31102,1,10,0:2:0:0:
377,152,31426,1,2,0:2:0:0:
347,56,31751,1,6,1:2:0:0:
172,141,32399,6,0,L|153:34,1,99.9999999999999,8|10,0:2|0:2,0:0:0:0:
60,6,33048,2,0,L|77:104,1,99.9999999999999,10|8,0:2|0:2,0:0:0:0:
1,170,33697,2,0,L|18:268,1,99.9999999999999,8|8,0:2|0:2,0:0:0:0:
93,333,34345,1,10,0:2:0:0:
93,333,36920,6,0,L|165:320,1,50,8|8,1:2|0:2,0:0:0:0:
191,315,37244,1,0,1:2:0:0:
191,315,37406,2,0,L|263:328,1,50,8|8,0:2|0:2,0:0:0:0:
288,336,37730,1,0,1:2:0:0:
288,336,37892,2,0,B|327:307|368:312|368:312|413:368|487:347,1,200,4|2,1:2|1:2,0:0:0:0:
436,52,39516,6,0,B|454:98|454:98|423:166,1,110.000003356934,6|8,1:2|0:2,0:0:0:0:
390,182,40010,1,2,0:0:0:0:
390,182,40175,2,0,L|270:169,1,110.000003356934,2|8,1:2|0:0,0:0:0:0:
236,166,40653,1,2,0:0:0:0:
236,166,40813,2,0,L|221:246,1,55.0000016784668,2|0,1:2|0:2,0:0:0:0:
225,261,41137,2,0,L|245:379,1,110.000003356934,10|0,0:2|1:2,0:0:0:0:
144,378,41785,2,0,L|74:370,1,55.0000016784668,10|0,0:2|0:0,0:0:0:0:
50,340,42110,6,0,P|44:311|47:283,1,55.0000016784668,2|0,1:2|0:2,0:0:0:0:
52,236,42434,1,10,0:2:0:0:
141,192,42758,1,2,1:2:0:0:
220,255,43083,2,0,L|336:266,1,113.7,10|0,0:2|1:2,0:0:0:0:
412,324,43742,1,10,0:2:0:0:
473,248,44066,2,0,L|482:182,1,55.0000016784668,2|0,1:2|1:2,0:0:0:0:
486,149,44390,6,0,L|470:38,1,110.000003356934,10|0,0:2|1:2,0:0:0:0:
378,16,45039,2,0,P|334:7|278:43,1,110.000003356934,10|2,0:2|1:2,0:0:0:0:
252,81,45526,1,0,1:2:0:0:
252,81,45688,2,0,P|208:90|149:53,1,110.000003356934,10|2,0:2|1:2,0:0:0:0:
68,8,46336,1,10,0:2:0:0:
16,91,46661,2,0,L|29:151,1,55.0000016784668,2|0,1:2|1:2,0:0:0:0:
37,193,46985,1,10,0:2:0:0:
14,283,47309,5,0,1:2:0:0:
76,361,47634,2,0,P|109:342|190:344,1,110.000003356934,10|2,0:2|1:2,0:0:0:0:
230,358,48120,1,0,1:2:0:0:
230,358,48282,2,0,L|350:351,1,110.000003356934,10|0,0:2|1:2,0:0:0:0:
438,365,48931,1,10,0:2:0:0:
479,275,49255,1,2,1:2:0:0:
404,210,49580,2,0,L|340:196,1,55.0000016784668,10|8,0:2|0:0,0:0:0:0:
303,182,49904,6,0,P|259:156|195:156,1,110.000003356934,6|8,1:2|0:2,0:0:0:0:
158,162,50382,1,2,0:2:0:0:
158,162,50544,2,0,L|134:52,1,110.000003356934,2|8,1:2|0:2,0:0:0:0:
172,22,51030,1,2,0:2:0:0:
172,22,51192,2,0,P|219:3|288:15,1,110.000003356934,2|10,1:2|0:2,0:0:0:0:
367,57,51852,2,0,L|434:50,1,55.0000016784668,0|0,1:2|1:2,0:0:0:0:
470,40,52176,6,0,B|496:88|496:88|474:160,1,110.000003356934,10|2,0:2|1:2,0:0:0:0:
409,219,52824,1,10,0:2:0:0:
466,300,53149,2,0,L|408:316,1,55.0000016784668,2|0,1:2|1:2,0:0:0:0:
376,348,53473,2,0,L|262:335,1,110.000003356934,10|0,0:2|1:2,0:0:0:0:
172,367,54121,1,10,0:2:0:0:
137,276,54445,1,2,1:2:0:0:
58,336,54770,1,10,0:2:0:0:
21,244,55094,6,0,P|7:189|34:132,1,110.000003356934,4|10,1:2|0:2,0:0:0:0:
109,88,55733,2,0,L|122:160,1,55.0000016784668,2|0,1:2|1:2,0:0:0:0:
125,191,56052,1,10,0:2:0:0:
192,261,56372,2,0,P|238:284|306:276,1,110.000003356934,2|10,1:2|0:2,0:0:0:0:
378,227,57020,2,0,P|424:203|495:213,1,110.000003356934,2|10,1:2|0:2,0:0:0:0:
496,108,57669,1,0,1:2:0:0:
426,30,57993,1,8,0:2:0:0:
350,91,58317,2,0,L|275:101,1,55.0000016784668,0|0,1:2|1:2,0:0:0:0:
257,130,58642,2,0,L|179:121,1,55.0000016784668,8|0,0:2|1:2,0:0:0:0:
153,115,58966,5,8,0:2:0:0:
90,38,59290,1,10,0:2:0:0:
27,115,59615,1,10,0:0:0:0:
58,208,59939,2,0,L|46:262,1,55.0000016784668,10|8,0:0|0:0,0:0:0:0:
36,310,60263,6,0,P|80:339|154:326,1,110.000003356934,6|10,1:2|0:2,0:0:0:0:
178,324,60750,1,2,0:2:0:0:
178,324,60912,1,2,1:2:0:0:
268,348,61236,2,0,L|343:337,1,55.0000016784668,10|2,0:2|0:2,0:0:0:0:
371,329,61561,2,0,P|422:303|480:313,1,110.000003356934,2|10,1:2|0:2,0:0:0:0:
487,212,62208,2,0,L|492:148,1,55.0000016784668,0|0,1:2|1:2,0:0:0:0:
497,107,62533,6,0,P|482:62|416:35,1,110.000003356934,10|2,0:2|1:2,0:0:0:0:
330,27,63181,1,10,0:2:0:0:
282,110,63506,2,0,L|347:124,1,55.0000016784668,2|0,1:2|1:2,0:0:0:0:
368,158,63830,2,0,B|382:209|382:209|358:269,1,110.000003356934,10|0,0:2|1:2,0:0:0:0:
290,331,64479,2,0,L|170:307,1,110.000003356934,10|2,0:2|1:2,0:0:0:0:
102,350,65128,6,0,B|73:284|123:238|123:238|110:188,1,165.0000050354,10|0,0:2|0:2,0:0:0:0:
101,146,65786,1,10,0:2:0:0:
20,87,66110,1,2,1:2:0:0:
95,22,66434,1,10,0:2:0:0:
176,82,66767,2,0,L|293:73,1,110.000003356934,2|10,1:2|0:2,0:0:0:0:
365,24,67415,2,0,L|481:35,1,110.000003356934,2|10,1:2|0:2,0:0:0:0:
498,126,68064,5,0,1:2:0:0:
423,192,68388,1,10,0:2:0:0:
471,279,68712,2,0,L|480:349,1,53.0000000808715,2|0,1:2|1:2,0:0:0:0:
447,370,69026,2,0,P|394:382|325:351,1,110.000003356934,10|0,0:0|1:2,0:0:0:0:
256,316,69674,1,10,0:2:0:0:
166,351,69999,1,6,1:2:0:0:
139,255,70322,2,0,L|206:240,1,55.0000016784668,10|8,0:2|0:2,0:0:0:0:
235,229,70647,6,0,B|293:221|293:221|322:235|322:235|394:223,1,150,6|2,1:2|0:2,0:0:0:0:
422,209,71295,2,0,P|452:149|403:81,1,150,10|10,0:2|0:2,0:0:0:0:
371,53,71961,1,2,0:2:0:0:
277,16,72285,2,0,L|140:29,1,99.9999999999999,2|8,1:2|0:2,0:0:0:0:
91,70,72924,6,0,L|80:138,1,50,2|0,0:2|1:2,0:0:0:0:
74,168,73248,1,2,1:2:0:0:
112,260,73572,1,2,1:2:0:0:
47,336,73896,1,10,0:2:0:0:
139,374,74221,2,0,P|184:347|247:354,1,99.9999999999999,2|0,0:2|0:2,0:0:0:0:
327,369,74869,1,2,1:2:0:0:
388,289,75194,1,10,0:2:0:0:
364,191,75518,2,0,L|353:122,1,50,2|0,0:2|1:2,0:0:0:0:
347,92,75842,5,4,1:2:0:0:
261,40,76166,1,8,0:2:0:0:
203,121,76490,1,8,0:2:0:0:
249,209,76814,2,0,L|238:268,1,50,0|8,1:2|0:2,0:0:0:0:
512,337,78458,6,0,B|470:319|470:319|398:332,1,97.4,0|2,0:2|0:2,0:0:0:0:
377,345,78922,1,0,0:2:0:0:
377,345,79084,1,2,0:2:0:0:
309,267,79408,2,0,B|327:225|327:225|317:171,1,99.9999999999999,0|2,0:2|0:2,0:0:0:0:
304,133,79895,1,0,0:2:0:0:
304,133,80057,1,2,0:2:0:0:
62,309,81030,6,0,L|190:295,1,99.9999999999999,0|2,0:2|0:2,0:0:0:0:
210,296,81516,1,0,0:0:0:0:
210,296,81678,1,2,0:2:0:0:
274,215,82003,2,0,L|402:201,1,99.9999999999999,0|2,0:2|0:2,0:0:0:0:
421,200,82489,1,0,0:0:0:0:
421,200,82651,1,2,0:2:0:0:
473,112,82976,2,0,L|461:55,1,50,0|0,0:2|1:2,0:0:0:0:
451,14,83300,1,8,0:2:0:0:
367,68,83625,6,0,P|316:85|263:70,1,99.9999999999999,0|10,1:2|0:2,0:0:0:0:
224,57,84112,1,2,0:2:0:0:
224,57,84274,2,0,L|138:43,1,50,2|2,0:2|1:2,0:0:0:0:
80,34,84760,1,8,0:2:0:0:
80,34,84922,2,0,L|92:100,1,50,2|2,0:2|1:2,0:0:0:0:
111,122,85246,2,0,L|100:182,1,50,10|2,0:2|0:2,0:0:0:0:
94,215,85574,1,8,0:2:0:0:
46,297,85876,1,8,0:2:0:0:
132,345,86201,5,0,1:2:0:0:
132,345,86363,2,0,L|204:337,1,50,8|6,0:2|1:3,0:0:0:0:
229,324,86687,2,0,L|241:268,1,50,10|2,1:3|1:2,0:0:0:0:
243,225,87011,2,0,B|331:212|331:212|369:233|369:233|474:217,1,225,10|0,0:2|0:2,0:0:0:0:
