osu file format v14

[General]
AudioFilename: audio.mp3
AudioLeadIn: 0
PreviewTime: 38460
Countdown: 0
SampleSet: Soft
StackLeniency: 0.5
Mode: 0
LetterboxInBreaks: 0
WidescreenStoryboard: 1

[Editor]
DistanceSpacing: 2.7
BeatDivisor: 4
GridSize: 32
TimelineZoom: 3.459999

[Metadata]
Title:Gamushara (TV Size)
TitleUnicode:ガムシャラ (TV Size)
Artist:Miyuna
ArtistUnicode:みゆな
Creator:HakuYT
Version:Hard
Source:ブラッククローバー
Tags:rock jrock j-rock anime japanese black clover opening 5 chizu-kun
BeatmapID:2827249
BeatmapSetID:858503

[Difficulty]
HPDrainRate:4
CircleSize:3.2
OverallDifficulty:6
ApproachRate:7
SliderMultiplier:1.5
SliderTickRate:1

[Events]
//Background and Video events
0,0,"IMG_20191106_144246.jpg",0,0
Video,0,"VD.mp4"
//Break Periods
//Storyboard Layer 0 (Background)
//Storyboard Layer 1 (Fail)
//Storyboard Layer 2 (Pass)
//Storyboard Layer 3 (Foreground)
//Storyboard Layer 4 (Overlay)
//Storyboard Sound Samples

[TimingPoints]
616,324.324324324324,4,2,1,70,1,0
616,-133.333333333333,4,2,1,70,0,0
1588,-133.333333333333,4,2,1,70,0,0
2399,-133.333333333333,4,2,1,70,0,0
3210,-133.333333333333,4,2,1,70,0,0
4183,-133.333333333333,4,2,1,70,0,0
4994,-133.333333333333,4,2,1,70,0,0
5724,-133.333333333333,4,2,1,5,0,0
5805,-111.111111111111,4,2,1,70,0,0
18697,-111.111111111111,4,2,1,5,0,0
18778,-111.111111111111,4,2,1,70,0,0
23886,-111.111111111111,4,2,1,5,0,0
23967,-111.111111111111,4,2,1,70,0,0
25913,-90.9090909090909,4,2,1,70,0,0
25994,-66.6666666666667,4,2,1,5,0,0
26075,-66.6666666666667,4,2,1,70,0,0
26156,-66.6666666666667,4,2,1,5,0,0
26237,-66.6666666666667,4,2,1,70,0,0
26318,-66.6666666666667,4,2,1,5,0,0
26399,-66.6666666666667,4,2,1,70,0,0
26480,-66.6666666666667,4,2,1,5,0,0
26561,-125,4,2,1,70,0,0
29399,-125,4,2,1,5,0,0
29480,-125,4,2,1,70,0,0
29724,-125,4,2,1,5,0,0
29805,-125,4,2,1,70,0,0
30697,-125,4,2,1,5,0,0
30778,-125,4,2,1,70,0,0
31021,-125,4,2,1,5,0,0
31102,-125,4,2,1,70,0,0
31751,-133.333333333333,4,2,1,70,0,0
32399,-133.333333333333,4,2,1,40,0,0
32643,-133.333333333333,4,2,1,5,0,0
32724,-117.647058823529,4,2,1,45,0,0
32967,-117.647058823529,4,2,1,5,0,0
33048,-100,4,2,1,50,0,0
33291,-100,4,2,1,5,0,0
33372,-90.9090909090909,4,2,1,55,0,0
33615,-90.9090909090909,4,2,1,5,0,0
33697,-83.3333333333333,4,2,1,60,0,0
33940,-83.3333333333333,4,2,1,5,0,0
34021,-76.9230769230769,4,2,1,70,0,0
34264,-76.9230769230769,4,2,1,5,0,0
34345,-133.333333333333,4,2,1,70,0,0
36920,324.324324324324,4,2,1,70,1,0
36920,-100,4,2,1,70,0,0
37892,-200,4,2,1,70,0,0
38460,-200,4,2,1,5,0,0
38541,-200,4,2,1,70,0,0
39190,326.086956521739,4,2,1,70,1,0
39516,329.67032967033,4,2,1,80,1,0
39516,-90.9090909090909,4,2,1,80,0,0
39778,-90.9090909090909,4,2,1,5,0,0
39845,-90.9090909090909,4,2,1,80,0,0
40175,319.148936170213,4,2,1,80,1,0
40175,-90.9090909090909,4,2,1,80,0,0
40813,324.324324324324,4,2,1,80,1,0
40813,-90.9090909090909,4,2,1,80,0,0
42048,-90.9090909090909,4,2,1,5,0,0
42110,-90.9090909090909,4,2,1,80,0,0
43083,-94.3396226415094,4,2,1,80,0,0
43245,346.820809248555,4,2,1,80,1,0
43418,324.324324324324,4,2,1,80,1,0
43670,-90.9090909090909,4,2,1,5,0,0
43742,-90.9090909090909,4,2,1,80,0,0
44643,-90.9090909090909,4,2,1,5,0,0
44715,-90.9090909090909,4,2,1,80,0,0
44967,-90.9090909090909,4,2,1,5,0,0
45039,-90.9090909090909,4,2,1,80,0,0
47561,-90.9090909090909,4,2,1,5,0,0
47634,-90.9090909090909,4,2,1,80,0,0
50156,-90.9090909090909,4,2,1,5,0,0
50228,309.278350515464,4,2,1,80,1,0
50228,-90.9090909090909,4,2,1,80,0,0
50382,324.324324324324,4,2,1,80,1,0
50382,-90.9090909090909,4,2,1,80,0,0
51679,346.820809248555,4,2,1,80,1,0
51852,324.324324324324,4,2,1,80,1,0
51852,-90.9090909090909,4,2,1,80,0,0
52419,-90.9090909090909,4,2,1,5,0,0
52500,324.324324324324,4,2,1,80,1,0
52500,-90.9090909090909,4,2,1,80,0,0
53716,-90.9090909090909,4,2,1,5,0,0
53797,-90.9090909090909,4,2,1,80,0,0
54770,-90.9090909090909,4,2,1,80,0,0
55013,-90.9090909090909,4,2,1,5,0,0
55094,319.659030367608,4,2,1,80,1,0
55094,-90.9090909090909,4,2,1,80,0,0
55354,-90.9090909090909,4,2,1,5,0,0
55413,-90.9090909090909,4,2,1,80,0,0
55745,-90.9090909090909,4,2,1,80,0,0
56055,-90.9090909090909,4,2,1,80,0,0
56292,-90.9090909090909,4,2,1,5,0,0
56372,324.324324324324,4,2,1,80,1,0
56372,-90.9090909090909,4,2,1,80,0,0
57595,-90.9090909090909,4,2,1,5,0,0
57669,-90.9090909090909,4,2,1,80,0,0
57919,-90.9090909090909,4,2,1,5,0,0
57993,-90.9090909090909,4,2,1,80,0,0
59128,-90.9090909090909,4,2,1,80,0,0
60263,-90.9090909090909,4,2,1,80,0,0
60506,-90.9090909090909,4,2,1,5,0,0
60587,-90.9090909090909,4,2,1,80,0,0
61803,-90.9090909090909,4,2,1,5,0,0
61884,-90.9090909090909,4,2,1,80,0,0
62128,-90.9090909090909,4,2,1,5,0,0
62209,-90.9090909090909,4,2,1,80,0,0
62776,-90.9090909090909,4,2,1,5,0,0
62857,-90.9090909090909,4,2,1,80,0,0
64398,-90.9090909090909,4,2,1,5,0,0
64479,-90.9090909090909,4,2,1,80,0,0
65371,-90.9090909090909,4,2,1,5,0,0
65453,-92.1658986175115,4,2,1,80,0,0
65615,342.857142857143,4,2,1,80,1,0
65700,-90.9090909090909,4,2,1,5,0,0
65786,324.324324324324,4,2,1,80,1,0
65786,-90.9090909090909,4,2,1,80,0,0
66029,-90.9090909090909,4,2,1,5,0,0
66110,-90.9090909090909,4,2,1,80,0,0
66353,-90.9090909090909,4,2,1,5,0,0
66434,-90.9090909090909,4,2,1,80,0,0
66596,342.857142857143,4,2,1,80,1,0
66677,-90.9090909090909,4,2,1,5,0,0
66767,324.324324324324,4,2,1,80,1,0
66767,-90.9090909090909,4,2,1,80,0,0
67010,-90.9090909090909,4,2,1,5,0,0
67091,-90.9090909090909,4,2,1,80,0,0
67334,-90.9090909090909,4,2,1,5,0,0
67415,-90.9090909090909,4,2,1,80,0,0
67983,-90.9090909090909,4,2,1,5,0,0
68064,-90.9090909090909,4,2,1,80,0,0
68712,304.568527918782,4,2,1,80,1,0
68712,-90.9090909090909,4,2,1,80,0,0
68864,324.324324324324,4,2,1,80,1,0
68864,-90.9090909090909,4,2,1,80,0,0
69350,324.324324324324,4,2,1,80,1,0
69350,-90.9090909090909,4,2,1,80,0,0
70647,-117.647058823529,4,2,1,70,0,0
71782,359.281437125748,4,2,1,70,1,0
71961,324.324324324324,4,2,1,70,1,0
71961,-117.647058823529,4,2,1,70,0,0
72771,307.692307692308,4,2,1,70,1,0
72924,324.324324324324,4,2,1,70,1,0
72924,-117.647058823529,4,2,1,70,0,0
75842,324.324324324324,4,2,1,70,1,0
78458,309.278350515464,4,2,1,70,1,0
78458,-133.333333333333,4,2,1,70,0,0
78612,297.029702970297,4,2,1,70,1,0
78760,324.324324324324,4,2,1,70,1,0
78760,-133.333333333333,4,2,1,70,0,0
79408,-133.333333333333,4,2,1,70,0,0
81030,-133.333333333333,4,2,1,70,0,0
82003,-133.333333333333,4,2,1,70,0,0
83624,-117.647058823529,4,2,1,70,0,0
85246,361.44578313253,4,2,1,70,1,0
85425,297.029702970297,4,2,1,70,1,0
85425,-117.647058823529,4,2,1,70,0,0
85876,285.714285714286,4,2,1,70,1,0
85876,-117.647058823529,4,2,1,70,0,0
86018,366.97247706422,4,2,1,70,1,0
86201,324.324324324324,4,2,1,70,1,0
87011,-200,4,2,1,70,0,0
87741,-181.818181818181,4,2,1,5,0,0

[Colours]
Combo1 : 255,223,191
Combo2 : 128,128,128
Combo3 : 255,191,191

[HitObjects]
40,16,616,5,0,0:2:0:0:
40,16,778,1,0,0:2:0:0:
82,101,940,2,0,L|158:94,1,56.2500021457673,2|0,0:2|0:2,0:0:0:0:
204,27,1264,2,0,P|222:55|229:92,1,56.2500021457673,2|0,0:2|0:2,0:0:0:0:
300,147,1588,5,0,0:2:0:0:
300,147,1751,1,0,0:2:0:0:
367,79,1913,2,0,L|448:68,1,56.2500021457673,2|0,0:2|0:2,0:0:0:0:
465,157,2237,2,0,L|409:164,1,56.2500021457673,2|0,0:2|0:2,0:0:0:0:
127,335,3210,5,0,0:2:0:0:
127,335,3372,1,0,0:2:0:0:
50,278,3534,2,0,L|42:203,1,56.2500021457673,2|0,0:2|0:2,0:0:0:0:
126,172,3859,2,0,L|135:238,1,56.2500021457673,2|0,0:2|0:2,0:0:0:0:
221,290,4183,5,0,0:2:0:0:
221,290,4345,1,0,0:2:0:0:
293,227,4507,2,0,P|323:216|364:215,1,56.2500021457673,2|0,0:2|0:2,0:0:0:0:
441,233,4832,2,0,P|444:205|454:178,1,56.2500021457673,2|0,0:2|0:2,0:0:0:0:
211,4,5318,5,0,0:2:0:0:
211,4,5480,2,0,P|176:27|125:31,1,84.3750032186509,0|0,0:2|0:2,0:0:0:0:
94,58,5805,6,0,L|62:210,1,134.999995880127,6|8,1:2|0:2,0:0:0:0:
44,281,6291,1,2,0:2:0:0:
44,281,6372,1,8,0:2:0:0:
44,281,6453,2,0,L|60:363,1,67.4999979400635,2|0,0:2|1:2,0:0:0:0:
146,377,6778,1,0,0:2:0:0:
201,300,6940,1,10,0:2:0:0:
268,365,7102,6,0,B|320:358|320:358|348:369|348:369|406:360,1,134.999995880127,2|8,0:2|0:2,0:0:0:0:
493,367,7588,1,2,0:2:0:0:
467,275,7751,2,0,P|447:215|371:207,1,134.999995880127,2|8,1:2|0:0,0:0:0:0:
495,32,8399,6,0,B|456:15|421:23|421:23|391:53|353:47,1,134.999995880127,2|8,1:2|0:2,0:0:0:0:
277,20,8886,1,2,0:2:0:0:
233,103,9048,2,0,L|253:240,1,134.999995880127,2|0,0:2|0:2,0:0:0:0:
262,330,9534,1,10,0:2:0:0:
169,372,9697,6,0,B|128:350|128:350|40:368,1,134.999995880127,2|8,0:2|0:2,0:0:0:0:
23,277,10183,1,0,0:2:0:0:
23,277,10264,1,8,0:2:0:0:
23,277,10345,2,0,L|8:193,1,67.4999979400635,2|0,1:2|1:2,0:0:0:0:
10,108,10670,1,10,0:2:0:0:
188,9,10994,6,0,P|221:20|252:53,1,67.4999979400635,2|0,1:2|0:2,0:0:0:0:
302,116,11318,2,0,P|327:93|358:83,1,67.4999979400635,10|0,0:2|0:2,0:0:0:0:
370,177,11643,2,0,L|357:259,1,67.4999979400635,2|0,0:2|1:2,0:0:0:0:
337,335,11967,1,2,0:2:0:0:
427,363,12129,1,8,0:2:0:0:
475,280,12291,6,0,L|498:117,1,134.999995880127,2|8,0:2|0:2,0:0:0:0:
457,63,12778,1,0,0:2:0:0:
457,63,12859,1,8,0:2:0:0:
457,63,12940,2,0,B|399:60|399:60|376:71|376:71|316:65,1,134.999995880127,2|10,1:2|0:2,0:0:0:0:
126,30,13588,6,0,L|50:37,1,67.4999979400635,2|0,1:2|0:2,0:0:0:0:
8,116,13913,2,0,P|0:155|10:189,1,67.4999979400635,10|0,0:2|0:2,0:0:0:0:
90,224,14237,2,0,P|98:263|88:297,1,67.4999979400635,2|0,0:2|1:2,0:0:0:0:
41,369,14561,1,2,0:2:0:0:
135,379,14724,1,8,0:2:0:0:
223,346,14886,6,0,B|274:327|274:327|367:344,1,134.999995880127,2|8,0:2|0:2,0:0:0:0:
455,351,15372,1,0,0:2:0:0:
455,351,15453,1,8,0:2:0:0:
455,351,15534,2,0,P|451:279|382:233,1,134.999995880127,2|8,1:2|0:2,0:0:0:0:
322,195,16021,1,2,0:2:0:0:
241,246,16183,6,0,L|93:227,1,134.999995880127,2|8,1:2|0:2,0:0:0:0:
38,146,16670,1,2,0:2:0:0:
38,146,16832,2,0,P|16:107|85:45,1,134.999995880127,2|0,1:2|0:2,0:0:0:0:
163,63,17318,1,10,0:2:0:0:
163,63,17480,6,0,B|205:41|205:41|306:64,1,134.999995880127,2|8,0:2|0:2,0:0:0:0:
398,88,17967,1,2,0:2:0:0:
398,88,18048,1,8,0:2:0:0:
398,88,18129,2,0,L|476:75,1,67.4999979400635,2|0,1:2|1:2,0:0:0:0:
497,165,18453,1,8,0:2:0:0:
473,352,18778,6,0,B|418:341|418:341|394:356|394:356|323:343,1,134.999995880127,2|8,1:2|0:2,0:0:0:0:
255,315,19264,1,0,0:2:0:0:
255,315,19426,2,0,L|113:333,1,134.999995880127,2|0,0:2|0:2,0:0:0:0:
42,278,19913,1,10,0:2:0:0:
42,278,20075,6,0,P|19:219|80:163,1,134.999995880127,2|8,0:2|0:2,0:0:0:0:
154,211,20561,1,0,0:2:0:0:
154,211,20643,1,8,0:2:0:0:
154,211,20724,2,0,L|245:202,1,67.4999979400635,2|0,1:2|1:2,0:0:0:0:
303,157,21048,2,0,L|394:148,1,67.4999979400635,10|0,0:2|0:2,0:0:0:0:
455,109,21372,6,0,P|468:63|455:31,1,67.4999979400635,2|0,1:2|0:2,0:0:0:0:
370,24,21697,2,0,L|302:30,1,67.4999979400635,10|0,0:2|0:2,0:0:0:0:
221,78,22021,2,0,L|153:84,1,67.4999979400635,2|0,0:2|1:2,0:0:0:0:
62,60,22345,1,2,0:2:0:0:
29,148,22507,1,8,0:2:0:0:
99,211,22670,6,0,B|115:255|115:255|80:357,1,134.999995880127,2|8,0:2|0:2,0:0:0:0:
186,366,23156,1,0,0:2:0:0:
186,366,23237,1,8,0:2:0:0:
186,366,23318,1,2,1:2:0:0:
209,274,23480,1,0,1:2:0:0:
287,326,23643,2,0,L|403:305,1,101.249996910095,8|0,0:2|0:2,0:0:0:0:
421,276,23967,6,0,L|435:196,1,67.4999979400635,2|0,1:2|0:2,0:0:0:0:
396,122,24291,1,8,0:2:0:0:
318,183,24453,1,0,0:2:0:0:
318,183,24534,1,8,0:2:0:0:
318,183,24615,1,0,0:2:0:0:
280,95,24778,2,0,L|195:85,1,67.4999979400635,0|0,1:2|0:2,0:0:0:0:
119,121,25102,1,10,0:2:0:0:
144,30,25264,6,0,P|197:-2|277:17,1,134.999995880127,2|8,0:2|0:2,0:0:0:0:
364,48,25751,1,8,0:2:0:0:
364,48,25832,1,8,0:2:0:0:
364,48,25913,2,0,L|461:40,1,82.5000025177003,10|8,0:2|0:2,0:0:0:0:
505,135,26237,1,10,0:2:0:0:
425,199,26399,1,8,0:2:0:0:
508,262,26561,6,0,P|470:299|493:362,2,120,6|4|10,1:2|1:2|0:2,0:0:0:0:
221,344,27859,6,0,B|177:339|177:339|151:349|151:349|97:343,2,120,6|6|10,1:2|1:2|0:2,0:0:0:0:
60,58,29156,6,0,L|36:192,1,120,6|6,1:2|1:2,0:0:0:0:
177,25,29805,1,10,0:2:0:0:
214,188,30129,1,2,0:2:0:0:
239,342,30453,6,0,P|295:310|357:319,1,120,6|4,1:2|1:2,0:0:0:0:
493,171,31102,1,10,0:2:0:0:
298,109,31426,1,2,0:2:0:0:
465,16,31751,1,6,1:2:0:0:
465,16,32399,5,8,0:2:0:0:
404,99,32724,1,10,0:2:0:0:
317,34,33048,1,10,0:2:0:0:
255,147,33372,1,8,0:2:0:0:
167,42,33697,1,8,0:2:0:0:
95,199,34021,1,8,0:2:0:0:
24,42,34345,1,10,0:2:0:0:
245,349,36920,5,8,1:2:0:0:
309,266,37082,2,0,L|365:254,2,37.5,8|8|0,0:2|0:2|1:2,0:0:0:0:
214,220,37406,1,8,0:2:0:0:
146,299,37568,2,0,L|158:355,2,37.5,8|8|0,0:2|0:2|1:2,0:0:0:0:
92,213,37892,2,0,P|39:246|31:325,1,131.25,4|0,1:2|0:2,0:0:0:0:
30,351,38541,5,2,1:2:0:0:
30,351,39516,6,0,B|91:342|91:342|129:361|129:361|199:349,1,165.000005035401,6|8,1:2|0:2,0:0:0:0:
290,313,40010,1,2,0:0:0:0:
290,313,40175,2,0,L|462:331,1,165.000005035401,2|8,1:2|0:0,0:0:0:0:
494,230,40653,1,2,0:0:0:0:
494,230,40813,6,0,P|507:185|488:137,1,82.5000025177003,2|0,1:2|0:2,0:0:0:0:
441,60,41137,2,0,B|402:39|365:40|365:40|331:88|253:80,1,165.000005035401,10|0,0:2|1:2,0:0:0:0:
193,38,41623,1,0,1:2:0:0:
152,137,41785,2,0,L|165:231,1,82.5000025177003,10|0,0:2|0:0,0:0:0:0:
248,283,42110,6,0,L|259:201,1,82.5000025177003,2|0,1:2|0:2,0:0:0:0:
359,164,42434,2,0,P|382:203|380:243,1,82.5000025177003,10|0,0:2|0:2,0:0:0:0:
446,324,42758,2,0,P|407:347|367:345,1,82.5000025177003,2|0,1:2|1:2,0:0:0:0:
276,376,43083,6,0,L|88:350,1,165.000005035401,10|0,0:2|1:2,0:0:0:0:
17,339,43580,1,0,0:0:0:0:
92,275,43742,2,0,L|102:182,1,82.5000025177003,10|0,0:2|0:2,0:0:0:0:
3,177,44066,2,0,L|13:84,1,82.5000025177003,2|0,1:2|1:2,0:0:0:0:
67,20,44390,2,0,B|104:36|145:2|145:2|161:54|232:58,1,165.000005035401,10|0,0:2|1:2,0:0:0:0:
419,108,45039,5,10,0:2:0:0:
492,41,45201,1,0,0:2:0:0:
492,41,45282,1,8,0:2:0:0:
492,41,45363,2,0,P|512:82|510:127,1,82.5000025177003,2|0,1:2|1:2,0:0:0:0:
435,206,45688,2,0,L|325:190,1,82.5000025177003,10|0,0:2|0:2,0:0:0:0:
266,243,46012,6,0,P|251:289|258:327,1,82.5000025177003,2|0,1:2|0:2,0:0:0:0:
341,371,46336,2,0,L|441:362,1,82.5000025177003,10|0,0:2|0:2,0:0:0:0:
497,297,46661,2,0,P|501:256|487:218,1,82.5000025177003,2|0,1:2|1:2,0:0:0:0:
460,122,46985,2,0,B|399:113|399:113|361:132|361:132|291:120,1,165.000005035401,10|0,0:2|1:2,0:0:0:0:
98,77,47634,6,0,L|12:65,1,82.5000025177003,10|0,0:2|0:2,0:0:0:0:
5,162,47958,2,0,P|-4:198|16:244,1,82.5000025177003,2|0,1:2|1:2,0:0:0:0:
97,182,48282,2,0,B|142:201|174:160|174:160|182:214|259:222,1,165.000005035401,10|0,0:2|1:2,0:0:0:0:
296,299,48769,1,0,1:2:0:0:
232,375,48931,6,0,L|130:359,1,82.5000025177003,10|0,0:2|0:2,0:0:0:0:
53,342,49255,1,2,1:2:0:0:
126,275,49418,1,8,0:2:0:0:
126,275,49499,1,8,0:2:0:0:
126,275,49580,2,0,L|185:268,3,41.2500012588501,10|8|8|8,0:2|0:0|0:0|0:0,0:0:0:0:
216,261,49904,6,0,B|255:240|292:241|292:241|326:289|404:281,1,165.000005035401,6|8,1:2|0:2,0:0:0:0:
452,331,50382,1,2,0:2:0:0:
452,331,50544,2,0,P|473:257|382:192,1,165.000005035401,2|8,1:2|0:2,0:0:0:0:
334,156,51030,1,2,0:2:0:0:
334,156,51192,2,0,L|223:144,1,82.5000025177003,2|0,1:2|0:2,0:0:0:0:
162,190,51517,6,0,L|51:202,1,82.5000025177003,10|0,0:2|0:2,0:0:0:0:
19,111,51852,1,0,1:2:0:0:
78,31,52014,1,0,1:2:0:0:
147,100,52176,2,0,P|195:53|277:62,1,123.75000377655,10|0,0:2|0:2,0:0:0:0:
296,62,52500,6,0,L|398:51,1,82.5000025177003,2|0,1:2|0:2,0:0:0:0:
462,104,52824,2,0,P|482:146|480:189,1,82.5000025177003,10|0,0:2|0:2,0:0:0:0:
417,257,53149,2,0,P|398:293|397:334,1,82.5000025177003,2|0,1:2|1:2,0:0:0:0:
306,372,53473,2,0,B|286:332|255:308|255:308|213:324|167:382,1,165.000005035401,10|0,0:2|1:2,0:0:0:0:
98,333,53959,1,0,1:2:0:0:
155,252,54121,6,0,L|168:152,1,82.5000025177003,10|0,0:2|0:2,0:0:0:0:
70,144,54445,2,0,L|57:44,1,82.5000025177003,2|0,1:2|1:2,0:0:0:0:
150,31,54770,2,0,B|196:53|196:53|282:31,1,123.75000377655,10|0,0:2|0:2,0:0:0:0:
314,46,55094,6,0,P|354:29|424:43,1,82.5000025177003,4|0,1:2|0:0,0:0:0:0:
482,75,55413,2,0,P|498:112|498:153,1,82.5000025177003,10|0,0:2|0:2,0:0:0:0:
436,227,55733,2,0,L|451:321,1,82.5000025177003,2|0,1:2|1:2,0:0:0:0:
368,363,56052,2,0,B|321:354|321:354|294:365|294:365|235:358,1,123.75000377655,10|0,0:2|0:0,0:0:0:0:
198,351,56372,6,0,L|104:357,1,82.5000025177003,2|0,1:2|0:2,0:0:0:0:
32,302,56696,2,0,P|14:264|35:206,1,82.5000025177003,10|0,0:2|0:2,0:0:0:0:
99,165,57020,2,0,P|116:201|110:241,1,82.5000025177003,2|0,1:2|1:2,0:0:0:0:
207,263,57344,2,0,L|380:232,1,165.000005035401,10|0,0:2|1:2,0:0:0:0:
499,92,57993,6,0,P|481:41|376:87,1,165.000005035401,8|0,0:2|1:2,0:0:0:0:
299,95,58480,1,0,1:2:0:0:
214,43,58642,2,0,L|113:33,1,82.5000025177003,8|0,0:2|1:2,0:0:0:0:
36,62,58966,1,8,0:2:0:0:
104,126,59128,1,0,1:2:0:0:
27,188,59290,6,0,L|15:287,1,82.5000025177003,10|0,0:2|1:2,0:0:0:0:
65,355,59614,1,10,0:2:0:0:
169,339,59777,1,8,0:2:0:0:
169,339,59857,1,8,0:2:0:0:
169,339,59939,2,0,L|239:333,3,41.2500012588501,10|8|8|8,0:2|0:2|0:2|0:2,0:0:0:0:
259,326,60263,6,0,P|336:306|416:362,1,165.000005035401,6|10,1:2|0:2,0:0:0:0:
486,289,60749,1,2,0:2:0:0:
486,289,60911,2,0,B|466:225|466:225|490:128,1,165.000005035401,2|10,1:2|0:2,0:0:0:0:
412,66,61398,1,2,0:2:0:0:
412,66,61560,6,0,P|349:109|258:80,2,165.000005035401,2|10|0,1:2|0:2|1:2,0:0:0:0:
489,129,62371,1,0,1:2:0:0:
422,201,62533,2,0,L|272:217,1,123.75000377655,10|0,0:2|0:2,0:0:0:0:
265,250,62857,6,0,P|249:286|243:340,1,82.5000025177003,2|0,1:2|0:2,0:0:0:0:
153,371,63181,2,0,P|147:330|130:292,1,82.5000025177003,10|0,0:2|0:2,0:0:0:0:
35,263,63506,2,0,L|16:154,1,82.5000025177003,2|0,1:2|1:2,0:0:0:0:
32,83,63830,2,0,B|90:47|90:47|195:70,1,165.000005035401,10|0,0:2|1:2,0:0:0:0:
387,33,64479,6,0,L|478:24,1,82.5000025177003,10|0,0:2|0:2,0:0:0:0:
494,115,64803,2,0,B|505:157|505:157|488:213,1,82.5000025177003,2|0,1:2|1:2,0:0:0:0:
408,244,65127,2,0,B|397:286|397:286|414:342,1,82.5000025177003,10|0,0:2|0:0,0:0:0:0:
315,359,65453,6,0,L|183:344,1,123.75000377655,0|0,1:2|0:0,0:0:0:0:
137,337,65786,2,0,L|125:256,1,82.5000025177003,10|0,0:2|0:0,0:0:0:0:
222,237,66110,2,0,L|210:156,1,82.5000025177003,2|0,1:2|1:2,0:0:0:0:
307,136,66434,2,0,L|295:55,1,82.5000025177003,10|0,0:2|0:0,0:0:0:0:
385,23,66767,6,0,P|446:31|457:132,2,165.000005035401,2|10|2,1:2|0:2|1:2,0:0:0:0:
294,54,67577,1,0,1:2:0:0:
198,29,67739,2,0,B|136:20|136:20|72:58,1,123.75000377655,10|0,0:2|0:2,0:0:0:0:
49,87,68064,6,0,P|29:133|33:174,1,82.5000025177003,0|0,1:2|0:2,0:0:0:0:
111,220,68388,2,0,L|203:211,1,82.5000025177003,10|0,0:2|0:2,0:0:0:0:
273,154,68712,2,0,L|363:164,1,82.5000025177003,2|0,1:2|1:2,0:0:0:0:
435,207,69026,2,0,P|467:274|392:344,1,165.000005035401,10|0,0:0|1:2,0:0:0:0:
323,372,69512,1,0,1:2:0:0:
227,344,69674,6,0,P|165:325|137:332,1,82.5000025177003,10|0,0:2|0:2,0:0:0:0:
55,361,69998,1,6,1:2:0:0:
32,264,70160,1,8,1:2:0:0:
32,264,70241,1,8,0:2:0:0:
32,264,70322,2,0,L|22:218,3,41.2500012588501,10|8|8|8,0:2|0:2|0:2|0:2,0:0:0:0:
19,185,70647,6,0,B|68:177|68:177|99:189|99:189|165:183,1,127.50000243187,6|0,1:2|1:2,0:0:0:0:
185,92,71133,1,2,0:2:0:0:
243,175,71295,2,0,L|267:326,1,127.50000243187,10|0,0:2|1:2,0:0:0:0:
359,349,71782,1,10,0:2:0:0:
359,349,71961,2,0,L|445:343,1,63.7500012159348,2|8,0:2|0:2,0:0:0:0:
479,260,72285,2,0,B|491:216|491:216|469:133,1,127.50000243187,2|8,1:2|0:2,0:0:0:0:
307,26,72924,6,0,B|313:80|313:80|302:97|302:97|308:154,2,127.50000243187,2|2|2,0:2|1:2|1:2,0:0:0:0:
106,64,73896,6,0,L|33:55,1,63.7500012159348,10|0,0:2|0:2,0:0:0:0:
10,153,74221,2,0,L|73:160,1,63.7500012159348,2|8,0:2|0:0,0:0:0:0:
143,242,74545,1,0,0:2:0:0:
143,242,74707,1,8,0:2:0:0:
150,342,74869,6,0,L|222:333,1,63.7500012159348,2|0,1:2|0:2,0:0:0:0:
283,259,75194,2,0,L|302:125,1,127.50000243187,10|2,0:2|0:2,0:0:0:0:
363,52,75680,1,0,1:2:0:0:
446,115,75842,1,4,1:2:0:0:
484,314,76166,6,0,L|426:310,3,37.5,8|8|8|8,0:2|0:2|0:2|0:2,0:0:0:0:
401,284,76490,2,0,L|343:288,3,37.5,8|8|0|0,0:2|0:2|1:2|1:2,0:0:0:0:
311,295,76814,1,0,1:2:0:0:
230,363,76977,1,8,0:2:0:0:
36,211,78458,5,0,0:2:0:0:
36,211,78612,1,0,0:2:0:0:
110,151,78760,2,0,L|98:81,1,56.2500021457673,2|0,0:2|0:2,0:0:0:0:
196,99,79084,2,0,L|184:29,1,56.2500021457673,2|0,0:2|0:2,0:0:0:0:
279,13,79408,5,0,0:2:0:0:
279,13,79570,1,0,0:2:0:0:
327,95,79732,2,0,P|353:104|386:103,1,56.2500021457673,2|0,0:2|0:2,0:0:0:0:
428,187,80057,2,0,P|456:187|482:178,1,56.2500021457673,2|0,0:2|0:2,0:0:0:0:
257,353,81031,5,0,0:2:0:0:
257,353,81192,1,0,0:2:0:0:
181,295,81354,2,0,P|157:280|111:271,1,56.2500021457673,2|0,0:2|0:2,0:0:0:0:
35,259,81678,2,0,P|50:235|59:189,1,56.2500021457673,2|0,0:2|0:2,0:0:0:0:
108,128,82003,5,0,0:2:0:0:
108,128,82165,1,0,0:2:0:0:
192,173,82327,2,0,L|257:167,1,56.2500021457673,2|0,0:2|0:2,0:0:0:0:
337,201,82651,2,0,L|402:195,1,56.2500021457673,2|0,0:2|0:2,0:0:0:0:
478,138,82976,1,0,0:2:0:0:
404,74,83138,1,0,1:2:0:0:
492,33,83300,1,8,0:2:0:0:
287,51,83624,6,0,L|196:43,1,63.7500012159348,0|0,1:2|0:2,0:0:0:0:
129,26,83949,1,10,0:2:0:0:
60,92,84111,1,2,0:2:0:0:
60,92,84192,1,8,0:2:0:0:
60,92,84273,1,2,0:2:0:0:
48,186,84435,2,0,L|68:318,1,127.50000243187,2|8,1:2|0:2,0:0:0:0:
150,360,84922,6,0,P|195:345|224:349,1,63.7500012159348,2|2,0:2|1:2,0:0:0:0:
305,360,85246,1,10,0:2:0:0:
389,303,85425,2,0,L|443:321,2,31.8750006079674,2|8|8,0:2|0:2|0:2,0:0:0:0:
329,229,85723,1,0,1:2:0:0:
414,169,85876,2,0,L|463:182,2,31.8750006079674,8|8|0,0:2|0:2|0:2,0:0:0:0:
361,85,86201,6,0,L|280:68,1,75,0|8,1:2|0:2,0:0:0:0:
193,45,86525,1,6,1:3:0:0:
146,130,86687,2,0,L|152:173,2,37.5,10|8|2,1:3|1:3|1:2,0:0:0:0:
61,81,87011,2,0,P|8:134|59:211,1,168.75,10|0,0:2|0:2,0:0:0:0:
