osu file format v14

[General]
AudioFilename: audio.mp3
AudioLeadIn: 0
PreviewTime: 38460
Countdown: 0
SampleSet: Soft
StackLeniency: 0.5
Mode: 0
LetterboxInBreaks: 0
WidescreenStoryboard: 0

[Editor]
DistanceSpacing: 0.9
BeatDivisor: 4
GridSize: 8
TimelineZoom: 2.859999

[Metadata]
Title:Gamushara (TV Size)
TitleUnicode:ガムシャラ (TV Size)
Artist:Miyuna
ArtistUnicode:みゆな
Creator:HakuYT
Version:Curse
Source:ブラッククローバー
Tags:rock jrock j-rock anime japanese black clover opening 5 chizu-kun
BeatmapID:1794170
BeatmapSetID:858503

[Difficulty]
HPDrainRate:6
CircleSize:4
OverallDifficulty:8.8
ApproachRate:9
SliderMultiplier:1.8
SliderTickRate:1

[Events]
//Background and Video events
0,0,"IMG_20191106_144246.jpg",0,0
Video,0,"VD.mp4"
//Break Periods
//Storyboard Layer 0 (Background)
//Storyboard Layer 1 (Fail)
//Storyboard Layer 2 (Pass)
//Storyboard Layer 3 (Foreground)
//Storyboard Layer 4 (Overlay)
//Storyboard Sound Samples

[TimingPoints]
616,324.324324324324,4,2,1,70,1,0
616,-133.333333333333,4,2,1,70,0,0
940,-100,4,2,1,70,0,0
1588,-133.333333333333,4,2,1,70,0,0
1913,-100,4,2,1,70,0,0
2399,-133.333333333333,4,2,1,70,0,0
3210,-133.333333333333,4,2,1,70,0,0
3534,-100,4,2,1,70,0,0
4183,-133.333333333333,4,2,1,70,0,0
4507,-100,4,2,1,70,0,0
4994,-133.333333333333,4,2,1,70,0,0
5724,-133.333333333333,4,2,1,5,0,0
5805,-111.111111111111,4,2,1,70,0,0
18697,-111.111111111111,4,2,1,5,0,0
18778,-111.111111111111,4,2,1,70,0,0
23886,-111.111111111111,4,2,1,5,0,0
23967,-111.111111111111,4,2,1,70,0,0
25913,-66.6666666666667,4,2,1,70,0,0
25994,-66.6666666666667,4,2,1,5,0,0
26075,-66.6666666666667,4,2,1,70,0,0
26156,-66.6666666666667,4,2,1,5,0,0
26237,-66.6666666666667,4,2,1,70,0,0
26318,-66.6666666666667,4,2,1,5,0,0
26399,-66.6666666666667,4,2,1,70,0,0
26480,-66.6666666666667,4,2,1,5,0,0
26561,-125,4,2,1,70,0,0
29399,-125,4,2,1,5,0,0
29480,-125,4,2,1,70,0,0
29724,-125,4,2,1,5,0,0
29805,-125,4,2,1,70,0,0
30697,-125,4,2,1,5,0,0
30778,-125,4,2,1,70,0,0
31021,-125,4,2,1,5,0,0
31102,-125,4,2,1,70,0,0
31751,-133.333333333333,4,2,1,70,0,0
32399,-133.333333333333,4,2,1,40,0,0
32643,-133.333333333333,4,2,1,5,0,0
32724,-117.647058823529,4,2,1,45,0,0
32967,-117.647058823529,4,2,1,5,0,0
33048,-100,4,2,1,50,0,0
33291,-100,4,2,1,5,0,0
33372,-90.9090909090909,4,2,1,55,0,0
33615,-90.9090909090909,4,2,1,5,0,0
33697,-83.3333333333333,4,2,1,60,0,0
33940,-83.3333333333333,4,2,1,5,0,0
34021,-76.9230769230769,4,2,1,70,0,0
34264,-76.9230769230769,4,2,1,5,0,0
34345,-133.333333333333,4,2,1,70,0,0
36920,324.324324324324,4,2,1,70,1,0
36920,-100,4,2,1,70,0,0
37892,-200,4,2,1,70,0,0
38460,-200,4,2,1,5,0,0
38541,-200,4,2,1,70,0,0
39190,326.086956521739,4,2,1,70,1,0
39516,329.67032967033,4,2,1,80,1,0
39516,-90.9090909090909,4,2,1,80,0,0
39763,-90.9090909090909,4,2,1,5,0,0
39845,-90.9090909090909,4,2,1,80,0,0
40175,319.148936170213,4,2,1,80,1,0
40175,-90.9090909090909,4,2,1,80,0,0
40494,-90.9090909090909,4,2,1,80,0,0
40813,324.324324324324,4,2,1,80,1,0
40813,-90.9090909090909,4,2,1,80,0,0
42029,-90.9090909090909,4,2,1,5,0,0
42110,-90.9090909090909,4,2,1,80,0,0
43245,346.820809248555,4,2,1,80,1,0
43245,-90.9090909090909,4,2,1,80,0,0
43418,324.324324324324,4,2,1,80,1,0
43418,-90.9090909090909,4,2,1,80,0,0
43661,-90.9090909090909,4,2,1,5,0,0
43742,-90.9090909090909,4,2,1,80,0,0
44634,-90.9090909090909,4,2,1,5,0,0
44715,-90.9090909090909,4,2,1,80,0,0
44958,-90.9090909090909,4,2,1,5,0,0
45039,-90.9090909090909,4,2,1,80,0,0
47553,-90.9090909090909,4,2,1,5,0,0
47634,-90.9090909090909,4,2,1,80,0,0
50147,-90.9090909090909,4,2,1,5,0,0
50228,309.278350515464,4,2,1,80,1,0
50228,-90.9090909090909,4,2,1,80,0,0
50382,324.324324324324,4,2,1,80,1,0
50382,-90.9090909090909,4,2,1,80,0,0
51679,346.820809248555,4,2,1,80,1,0
51679,-90.9090909090909,4,2,1,80,0,0
51852,324.324324324324,4,2,1,80,1,0
51852,-90.9090909090909,4,2,1,80,0,0
52419,-90.9090909090909,4,2,1,5,0,0
52500,324.324324324324,4,2,1,80,1,0
52500,-90.9090909090909,4,2,1,80,0,0
53716,-90.9090909090909,4,2,1,5,0,0
53797,-90.9090909090909,4,2,1,80,0,0
54770,-90.9090909090909,4,2,1,80,0,0
55013,-90.9090909090909,4,2,1,5,0,0
55094,319.659030367608,4,2,1,80,1,0
55094,-90.9090909090909,4,2,1,80,0,0
55333,-90.9090909090909,4,2,1,5,0,0
55413,-90.9090909090909,4,2,1,80,0,0
55733,-90.9090909090909,4,2,1,80,0,0
56052,-90.9090909090909,4,2,1,80,0,0
56372,324.324324324324,4,2,1,80,1,0
56372,-90.9090909090909,4,2,1,80,0,0
57588,-90.9090909090909,4,2,1,5,0,0
57669,-90.9090909090909,4,2,1,80,0,0
57912,-90.9090909090909,4,2,1,5,0,0
57993,-90.9090909090909,4,2,1,80,0,0
59128,-90.9090909090909,4,2,1,80,0,0
60263,-90.9090909090909,4,2,1,80,0,0
60506,-90.9090909090909,4,2,1,5,0,0
60587,-90.9090909090909,4,2,1,80,0,0
61803,-90.9090909090909,4,2,1,5,0,0
61884,-90.9090909090909,4,2,1,80,0,0
62128,-90.9090909090909,4,2,1,5,0,0
62209,-90.9090909090909,4,2,1,80,0,0
62776,-90.9090909090909,4,2,1,5,0,0
62857,-90.9090909090909,4,2,1,80,0,0
64398,-90.9090909090909,4,2,1,5,0,0
64479,-90.9090909090909,4,2,1,80,0,0
65371,-90.9090909090909,4,2,1,5,0,0
65452,-90.9090909090909,4,2,1,80,0,0
65615,342.857142857143,4,2,1,80,1,0
65615,-90.9090909090909,4,2,1,80,0,0
65786,324.324324324324,4,2,1,80,1,0
65786,-90.9090909090909,4,2,1,80,0,0
66029,-90.9090909090909,4,2,1,5,0,0
66110,-90.9090909090909,4,2,1,80,0,0
66353,-90.9090909090909,4,2,1,5,0,0
66434,-92.5925925925926,4,2,1,80,0,0
66596,342.857142857143,4,2,1,80,1,0
66596,-90.9090909090909,4,2,1,80,0,0
66681,-90.9090909090909,4,2,1,5,0,0
66767,324.324324324324,4,2,1,80,1,0
66767,-90.9090909090909,4,2,1,80,0,0
67010,-90.9090909090909,4,2,1,5,0,0
67091,-90.9090909090909,4,2,1,80,0,0
67334,-90.9090909090909,4,2,1,5,0,0
67415,-90.9090909090909,4,2,1,80,0,0
67983,-90.9090909090909,4,2,1,5,0,0
68064,-90.9090909090909,4,2,1,80,0,0
68712,304.568527918782,4,2,1,80,1,0
68712,-90.9090909090909,4,2,1,80,0,0
68864,324.324324324324,4,2,1,80,1,0
68864,-90.9090909090909,4,2,1,80,0,0
69350,324.324324324324,4,2,1,80,1,0
69350,-90.9090909090909,4,2,1,80,0,0
70647,-117.647058823529,4,2,1,70,0,0
71782,359.281437125748,4,2,1,70,1,0
71961,324.324324324324,4,2,1,70,1,0
71961,-117.647058823529,4,2,1,70,0,0
72771,307.692307692308,4,2,1,70,1,0
72924,324.324324324324,4,2,1,70,1,0
72924,-117.647058823529,4,2,1,70,0,0
75842,324.324324324324,4,2,1,70,1,0
78458,309.278350515464,4,2,1,70,1,0
78458,-133.333333333333,4,2,1,70,0,0
78612,297.029702970297,4,2,1,70,1,0
78760,324.324324324324,4,2,1,70,1,0
78760,-100,4,2,1,70,0,0
79408,-133.333333333333,4,2,1,70,0,0
79732,-100,4,2,1,70,0,0
81030,-133.333333333333,4,2,1,70,0,0
81354,-100,4,2,1,70,0,0
82003,-133.333333333333,4,2,1,70,0,0
82327,-100,4,2,1,70,0,0
83624,-117.647058823529,4,2,1,70,0,0
85246,361.44578313253,4,2,1,70,1,0
85425,297.029702970297,4,2,1,70,1,0
85876,285.714285714286,4,2,1,70,1,0
86018,366.97247706422,4,2,1,70,1,0
86201,324.324324324324,4,2,1,70,1,0
87011,-200,4,2,1,70,0,0
87741,-181.818181818181,4,2,1,5,0,0

[Colours]
Combo1 : 255,223,191
Combo2 : 128,128,128
Combo3 : 255,191,191

[HitObjects]
301,30,616,5,0,0:2:0:0:
303,52,778,1,0,0:2:0:0:
179,174,940,2,0,P|215:141|273:133,1,90,2|0,0:2|0:2,0:2:0:0:
334,264,1264,2,0,P|291:252|258:221,1,90,2|0,0:2|0:2,0:2:0:0:
409,144,1588,5,0,0:2:0:0:
407,166,1750,1,0,0:2:0:0:
492,307,1913,2,0,L|481:209,1,90,2|0,0:2|0:2,0:2:0:0:
402,366,2237,2,0,L|413:268,1,90,2|0,0:2|0:2,0:2:0:0:
269,180,3210,5,0,0:2:0:0:
254,261,3372,1,0,0:2:0:0:
245,98,3534,2,0,P|293:98|343:141,1,90,2|0,0:2|0:2,0:2:0:0:
336,282,3859,2,0,P|288:282|238:239,1,90,2|0,0:2|0:2,0:2:0:0:
94,211,4183,5,0,0:2:0:0:
109,292,4345,1,0,0:2:0:0:
5,197,4507,2,0,L|103:212,1,90,2|0,0:2|0:2,0:2:0:0:
245,98,4832,2,0,L|147:113,1,90,2|0,0:2|0:2,0:2:0:0:
156,111,5318,5,0,0:2:0:0:
156,111,5480,2,0,P|174:51|211:16,1,101.250003862381,0|0,0:2|0:2,0:2:0:0:
283,20,5805,6,0,B|355:14|355:14|375:25|375:25|449:17,1,161.999995056153,6|8,1:2|0:2,0:2:0:0:
333,101,6291,1,2,0:2:0:0:
333,101,6372,1,8,0:2:0:0:
333,101,6453,1,2,0:2:0:0:
493,148,6615,1,0,1:2:0:0:
340,232,6778,1,0,0:2:0:0:
498,304,6940,1,10,0:2:0:0:
409,147,7102,6,0,L|422:234,1,80.9999975280763,2|0,0:2|1:2,0:2:0:0:
363,355,7426,1,8,0:2:0:0:
252,242,7588,1,2,0:2:0:0:
252,242,7670,1,8,0:2:0:0:
252,242,7751,2,0,P|208:230|163:235,1,80.9999975280763,2|0,1:2|1:2,0:2:0:0:
69,364,8075,1,8,0:2:0:0:
202,315,8237,1,2,0:2:0:0:
91,172,8399,6,0,L|81:266,1,80.9999975280763,2|0,1:2|0:2,0:2:0:0:
0,125,8724,1,8,0:2:0:0:
156,88,8886,1,2,0:2:0:0:
82,252,9048,2,0,L|91:172,1,80.9999975280763,2|0,0:2|1:2,0:2:0:0:
103,25,9372,1,0,0:2:0:0:
202,164,9534,1,10,0:2:0:0:
270,86,9697,6,0,B|375:57|319:150|444:114,1,161.999995056153,2|8,0:2|0:2,0:2:0:0:
509,13,10183,1,0,0:2:0:0:
509,13,10264,1,8,0:2:0:0:
509,13,10345,2,0,L|498:103,1,80.9999975280763,2|0,1:2|1:2,0:2:0:0:
384,213,10670,2,0,L|395:303,1,80.9999975280763,10|0,0:2|0:2,0:2:0:0:
277,187,10994,6,0,P|240:167|188:166,1,80.9999975280763,2|0,1:2|0:2,0:2:0:0:
99,282,11318,1,10,0:2:0:0:
238,330,11480,1,0,0:2:0:0:
238,330,11561,1,8,0:2:0:0:
238,330,11643,2,0,L|219:242,1,80.9999975280763,2|0,0:2|1:2,0:2:0:0:
283,102,11967,1,2,0:2:0:0:
129,197,12129,1,8,0:2:0:0:
45,42,12291,6,0,B|85:61|121:25|121:25|139:87|208:79,1,161.999995056153,2|8,0:2|0:2,0:2:0:0:
310,17,12778,1,0,0:2:0:0:
310,17,12859,1,8,0:2:0:0:
310,17,12940,2,0,B|354:7|354:7|406:34,1,80.9999975280763,2|0,1:2|1:2,0:2:0:0:
507,196,13264,2,0,B|463:186|463:186|411:213,1,80.9999975280763,10|0,0:2|0:2,0:2:0:0:
482,366,13588,6,0,L|501:271,1,80.9999975280763,2|0,1:2|0:2,0:2:0:0:
354,191,13913,1,10,0:2:0:0:
317,367,14075,1,0,0:2:0:0:
317,367,14156,1,8,0:2:0:0:
317,367,14237,2,0,P|276:383|231:380,1,80.9999975280763,2|0,0:2|1:2,0:2:0:0:
137,254,14561,2,0,P|171:281|191:321,1,80.9999975280763,2|8,0:2|0:2,0:2:0:0:
41,359,14886,6,0,B|37:336|11:312|11:312|50:197,1,161.999995056153,2|8,0:2|0:2,0:2:0:0:
99,72,15372,1,0,0:2:0:0:
99,72,15453,1,8,0:2:0:0:
99,72,15534,1,2,1:2:0:0:
197,188,15697,1,0,1:2:0:0:
25,136,15859,1,8,0:2:0:0:
209,94,16021,1,2,0:2:0:0:
115,195,16183,6,0,L|141:361,1,161.999995056153,2|8,1:2|0:2,0:2:0:0:
318,375,16670,1,2,0:2:0:0:
318,375,16751,1,8,0:2:0:0:
318,375,16832,2,0,L|331:290,1,80.9999975280763,2|0,1:2|1:2,0:2:0:0:
384,136,17156,1,0,0:2:0:0:
460,302,17318,1,10,0:2:0:0:
266,228,17480,6,0,P|306:208|355:213,1,80.9999975280763,2|0,0:2|1:2,0:2:0:0:
508,231,17805,1,8,0:2:0:0:
330,294,17967,1,2,0:2:0:0:
330,294,18048,1,8,0:2:0:0:
330,294,18129,1,2,1:2:0:0:
489,381,18291,1,0,1:2:0:0:
426,207,18453,2,0,L|450:64,1,121.499996292114,8|0,0:2|0:2,0:2:0:0:
454,9,18778,6,0,B|349:-20|405:73|280:37,1,161.999995056153,2|8,1:2|0:2,0:2:0:0:
131,9,19264,1,0,0:2:0:0:
131,9,19345,1,8,0:2:0:0:
131,9,19426,2,0,B|114:47|114:47|135:86,1,80.9999975280763,2|0,0:2|1:2,0:2:0:0:
219,204,19751,1,0,0:2:0:0:
44,100,19913,1,10,0:2:0:0:
102,254,20075,6,0,L|117:160,1,80.9999975280763,2|0,0:2|1:2,0:2:0:0:
216,48,20399,1,8,0:2:0:0:
219,204,20561,1,0,0:2:0:0:
219,204,20643,1,8,0:2:0:0:
219,204,20724,2,0,L|311:217,1,80.9999975280763,2|0,1:2|1:2,0:2:0:0:
467,312,21048,2,0,L|375:325,1,80.9999975280763,10|0,0:2|0:2,0:2:0:0:
206,380,21372,6,0,P|236:348|242:304,1,80.9999975280763,2|0,1:2|0:2,0:2:0:0:
131,192,21697,1,10,0:2:0:0:
66,362,21859,1,0,0:2:0:0:
66,362,21940,1,8,0:2:0:0:
66,362,22021,2,0,L|51:270,1,80.9999975280763,2|0,0:2|1:2,0:2:0:0:
162,307,22345,1,2,0:2:0:0:
39,182,22507,1,8,0:2:0:0:
207,123,22670,6,0,L|219:210,1,80.9999975280763,2|0,0:2|1:2,0:2:0:0:
313,338,22994,1,8,0:2:0:0:
375,180,23156,1,0,0:2:0:0:
375,180,23237,1,8,0:2:0:0:
375,180,23318,2,0,L|485:169,1,80.9999975280763,2|0,1:2|1:2,0:2:0:0:
512,45,23643,2,0,L|389:57,1,121.499996292114,8|0,0:2|0:2,0:2:0:0:
323,105,23967,6,0,P|307:62|312:23,1,80.9999975280763,2|0,1:2|0:2,0:2:0:0:
207,123,24291,1,8,0:2:0:0:
375,180,24453,1,0,0:2:0:0:
375,180,24534,1,8,0:2:0:0:
375,180,24615,1,0,0:2:0:0:
233,267,24778,2,0,L|245:352,1,80.9999975280763,0|0,1:2|0:2,0:2:0:0:
389,346,25102,1,10,0:2:0:0:
233,267,25264,6,0,P|191:247|129:247,1,80.9999975280763,2|0,0:2|1:2,0:2:0:0:
8,352,25588,1,8,0:2:0:0:
49,197,25751,1,8,0:2:0:0:
49,197,25832,1,8,0:2:0:0:
49,197,25913,6,0,L|40:119,1,67.5000025749208,10|0,0:2|0:2,0:2:0:0:
150,56,26075,2,0,L|141:134,1,67.5000025749208,8|0,0:2|0:2,0:2:0:0:
233,267,26237,2,0,L|224:189,1,67.5000025749208,10|0,0:2|0:2,0:2:0:0:
333,105,26399,2,0,L|324:183,1,67.5000025749208,8|0,0:2|0:2,0:2:0:0:
425,374,26561,5,6,1:2:0:0:
495,328,26886,5,4,1:2:0:0:
491,248,27210,5,10,0:2:0:0:
491,248,27859,5,6,1:2:0:0:
495,328,28183,5,6,1:2:0:0:
425,374,28508,5,10,0:2:0:0:
425,374,29156,6,0,L|315:359,1,108,6|0,1:2|0:2,0:2:0:0:
234,329,29480,2,0,L|344:314,1,108,6|0,1:2|0:2,0:2:0:0:
414,267,29805,5,10,0:2:0:0:
371,190,30129,5,2,0:2:0:0:
371,190,30453,6,0,P|338:138|347:85,1,108,6|0,1:2|0:2,0:2:0:0:
326,18,30778,2,0,P|328:70|297:114,1,108,4|0,1:2|0:2,0:2:0:0:
214,160,31102,5,10,0:2:0:0:
134,103,31426,5,2,0:2:0:0:
16,146,31751,5,6,1:2:0:0:
16,146,32399,6,0,L|28:250,1,101.250003862381,8|0,0:2|0:2,0:2:0:0:
101,344,32724,6,0,L|115:223,1,114.750002188683,10|0,0:2|0:2,0:2:0:0:
187,104,33048,6,0,L|203:257,1,135,10|0,0:2|0:2,0:2:0:0:
281,377,33372,6,0,L|302:190,1,148.50000453186,8|0,0:2|0:2,0:2:0:0:
375,76,33697,6,0,L|399:283,1,161.999995056153,8|0,0:2|0:2,0:2:0:0:
481,384,34021,6,0,L|505:167,1,175.499991966248,8|0,0:2|0:2,0:2:0:0:
512,57,34345,5,10,0:2:0:0:
490,114,36920,5,8,1:2:0:0:
456,84,37001,1,8,0:2:0:0:
412,77,37082,1,8,0:2:0:0:
372,95,37163,1,8,0:2:0:0:
347,132,37244,2,0,L|338:210,1,45,0|0,1:2|1:2,0:2:0:0:
291,301,37406,5,8,0:2:0:0:
246,295,37487,1,8,0:2:0:0:
207,315,37568,1,8,0:2:0:0:
170,340,37649,1,8,0:2:0:0:
125,341,37730,2,0,L|74:326,1,30,0|0,1:2|1:2,0:2:0:0:
21,213,37892,6,0,B|87:203|87:203|105:217|105:217|176:207,1,157.5,4|0,1:2|0:2,0:2:0:0:
256,169,38541,5,2,1:2:0:0:
256,169,39516,6,0,L|291:328,1,148.50000453186,6|0,1:2|0:2,0:2:0:0:
361,363,39845,2,0,P|412:380|459:363,1,99.0000030212403,8|2,0:2|0:0,0:2:0:0:
512,182,40175,1,2,1:2:0:0:
408,298,40334,1,0,1:2:0:0:
351,99,40494,2,0,P|389:135|405:209,1,99.0000030212403,8|2,0:0|0:0,0:0:0:0:
267,82,40813,6,0,P|298:32|339:19,1,99.0000030212403,2|0,1:2|0:2,0:2:0:0:
178,185,41137,2,0,L|153:70,1,99.0000030212403,10|0,0:2|0:2,0:2:0:0:
7,10,41460,1,0,1:2:0:0:
56,200,41623,1,0,1:2:0:0:
203,31,41785,2,0,P|139:17|85:87,1,148.50000453186,10|0,0:2|0:2,0:2:0:0:
157,89,42110,6,0,L|179:186,1,99.0000030212403,2|0,1:2|0:2,0:2:0:0:
361,363,42434,2,0,L|339:266,1,99.0000030212403,10|0,0:2|0:2,0:2:0:0:
135,325,42759,2,0,L|266:302,1,99.0000030212403,2|0,1:2|1:2,0:2:0:0:
394,120,43083,2,0,L|296:137,1,99.0000030212403,10|0,0:2|0:2,0:2:0:0:
51,158,43418,6,0,B|84:134|120:143|120:143|144:196|216:184,1,148.50000453186,0|0,1:2|0:2,0:2:0:0:
247,227,43742,2,0,P|263:272|227:309,1,99.0000030212403,10|0,0:2|0:2,0:2:0:0:
47,371,44066,2,0,P|16:335|32:290,1,99.0000030212403,2|0,1:2|1:2,0:2:0:0:
232,307,44390,2,0,L|391:319,1,148.50000453186,10|0,0:2|0:2,0:2:0:0:
468,301,44715,6,0,B|488:244|488:244|453:141,1,148.50000453186,0|0,1:2|0:2,0:2:0:0:
407,72,45039,2,0,P|367:119|356:169,1,99.0000030212403,10|0,0:2|0:2,0:2:0:0:
356,153,45282,1,8,0:2:0:0:
356,153,45363,1,2,1:2:0:0:
232,307,45525,1,0,1:2:0:0:
135,82,45688,1,10,0:2:0:0:
271,203,45850,1,0,0:2:0:0:
67,312,46012,6,0,L|46:198,1,99.0000030212403,2|0,1:2|0:2,0:2:0:0:
231,122,46336,2,0,L|248:24,1,99.0000030212403,10|0,0:2|0:2,0:2:0:0:
163,246,46661,2,0,L|146:344,1,99.0000030212403,2|0,1:2|1:2,0:2:0:0:
361,160,46985,2,0,L|382:274,1,99.0000030212403,10|0,0:2|0:2,0:2:0:0:
472,24,47309,6,0,B|367:2|429:76|300:45,1,148.50000453186,0|0,1:2|0:2,0:2:0:0:
248,25,47634,2,0,P|201:9|143:28,1,99.0000030212403,10|0,0:2|0:2,0:2:0:0:
163,246,47958,2,0,P|200:213|212:153,1,99.0000030212403,2|0,1:2|1:2,0:2:0:0:
0,55,48282,2,0,P|9:103|55:144,1,99.0000030212403,10|0,0:2|0:2,0:2:0:0:
291,163,48606,5,0,1:2:0:0:
58,248,48769,1,0,1:2:0:0:
227,363,48931,2,0,L|239:245,1,99.0000030212403,10|0,0:2|0:2,0:2:0:0:
276,79,49255,1,2,1:2:0:0:
493,79,49417,5,8,0:2:0:0:
444,70,49498,1,8,0:2:0:0:
396,79,49579,1,10,0:2:0:0:
362,115,49660,1,8,0:2:0:0:
328,150,49741,1,8,0:2:0:0:
281,163,49822,1,8,0:2:0:0:
231,161,49904,6,0,L|78:142,1,148.50000453186,6|0,1:2|0:2,0:2:0:0:
4,128,50228,1,8,0:2:0:0:
51,327,50382,1,2,0:2:0:0:
4,128,50544,2,0,P|30:78|88:56,1,99.0000030212403,2|0,1:2|1:2,0:2:0:0:
276,79,50868,1,8,0:2:0:0:
135,248,51030,1,2,0:2:0:0:
155,21,51192,6,0,L|174:127,1,99.0000030212403,2|0,1:2|0:2,0:2:0:0:
397,78,51517,2,0,L|378:184,1,99.0000030212403,10|0,0:2|0:2,0:2:0:0:
347,362,51852,1,0,1:2:0:0:
247,179,52014,1,0,1:2:0:0:
422,335,52176,2,0,P|368:285|277:315,1,148.50000453186,10|0,0:2|0:2,0:2:0:0:
230,347,52500,6,0,P|185:365|145:300,1,99.0000030212403,2|0,1:2|0:2,0:2:0:0:
40,182,52824,2,0,L|22:299,1,99.0000030212403,10|0,0:2|0:2,0:2:0:0:
164,169,53149,2,0,P|209:151|249:216,1,99.0000030212403,2|0,1:2|1:2,0:2:0:0:
422,335,53473,2,0,B|403:276|403:276|437:167,1,148.50000453186,10|0,0:2|0:2,0:2:0:0:
452,117,53797,5,0,1:2:0:0:
316,266,53959,1,0,1:2:0:0:
235,81,54121,2,0,L|135:60,1,99.0000030212403,10|0,0:2|0:2,0:2:0:0:
138,60,54364,1,8,0:2:0:0:
138,60,54446,1,2,1:2:0:0:
133,251,54608,1,0,1:2:0:0:
314,89,54770,2,0,P|293:23|194:13,1,148.50000453186,10|0,0:2|0:2,0:2:0:0:
235,81,55094,6,0,L|210:240,1,148.50000453186,4|0,1:2|0:2,0:2:0:0:
212,318,55413,2,0,L|329:297,1,99.0000030212403,10|0,0:2|0:2,0:2:0:0:
133,251,55733,2,0,L|112:368,1,99.0000030212403,2|0,1:2|1:2,0:2:0:0:
309,210,56052,2,0,L|211:227,1,99.0000030212403,10|0,0:2|0:2,0:2:0:0:
365,360,56372,6,0,P|388:317|376:259,1,99.0000030212403,2|0,1:2|0:2,0:2:0:0:
469,84,56696,2,0,P|462:132|485:175,1,99.0000030212403,10|0,0:2|0:2,0:2:0:0:
309,210,57019,1,2,1:2:0:0:
381,33,57182,1,0,1:2:0:0:
381,268,57344,6,0,P|374:165|303:125,1,148.50000453186,10|0,0:2|0:2,0:2:0:0:
261,103,57669,2,0,B|202:94|202:94|174:110|174:110|114:101,1,148.50000453186,0|0,1:2|0:2,0:2:0:0:
42,133,57993,2,0,B|17:180|17:180|47:223,1,99.0000030212403,8|0,0:2|0:2,0:2:0:0:
138,364,58317,1,0,1:2:0:0:
222,176,58479,1,0,1:2:0:0:
288,372,58642,2,0,L|403:359,1,99.0000030212403,8|0,0:2|1:2,0:2:0:0:
492,197,58966,5,8,0:2:0:0:
246,277,59128,1,0,1:2:0:0:
369,120,59290,1,10,0:2:0:0:
477,363,59453,1,0,1:2:0:0:
456,109,59615,1,10,0:2:0:0:
314,204,59776,5,8,0:2:0:0:
272,178,59858,1,8,0:2:0:0:
250,134,59939,1,10,0:2:0:0:
254,86,60020,1,8,0:2:0:0:
283,47,60101,1,8,0:2:0:0:
329,29,60182,1,8,0:2:0:0:
377,38,60263,6,0,B|272:16|334:90|205:59,1,148.50000453186,6|0,1:2|0:2,0:2:0:0:
158,43,60587,1,10,0:2:0:0:
104,240,60749,1,2,0:2:0:0:
41,40,60912,2,0,L|16:162,1,99.0000030212403,2|0,1:2|1:2,0:2:0:0:
0,298,61236,1,10,0:2:0:0:
120,151,61398,1,2,0:2:0:0:
143,340,61560,6,0,L|259:319,1,99.0000030212403,2|0,1:2|0:0,0:0:0:0:
303,149,61885,2,0,P|301:222|339:284,1,148.50000453186,10|0,0:2|0:2,0:2:0:0:
416,334,62209,1,0,1:2:0:0:
248,362,62371,1,0,1:2:0:0:
388,195,62533,2,0,P|389:121|351:59,1,148.50000453186,10|0,0:2|0:2,0:2:0:0:
304,0,62857,6,0,P|352:30|424:9,1,99.0000030212403,2|0,1:2|0:2,0:2:0:0:
208,123,63182,2,0,P|159:122|119:150,1,99.0000030212403,10|0,0:2|0:2,0:2:0:0:
166,302,63506,2,0,L|184:185,1,99.0000030212403,2|0,1:2|1:2,0:2:0:0:
18,30,63830,2,0,L|36:147,1,99.0000030212403,10|0,0:2|0:2,0:2:0:0:
25,352,64155,6,0,B|58:328|94:337|94:337|118:390|190:378,1,148.50000453186,0|0,1:2|0:2,0:2:0:0:
237,356,64479,2,0,P|285:335|336:355,1,99.0000030212403,10|0,0:2|0:2,0:2:0:0:
500,262,64803,1,2,1:2:0:0:
299,225,64965,1,0,1:2:0:0:
488,384,65127,2,0,P|461:308|516:258,1,148.50000453186,10|0,0:2|0:2,0:2:0:0:
492,183,65452,6,0,B|521:135|521:135|495:97,1,99.0000030212403,0|0,1:2|0:2,0:2:0:0:
269,211,65786,6,0,L|233:373,1,148.50000453186,10|0,0:2|0:2,0:2:0:0:
122,114,66110,6,0,L|158:276,1,148.50000453186,2|0,1:2|0:2,0:2:0:0:
32,34,66434,6,0,L|-4:196,1,148.50000453186,10|0,0:2|0:2,0:2:0:0:
270,32,66767,6,0,P|222:24|180:49,1,99.0000030212403,2|0,1:2|0:0,0:0:0:0:
356,65,67091,2,0,B|321:102|321:102|416:80,1,148.50000453186,10|0,0:2|0:2,0:2:0:0:
490,55,67415,1,2,1:2:0:0:
420,258,67577,1,0,1:2:0:0:
251,142,67739,2,0,B|228:195|228:195|272:311,1,148.50000453186,10|0,0:2|0:2,0:2:0:0:
332,343,68064,6,0,L|444:367,1,99.0000030212403,0|0,1:2|0:2,0:2:0:0:
210,367,68388,2,0,P|173:338|169:264,1,99.0000030212403,10|0,0:2|0:2,0:2:0:0:
381,147,68712,1,2,1:2:0:0:
260,279,68864,1,0,1:2:0:0:
245,85,69026,2,0,B|281:81|304:106|304:106|355:40|433:72,1,198.000006042481,10|0,0:0|1:2,0:0:0:0:
447,230,69512,5,0,1:2:0:0:
266,181,69674,2,0,L|242:71,1,99.0000030212403,10|0,0:2|0:2,0:2:0:0:
152,10,69998,1,6,1:2:0:0:
18,199,70160,5,8,1:2:0:0:
60,222,70241,1,8,0:2:0:0:
107,213,70322,1,10,0:2:0:0:
136,174,70404,1,8,0:2:0:0:
133,126,70485,1,8,0:2:0:0:
98,92,70566,1,8,0:2:0:0:
50,89,70647,6,0,B|109:79|109:79|141:93|141:93|213:83,1,153.000002918243,6|0,1:2|1:2,0:2:0:0:
333,77,71133,1,2,0:2:0:0:
237,179,71295,2,0,L|215:349,1,153.000002918243,10|0,0:2|1:2,0:2:0:0:
330,277,71782,1,10,0:2:0:0:
422,357,71961,6,0,P|462:362|503:336,1,76.5000014591217,2|8,0:2|0:2,0:2:0:0:
507,235,72285,2,0,P|457:210|454:284,1,153.000002918243,2|8,1:2|0:2,0:2:0:0:
464,130,72924,6,0,L|479:43,1,76.5000014591217,2|0,0:2|1:2,0:2:0:0:
372,97,73248,2,0,L|357:10,1,76.5000014591217,2|0,1:2|0:2,0:2:0:0:
266,162,73572,2,0,L|281:75,1,76.5000014591217,2|0,1:2|0:2,0:2:0:0:
153,0,73896,2,0,L|165:75,1,76.5000014591217,10|0,0:2|0:2,0:2:0:0:
41,20,74221,6,0,P|16:89|101:104,1,153.000002918243,2|0,0:2|0:2,0:2:0:0:
145,207,74707,1,8,0:2:0:0:
34,273,74869,2,0,L|20:180,1,76.5000014591217,2|0,1:2|0:2,0:2:0:0:
140,296,75194,2,0,L|128:371,1,76.5000014591217,10|0,0:2|0:2,0:2:0:0:
231,384,75518,5,2,0:2:0:0:
317,309,75680,1,0,1:2:0:0:
246,162,75842,1,4,1:2:0:0:
246,162,76166,5,8,0:2:0:0:
214,182,76247,1,8,0:2:0:0:
177,181,76328,1,8,0:2:0:0:
146,159,76409,1,8,0:2:0:0:
135,123,76490,2,0,L|117:54,1,45,8|8,0:2|0:2,0:2:0:0:
248,11,76652,2,0,L|262:61,1,45,0|0,1:2|1:2,0:2:0:0:
342,146,76814,5,0,1:2:0:0:
435,20,76977,1,8,0:2:0:0:
435,20,78458,5,0,0:2:0:0:
441,47,78612,1,0,0:2:0:0:
342,146,78760,2,0,L|452:124,1,90,2|0,0:2|0:2,0:2:0:0:
511,246,79084,2,0,L|401:224,1,90,2|0,0:2|0:2,0:2:0:0:
242,295,79408,5,0,0:2:0:0:
237,267,79570,1,0,0:2:0:0:
286,356,79732,2,0,P|247:371|182:341,1,90,2|0,0:2|0:2,0:2:0:0:
197,201,80057,2,0,P|239:189|281:204,1,90,2|0,0:2|0:2,0:2:0:0:
85,298,81030,5,0,0:2:0:0:
70,219,81192,1,0,0:2:0:0:
158,338,81354,2,0,B|182:297|182:297|141:237,1,90,2|0,0:2|0:2,0:2:0:0:
246,173,81678,2,0,B|222:208|222:208|246:249,1,90,2|0,0:2|0:2,0:2:0:0:
90,114,82003,5,0,0:2:0:0:
171,140,82165,1,0,0:2:0:0:
155,0,82327,2,0,P|176:41|149:68,1,90,2|0,0:2|0:2,0:2:0:0:
294,22,82651,2,0,P|272:58|299:89,1,90,2|0,0:2|0:2,0:2:0:0:
409,128,82976,5,0,0:2:0:0:
332,235,83138,1,0,1:2:0:0:
457,373,83300,1,8,0:2:0:0:
457,373,83624,6,0,L|362:360,1,76.5000014591217,0|0,1:2|0:2,0:2:0:0:
245,307,83949,1,10,0:2:0:0:
417,276,84111,1,2,0:2:0:0:
417,276,84192,1,8,0:2:0:0:
417,276,84273,1,2,0:2:0:0:
297,204,84435,6,0,P|317:168|302:112,1,76.5000014591217,2|0,1:2|0:2,0:2:0:0:
257,22,84760,1,8,0:2:0:0:
157,152,84922,1,2,0:2:0:0:
174,64,85084,1,2,1:2:0:0:
221,220,85246,1,10,0:2:0:0:
58,144,85425,5,2,0:2:0:0:
58,144,85499,1,8,0:2:0:0:
58,144,85573,2,0,L|50:206,2,45,8|8|0,0:2|0:2|1:2,0:2:0:0:
133,241,85876,1,8,0:2:0:0:
133,241,85947,1,8,0:2:0:0:
133,241,86018,1,0,0:2:0:0:
30,357,86201,5,0,1:2:0:0:
213,300,86363,1,8,0:2:0:0:
30,271,86525,1,6,1:3:0:0:
214,210,86687,1,10,1:3:0:0:
214,210,86768,1,8,1:3:0:0:
214,210,86849,1,2,1:2:0:0:
305,349,87011,6,0,B|347:369|391:337|391:337|409:353|409:353|461:329|510:351,1,202.5,10|0,0:2|0:2,0:2:0:0:
