osu file format v14

[General]
AudioFilename: audio.mp3
AudioLeadIn: 0
PreviewTime: -1
Countdown: 1
SampleSet: None
StackLeniency: 0.7
Mode: 0
LetterboxInBreaks: 0
WidescreenStoryboard: 0

[Editor]
DistanceSpacing: 0.8
BeatDivisor: 4
GridSize: 8
TimelineZoom: 2

[Metadata]
Title:Gamushara
TitleUnicode:Gamushara
Artist:Miyuna
ArtistUnicode:Miyuna
Creator:Blurb02
Version:Demon
Source:Black Clover
Tags:Anime
BeatmapID:1957829
BeatmapSetID:937239

[Difficulty]
HPDrainRate:7
CircleSize:4.5
OverallDifficulty:8
ApproachRate:9.5
SliderMultiplier:2
SliderTickRate:1

[Events]
//Background and Video events
0,0,"images.jpg",0,0
//Break Periods
//Storyboard Layer 0 (Background)
//Storyboard Layer 1 (Fail)
//Storyboard Layer 2 (Pass)
//Storyboard Layer 3 (Foreground)
//Storyboard Sound Samples

[TimingPoints]
0,645.161290322581,4,1,0,100,1,0
5161,324.324324324324,4,1,0,100,1,0
31431,-250,4,1,0,100,0,0
32890,-133.333333333333,4,1,0,100,0,0
33539,-66.6666666666667,4,1,0,100,0,0
33863,-40,4,1,0,100,0,0
38160,-50,4,1,0,100,0,0
44485,-100,4,1,0,100,0,0
45133,-80,4,1,0,100,0,0
45782,-66.6666666666667,4,1,0,100,0,0
46512,-57.1428571428571,4,1,0,100,0,0
48296,-80,4,1,0,100,0,0
64917,-133.333333333333,4,1,0,100,0,0
65566,-80,4,1,0,100,0,0
65728,-66.6666666666667,4,1,0,100,0,0
65971,-57.1428571428571,4,1,0,100,0,0
66863,-66.6666666666667,4,1,0,100,0,0
70350,-200,4,1,0,100,0,0
70755,-66.6666666666667,4,1,0,100,0,0
70998,-200,4,1,0,100,0,0
71404,-66.6666666666667,4,1,0,100,0,0
71647,-200,4,1,0,100,0,0
72458,-100,4,1,0,100,0,0
75052,-200,4,1,0,100,0,0
75701,-66.6666666666667,4,1,0,100,0,0
78133,645.161290322581,4,1,0,100,1,0
82649,324.324324324324,4,1,0,100,1,0
82811,-50,4,1,0,100,0,0

[HitObjects]
90,76,161,6,0,P|50:117|64:147,1,50,2|0,0:0|0:0,0:0:0:0:
113,252,483,1,4,0:0:0:0:
369,89,645,2,0,L|307:149,1,50,2|0,0:0|0:0,0:0:0:0:
322,287,967,2,0,L|385:223,1,50,4|0,0:0|0:0,0:0:0:0:
420,151,1290,1,2,0:0:0:0:
166,109,1452,2,0,L|244:163,1,50,0|4,0:0|0:0,0:0:0:0:
358,113,1774,2,0,L|289:70,1,50,2|4,0:0|0:0,0:0:0:0:
76,80,2741,6,0,P|135:45|160:51,1,50,2|4,0:0|0:0,0:0:0:0:
229,103,3064,1,0,0:0:0:0:
147,234,3225,2,0,B|109:241|109:241|100:295,1,50,2|4,0:0|0:0,0:0:0:0:
147,363,3548,2,0,B|185:353|185:353|187:309,1,50,2|4,0:0|0:0,0:0:0:0:
165,146,3870,1,0,0:0:0:0:
319,109,4032,2,0,B|356:107|356:107|371:151,1,50,2|4,0:0|0:0,0:0:0:0:
390,289,4354,2,0,B|350:293|350:293|336:253,1,50,2|4,0:0|0:0,0:0:0:0:
359,68,5161,5,0,0:0:0:0:
71,38,5323,2,0,B|38:70|38:70|44:123|44:123|96:137|96:137|136:96,1,200
208,86,5890,1,0,0:0:0:0:
208,86,5971,1,0,0:0:0:0:
208,86,6052,1,0,0:0:0:0:
249,78,6133,1,0,0:0:0:0:
317,67,6215,1,0,0:0:0:0:
357,90,6296,1,0,0:0:0:0:
250,266,6458,5,0,0:0:0:0:
486,120,6620,1,0,0:0:0:0:
475,329,6782,5,0,0:0:0:0:
398,34,6944,1,0,0:0:0:0:
348,208,7106,5,0,0:0:0:0:
348,208,7188,1,0,0:0:0:0:
348,208,7269,1,0,0:0:0:0:
348,208,7350,1,0,0:0:0:0:
348,208,7431,1,0,0:0:0:0:
202,56,7593,1,0,0:0:0:0:
71,306,7755,1,0,0:0:0:0:
352,319,7917,5,0,0:0:0:0:
418,33,8079,2,0,L|330:82,1,100
330,81,8404,1,0,0:0:0:0:
330,81,8485,1,0,0:0:0:0:
330,81,8566,1,0,0:0:0:0:
330,81,8647,1,0,0:0:0:0:
384,336,8809,1,0,0:0:0:0:
204,46,8971,1,0,0:0:0:0:
157,237,9215,5,0,0:0:0:0:
157,237,9296,1,0,0:0:0:0:
157,237,9377,1,0,0:0:0:0:
327,100,9539,1,0,0:0:0:0:
490,242,9701,5,0,0:0:0:0:
472,278,9782,1,0,0:0:0:0:
433,316,9863,1,0,0:0:0:0:
124,253,10026,5,0,0:0:0:0:
442,151,10188,2,0,L|369:77,1,100
373,267,10593,5,0,0:0:0:0:
344,157,10755,1,0,0:0:0:0:
473,183,10917,1,0,0:0:0:0:
288,269,11080,1,0,0:0:0:0:
288,269,11161,1,0,0:0:0:0:
288,269,11242,1,0,0:0:0:0:
288,269,11323,1,0,0:0:0:0:
103,116,11647,6,0,P|56:162|64:194,1,100
116,321,11971,1,0,0:0:0:0:
301,326,12133,1,0,0:0:0:0:
336,275,12215,1,0,0:0:0:0:
331,230,12296,1,0,0:0:0:0:
234,186,12458,1,0,0:0:0:0:
379,66,12620,5,0,0:0:0:0:
447,74,12782,2,0,L|336:109,1,100
217,296,13106,5,0,0:0:0:0:
420,316,13269,1,0,0:0:0:0:
337,153,13431,6,0,L|260:79,1,100
264,83,13755,1,0,0:0:0:0:
264,83,13836,1,0,0:0:0:0:
264,83,13917,1,0,0:0:0:0:
264,83,13998,2,0,P|188:42|157:62,1,100
486,76,14323,5,0,0:0:0:0:
248,43,14485,1,0,0:0:0:0:
99,224,14647,5,0,0:0:0:0:
412,293,14809,1,0,0:0:0:0:
118,338,14971,5,0,0:0:0:0:
63,344,15052,1,0,0:0:0:0:
19,293,15133,1,0,0:0:0:0:
39,229,15215,1,0,0:0:0:0:
467,138,15377,1,0,0:0:0:0:
457,187,15458,2,0,L|469:122,1,50
278,306,15701,5,0,0:0:0:0:
311,147,15863,1,0,0:0:0:0:
311,147,15944,1,0,0:0:0:0:
311,147,16025,1,0,0:0:0:0:
311,147,16106,1,0,0:0:0:0:
149,258,16188,6,0,L|158:126,2,100
460,111,16917,2,0,P|397:98|359:122,2,100
27,204,17404,1,0,0:0:0:0:
291,53,17566,1,0,0:0:0:0:
339,67,17647,1,0,0:0:0:0:
376,116,17728,1,0,0:0:0:0:
302,209,17890,5,0,0:0:0:0:
264,159,17971,1,0,0:0:0:0:
432,243,18133,2,0,B|468:298|468:298|408:327|408:327|360:286,1,150
154,48,18539,5,0,0:0:0:0:
201,255,18701,1,0,0:0:0:0:
351,136,18863,1,0,0:0:0:0:
351,136,18944,1,0,0:0:0:0:
351,136,19025,1,0,0:0:0:0:
351,136,19106,1,0,0:0:0:0:
396,316,19269,5,0,0:0:0:0:
163,124,19431,1,0,0:0:0:0:
349,71,19593,1,0,0:0:0:0:
349,71,19674,1,0,0:0:0:0:
349,71,19755,1,0,0:0:0:0:
349,71,19836,1,0,0:0:0:0:
456,179,19998,5,0,0:0:0:0:
416,235,20079,1,0,0:0:0:0:
356,255,20160,1,0,0:0:0:0:
296,217,20242,1,0,0:0:0:0:
366,113,20404,1,0,0:0:0:0:
202,86,20566,2,0,B|121:122|121:122|92:169,1,100
80,269,20971,5,0,0:0:0:0:
411,177,21133,1,0,0:0:0:0:
301,316,21296,1,0,0:0:0:0:
301,316,21377,1,0,0:0:0:0:
301,316,21458,1,0,0:0:0:0:
301,316,21539,1,0,0:0:0:0:
233,291,21620,1,0,0:0:0:0:
231,221,21701,1,0,0:0:0:0:
285,186,21782,1,0,0:0:0:0:
260,65,22025,6,0,P|333:51|366:76,1,100
469,237,22350,2,0,L|379:190,1,100
380,190,22593,1,0,0:0:0:0:
360,152,22674,1,0,0:0:0:0:
382,92,22755,1,0,0:0:0:0:
182,315,22916,5,0,0:0:0:0:
382,92,23079,2,0,L|232:115,1,150
428,327,23485,2,0,L|300:222,1,150
95,268,23890,5,0,0:0:0:0:
116,215,23971,1,0,0:0:0:0:
137,160,24052,1,0,0:0:0:0:
160,103,24133,1,0,0:0:0:0:
180,44,24215,1,0,0:0:0:0:
354,282,24377,5,0,0:0:0:0:
419,65,24539,1,0,0:0:0:0:
225,197,24701,1,0,0:0:0:0:
225,197,24782,1,0,0:0:0:0:
225,197,24863,1,0,0:0:0:0:
225,197,24944,1,0,0:0:0:0:
62,122,25188,6,0,L|118:84,3,50
103,93,25512,1,0,0:0:0:0:
270,107,25674,1,0,0:0:0:0:
142,220,25836,1,0,0:0:0:0:
314,259,25998,1,0,0:0:0:0:
170,344,26160,1,0,0:0:0:0:
421,327,26323,5,8,0:0:0:0:
421,327,26566,1,8,0:0:0:0:
421,327,26809,1,4,0:0:0:0:
407,123,27458,5,8,0:0:0:0:
407,123,27701,1,8,0:0:0:0:
407,123,28025,1,4,0:0:0:0:
110,80,28755,5,8,0:0:0:0:
110,80,28998,1,8,0:0:0:0:
110,80,29323,1,4,0:0:0:0:
364,175,30133,5,0,0:0:0:0:
364,175,30377,1,0,0:0:0:0:
364,175,30701,1,0,0:0:0:0:
31,87,31431,2,0,B|28:135|28:135|43:172,1,80
185,249,31917,2,0,B|206:232|206:232|208:211,1,40
400,98,32242,6,0,L|372:145,1,40
201,216,32566,2,0,L|232:177,1,40
465,135,32890,2,0,L|409:211,1,75.0000028610231
121,245,33215,2,0,L|187:170,1,75.0000028610231
503,157,33539,2,0,L|401:277,1,150.000005722046
71,243,33863,2,0,B|120:246|120:246|108:210|108:210|146:210|146:210|125:176|125:176|172:187|172:187|142:142|142:142|195:142|195:142|160:107|160:107|220:103|220:103|185:63|185:63|233:65|233:65|193:42|193:42|243:11|241:12|226:-7|225:-7|247:-7,1,625
52,211,36539,5,0,0:0:0:0:
88,169,36620,1,0,0:0:0:0:
121,125,36701,1,0,0:0:0:0:
143,78,36782,1,0,0:0:0:0:
121,24,36863,2,0,L|263:34,1,125,0|4,0:0|0:0,0:0:0:0:
245,31,37025,5,0,0:0:0:0:
317,65,37106,1,0,0:0:0:0:
382,116,37188,1,0,0:0:0:0:
432,192,37269,2,0,L|313:291,1,125,0|4,0:0|0:0,0:0:0:0:
273,323,37431,5,0,0:0:0:0:
211,310,37512,1,0,0:0:0:0:
175,254,37593,1,0,0:0:0:0:
160,185,37674,2,0,P|25:146|77:55,1,250
464,145,38160,2,0,B|415:249|415:249|422:234|416:218|380:153,1,200
54,168,39133,6,0,B|77:98|191:184|206:61,1,200
332,154,39458,1,0,0:0:0:0:
425,319,39620,1,0,0:0:0:0:
441,85,39863,1,0,0:0:0:0:
397,41,39944,1,0,0:0:0:0:
336,28,40025,1,0,0:0:0:0:
273,32,40106,1,0,0:0:0:0:
147,189,40269,5,0,0:0:0:0:
473,317,40431,1,0,0:0:0:0:
248,105,40593,5,0,0:0:0:0:
207,49,40674,1,0,0:0:0:0:
258,18,40755,1,0,0:0:0:0:
319,34,40836,1,0,0:0:0:0:
302,82,40917,1,0,0:0:0:0:
36,284,41079,1,0,0:0:0:0:
307,170,41242,1,0,0:0:0:0:
33,99,41404,6,0,L|279:64,1,200
165,319,41728,2,0,L|362:113,1,200
278,260,42052,1,0,0:0:0:0:
292,117,42215,1,0,0:0:0:0:
87,162,42377,2,0,P|29:252|105:329,1,200
229,336,42701,2,0,L|288:136,1,200
382,158,43025,5,0,0:0:0:0:
270,71,43188,1,0,0:0:0:0:
476,44,43350,1,0,0:0:0:0:
459,347,43512,2,0,B|415:313|415:313|489:307|489:307|428:232|553:235|450:164,1,300
324,245,43917,1,0,0:0:0:0:
263,62,44079,2,0,B|198:66|198:66|237:85|237:85|144:114|144:114|161:65|161:65|93:119,1,300
75,289,44485,6,0,L|124:190,1,100
292,166,44809,2,0,L|216:241,1,100
274,342,45133,2,0,L|138:291,1,125
129,49,45458,2,0,L|244:144,1,125
421,309,45782,6,0,P|472:241|436:208,1,150.000005722046
233,74,46106,2,0,P|167:121|185:187,1,150.000005722046
440,113,46512,6,0,B|398:208|398:208|331:149|331:149|397:109|397:109|357:37|357:37|301:117,1,437.500004172325
60,268,47079,1,0,0:0:0:0:
258,59,47242,1,0,0:0:0:0:
417,318,47404,2,0,P|291:288|278:250,2,175.00000166893
417,318,47809,1,0,0:0:0:0:
117,209,47971,5,0,0:0:0:0:
433,98,48133,2,0,B|389:97|389:97|369:62|369:62|282:84|324:37,1,175.00000166893
100,58,48458,6,0,P|55:139|56:192,1,125
237,62,48782,2,0,P|264:117|261:192,1,125
264,179,49025,1,0,0:0:0:0:
227,233,49106,1,0,0:0:0:0:
181,259,49188,1,0,0:0:0:0:
126,269,49269,1,0,0:0:0:0:
76,255,49350,1,0,0:0:0:0:
53,204,49431,1,0,0:0:0:0:
355,75,49593,6,0,B|459:87|458:87|430:158,1,125
276,214,49917,1,0,0:0:0:0:
154,75,50079,2,0,B|182:15|182:15|224:87,1,125
404,284,50404,1,0,0:0:0:0:
75,213,50566,2,0,L|208:220,1,125
366,85,50890,2,0,L|212:86,1,125
241,85,51215,1,0,0:0:0:0:
434,273,51377,6,0,P|384:340|299:359,1,125
150,278,51701,2,0,P|173:196|230:159,1,125
472,67,52025,5,0,0:0:0:0:
53,285,52188,1,0,0:0:0:0:
254,37,52350,1,0,0:0:0:0:
439,303,52512,1,0,0:0:0:0:
346,55,52674,1,0,0:0:0:0:
193,329,52836,1,0,0:0:0:0:
48,48,52998,1,0,0:0:0:0:
46,178,53161,6,0,L|143:278,2,125
408,105,53647,1,0,0:0:0:0:
210,265,53809,1,0,0:0:0:0:
166,141,53971,2,0,P|215:68|308:44,1,187.5
186,133,54377,2,0,L|273:29,1,125
440,74,54701,5,0,0:0:0:0:
336,273,54863,1,0,0:0:0:0:
281,68,55026,1,0,0:0:0:0:
104,277,55188,2,0,L|109:145,1,125
267,134,55512,2,0,L|266:268,1,125
398,329,55836,5,0,0:0:0:0:
181,139,55998,1,0,0:0:0:0:
428,82,56161,1,0,0:0:0:0:
241,284,56323,6,0,P|183:323|146:285,1,125
104,135,56647,1,0,0:0:0:0:
323,64,56809,1,0,0:0:0:0:
359,293,56971,1,0,0:0:0:0:
256,192,57133,12,0,58268,0:0:0:0:
69,118,58593,6,0,L|42:248,1,125
164,288,58836,2,0,L|201:152,1,125
128,212,59160,5,0,0:0:0:0:
144,167,59242,1,0,0:0:0:0:
180,126,59323,1,0,0:0:0:0:
219,104,59404,1,0,0:0:0:0:
247,103,59485,1,0,0:0:0:0:
285,142,59566,1,0,0:0:0:0:
278,184,59647,1,0,0:0:0:0:
151,318,59809,6,0,B|228:335|228:335|198:274,1,125
103,199,60133,1,0,0:0:0:0:
424,111,60296,1,0,0:0:0:0:
351,289,60458,1,0,0:0:0:0:
221,95,60620,1,0,0:0:0:0:
464,254,60782,2,0,L|362:166,1,125
440,62,61106,5,0,0:0:0:0:
211,278,61269,1,0,0:0:0:0:
467,285,61431,1,0,0:0:0:0:
265,64,61593,1,0,0:0:0:0:
371,346,61755,1,0,0:0:0:0:
124,151,61998,6,0,P|57:196|46:254,1,125
171,361,62323,2,0,P|233:336|241:282,1,125
221,70,62647,2,0,B|281:107|281:107|243:139|210:134|208:186|211:193,1,187.5
139,302,63052,1,0,0:0:0:0:
410,200,63215,1,0,0:0:0:0:
377,82,63377,2,0,L|465:353,1,250
60,161,63944,6,0,B|75:118|75:118|125:110|154:88|124:47,1,125
256,50,64269,2,0,B|329:83|329:83|370:138,1,125
356,280,64593,1,0,0:0:0:0:
155,276,64755,1,0,0:0:0:0:
450,107,64917,2,0,P|353:147|337:173,1,112.500004291535
323,191,65323,6,0,L|234:128,1,75.0000028610231
255,211,65647,2,0,L|226:108,1,75.0000028610231
196,195,65890,2,0,L|257:41,1,150.000005722046
156,131,66215,2,0,L|303:22,1,175.00000166893
277,194,66539,1,0,0:0:0:0:
326,309,66701,5,0,0:0:0:0:
372,89,66863,2,0,P|314:179|249:198,1,150.000005722046
120,152,67188,2,0,P|145:73|221:26,1,150.000005722046
469,129,67512,5,0,0:0:0:0:
189,263,67674,1,0,0:0:0:0:
272,88,67836,1,0,0:0:0:0:
459,261,67998,5,0,0:0:0:0:
300,353,68160,1,0,0:0:0:0:
123,176,68323,1,0,0:0:0:0:
351,47,68485,5,0,0:0:0:0:
476,157,68647,1,0,0:0:0:0:
311,279,68809,1,0,0:0:0:0:
114,172,68971,5,0,0:0:0:0:
320,42,69133,1,0,0:0:0:0:
477,173,69296,1,0,0:0:0:0:
438,324,69458,5,0,0:0:0:0:
423,124,69620,1,0,0:0:0:0:
414,177,69701,1,0,0:0:0:0:
385,237,69782,1,0,0:0:0:0:
345,277,69863,1,0,0:0:0:0:
300,302,69944,1,0,0:0:0:0:
242,308,70025,1,0,0:0:0:0:
200,263,70106,1,0,0:0:0:0:
210,205,70188,1,0,0:0:0:0:
64,93,70350,6,0,L|108:162,1,75.0000028610231
383,134,70755,2,0,P|346:178|357:284,1,150.000005722046
409,338,71079,2,0,P|467:327|472:295,1,100
289,109,71566,2,0,P|219:155|218:180,1,100
263,238,71809,2,0,P|300:245|336:216,1,75
361,113,72215,1,0,0:0:0:0:
79,173,72458,6,0,L|141:59,1,100
352,202,72782,2,0,L|232:236,1,100
212,36,73106,2,0,L|312:71,1,100
444,297,73431,2,0,L|329:286,1,100
110,224,73755,2,0,L|194:139,1,100
378,111,74242,6,0,P|412:161|416:230,1,100
331,283,74566,1,0,0:0:0:0:
194,162,74728,2,0,L|283:65,1,100
420,127,75052,2,0,B|451:171|451:171|404:193|404:193|448:240,1,150
105,208,75701,6,0,L|225:96,1,150.000005722046
214,105,76025,1,0,0:0:0:0:
214,105,76106,1,0,0:0:0:0:
214,105,76188,1,0,0:0:0:0:
214,105,76269,1,0,0:0:0:0:
260,105,76350,1,0,0:0:0:0:
301,86,76431,1,0,0:0:0:0:
350,78,76512,1,0,0:0:0:0:
384,82,76593,1,0,0:0:0:0:
411,121,76674,1,0,0:0:0:0:
74,190,78133,6,0,L|152:133,1,50
244,158,78455,1,0,0:0:0:0:
257,258,78616,2,0,L|204:306,2,50
393,151,79101,1,0,0:0:0:0:
83,231,79262,2,0,L|158:189,1,50
315,60,79584,2,0,L|228:104,2,50
25,124,80552,6,0,P|56:90|74:106,1,50
157,123,80874,1,0,0:0:0:0:
74,244,81036,2,0,L|138:213,1,50
219,281,81358,2,0,L|161:315,1,50
286,193,81681,1,0,0:0:0:0:
384,312,81842,2,0,P|430:277|428:253,3,50
75,118,82649,5,0,0:0:0:0:
194,176,82811,2,0,P|86:210|71:308,1,200
201,328,83054,2,0,B|236:336|236:336|238:319|238:319|245:331|245:331|247:313|247:313|255:329|255:329|256:311|256:311|266:327|266:327|264:312|264:312|271:327|271:327|266:309|266:308,1,100
298,226,83378,1,0,0:0:0:0:
298,226,83459,1,0,0:0:0:0:
298,226,83540,1,0,0:0:0:0:
298,226,83621,1,0,0:0:0:0:
400,131,83783,5,0,0:0:0:0:
139,244,83946,1,0,0:0:0:0:
300,26,84108,1,0,0:0:0:0:
430,302,84270,1,0,0:0:0:0:
430,302,84351,1,0,0:0:0:0:
430,302,84432,1,0,0:0:0:0:
430,302,84513,1,0,0:0:0:0:
318,185,84676,5,0,0:0:0:0:
110,93,84838,1,0,0:0:0:0:
512,121,85054,1,0,0:0:0:0:
442,97,85108,1,0,0:0:0:0:
378,74,85162,1,0,0:0:0:0:
316,40,85216,1,0,0:0:0:0:
82,280,85405,5,0,0:0:0:0:
146,251,85459,1,0,0:0:0:0:
198,211,85513,1,0,0:0:0:0:
257,175,85567,1,0,0:0:0:0:
410,290,85811,5,0,0:0:0:0:
410,290,85892,1,0,0:0:0:0:
410,290,85973,1,0,0:0:0:0:
430,124,86135,1,0,0:0:0:0:
316,48,86297,1,0,0:0:0:0:
272,32,86378,1,0,0:0:0:0:
237,38,86459,1,0,0:0:0:0:
192,58,86540,2,0,B|109:127|109:127|116:78|103:34|41:36|6:73|81:183|81:183|-12:309,1,500
