osu file format v14

[General]
AudioFilename: audio.mp3
AudioLeadIn: 0
PreviewTime: -1
Countdown: 1
SampleSet: Normal
StackLeniency: 0.7
Mode: 0
LetterboxInBreaks: 0
WidescreenStoryboard: 0

[Editor]
Bookmarks: 20351,36243,41351,59027
DistanceSpacing: 1.6
BeatDivisor: 4
GridSize: 4
TimelineZoom: 1.8

[Metadata]
Title:Gamushara [TV Size]
TitleUnicode:Gamushara [TV Size]
Artist:Miyuna
ArtistUnicode:Miyuna
Creator:RangoBy
Version:Extreme
Source:
Tags:
BeatmapID:1948773
BeatmapSetID:933462

[Difficulty]
HPDrainRate:6
CircleSize:4.1
OverallDifficulty:9.2
ApproachRate:9.7
SliderMultiplier:1.8
SliderTickRate:1

[Events]
//Background and Video events
0,0,"910289.jpg",0,0
//Break Periods
//Storyboard Layer 0 (Background)
//Storyboard Layer 1 (Fail)
//Storyboard Layer 2 (Pass)
//Storyboard Layer 3 (Foreground)
//Storyboard Sound Samples

[TimingPoints]
0.0680432647413909,324.324324324324,4,1,0,100,1,0
324,-125,4,1,0,100,0,0
5027,-100,4,1,0,100,0,0
14432,-125,4,1,0,100,0,0
20351,-90.9090909090909,4,1,0,100,0,0
22864,-133.333333333333,4,1,0,100,0,0
25378,-100,4,1,0,100,0,0
26756,-133.333333333333,4,1,0,100,0,0
33810,-416.666666666667,4,1,0,100,0,0
36486,-50,4,1,0,100,0,0
39081,-83.3333333333333,4,1,0,100,0,0
59003,-74.0740740740741,4,1,0,100,0,0
70216,-100,4,1,0,100,0,0
77432,-142.857142857143,4,1,0,100,0,0
78324,-125,4,1,0,100,0,0
86837,-166.666666666667,4,1,0,100,0,0

[HitObjects]
190,257,324,6,0,P|129:181|127:173,1,101.250003862381
167,53,729,2,0,P|228:129|230:137,1,101.250003862381
221,173,1054,1,0,0:0:0:0:
221,173,1216,1,0,0:0:0:0:
169,70,1378,6,0,P|108:146|106:154,1,101.250003862381
241,141,1783,2,0,P|302:65|304:57,1,101.250003862381
282,40,2108,1,0,0:0:0:0:
282,40,2270,1,0,0:0:0:0:
344,85,2918,6,0,P|330:181|325:188,1,101.250003862381
220,255,3323,2,0,P|225:158|229:150,1,101.250003862381
249,141,3648,1,0,0:0:0:0:
249,141,3810,1,0,0:0:0:0:
276,216,3972,6,0,P|215:292|213:300,1,101.250003862381
347,293,4377,2,0,P|408:217|410:209,1,101.250003862381
407,184,4702,1,0,0:0:0:0:
407,184,4864,1,0,0:0:0:0:
223,237,5270,5,0,0:0:0:0:
177,102,5432,2,0,P|70:146|55:170,1,144
183,249,5918,5,0,0:0:0:0:
293,347,6080,2,0,P|400:303|415:279,1,144
372,151,6567,5,0,0:0:0:0:
251,250,6729,2,0,P|144:206|129:182,1,144
190,74,7216,5,0,0:0:0:0:
347,35,7378,2,0,P|431:114|436:142,1,144
221,111,8027,2,0,B|82:189|178:174|17:277,1,225
77,139,8675,5,0,0:0:0:0:
165,263,8837,2,0,P|269:313|297:308,1,144
421,85,9324,5,0,0:0:0:0:
249,271,9486,2,0,P|144:321|116:316,1,144
358,54,10054,5,0,0:0:0:0:
312,191,10459,1,0,0:0:0:0:
179,273,10783,2,0,P|76:291|66:288,1,90
189,134,11108,2,0,P|229:115|274:112,2,90
116,307,11675,1,0,0:0:0:0:
138,140,12000,2,0,B|257:19|252:133|388:13,1,270
244,34,12648,2,0,B|204:154|213:55|158:197,1,180
155,230,13054,5,0,0:0:0:0:
101,176,13378,2,0,L|49:133,2,45
157,116,13621,2,0,L|209:73,2,45
203,184,13864,2,0,L|255:227,2,45
237,107,14108,2,0,L|296:67,2,45
277,170,14594,2,0,B|403:316|380:178|529:342,1,288
284,36,15729,5,0,0:0:0:0:
254,257,15891,2,0,P|147:301|119:295,1,144
154,75,16377,5,0,0:0:0:0:
304,308,16539,2,0,P|411:264|426:240,1,144
416,48,17026,5,0,0:0:0:0:
317,255,17188,2,0,P|210:211|195:187,1,144
151,53,17675,1,0,0:0:0:0:
172,238,17837,2,0,P|93:322|65:327,1,144
246,274,18486,6,0,B|385:196|289:211|450:108,1,225
269,119,19134,5,0,0:0:0:0:
307,297,19296,2,0,P|411:347|439:342,1,144
407,65,19783,5,0,0:0:0:0:
346,268,19945,2,0,P|241:318|213:313,1,144
138,82,20432,5,0,0:0:0:0:
336,269,20756,1,0,0:0:0:0:
341,36,21081,1,0,0:0:0:0:
436,221,21324,1,0,0:0:0:0:
207,158,21648,5,0,0:0:0:0:
185,137,21729,1,0,0:0:0:0:
165,114,21810,1,0,0:0:0:0:
146,88,21891,2,0,P|261:25|273:26,1,148.50000453186
373,206,22297,1,0,0:0:0:0:
373,239,22378,1,0,0:0:0:0:
369,268,22459,1,0,0:0:0:0:
366,296,22540,2,0,P|251:359|239:358,1,148.50000453186
110,190,23027,6,0,B|107:46|256:46,1,236.250009012223
402,193,23675,2,0,B|405:337|256:337,1,236.250009012223
153,88,24324,2,0,B|259:11|377:85,1,236.250009012223
259,201,24973,2,0,P|122:226|101:220,1,135.000005149842
234,60,25459,5,0,0:0:0:0:
286,55,25540,1,0,0:0:0:0:
337,67,25621,1,0,0:0:0:0:
383,92,25702,1,0,0:0:0:0:
419,131,25783,1,0,0:0:0:0:
442,178,25864,1,0,0:0:0:0:
450,228,25946,1,0,0:0:0:0:
443,278,26027,1,0,0:0:0:0:
95,158,26351,5,0,0:0:0:0:
402,210,26594,1,0,0:0:0:0:
212,73,26918,2,0,P|83:22|54:28,1,135
164,320,27648,5,0,0:0:0:0:
146,65,27891,1,0,0:0:0:0:
325,266,28215,2,0,P|454:317|483:311,1,135
415,169,28946,5,0,0:0:0:0:
123,259,29189,1,0,0:0:0:0:
225,66,29513,2,0,P|354:15|407:28,1,168.750006437302
387,316,30243,5,0,0:0:0:0:
117,177,30486,1,0,0:0:0:0:
387,69,30810,2,0,P|492:158|505:211,1,168.750006437302
359,328,31540,2,0,B|211:226|331:251|175:148,1,236.250009012223
168,140,32189,5,0,0:0:0:0:
162,62,32513,1,0,0:0:0:0:
243,44,32837,1,0,0:0:0:0:
326,45,33162,1,0,0:0:0:0:
407,61,33486,1,0,0:0:0:0:
423,139,33810,1,0,0:0:0:0:
365,193,34135,2,0,B|172:238|329:263|104:362,1,296.99999093628
107,158,36648,6,0,L|59:128,4,45
136,168,36891,1,0,0:0:0:0:
166,161,36973,1,0,0:0:0:0:
183,136,37054,1,0,0:0:0:0:
181,104,37135,1,0,0:0:0:0:
192,74,37216,1,0,0:0:0:0:
219,58,37297,1,0,0:0:0:0:
251,57,37378,1,0,0:0:0:0:
274,78,37459,1,0,0:0:0:0:
282,109,37540,1,0,0:0:0:0:
269,138,37621,1,0,0:0:0:0:
241,154,37702,1,0,0:0:0:0:
106,194,38270,5,0,0:0:0:0:
256,193,38594,1,0,0:0:0:0:
407,195,38918,1,0,0:0:0:0:
312,53,39243,2,0,P|193:142|172:146,1,161.999995056153
50,64,39648,5,0,0:0:0:0:
288,273,39810,1,0,0:0:0:0:
38,154,39973,2,0,P|81:12|96:-3,1,161.999995056153
226,281,40378,5,0,0:0:0:0:
102,80,40540,1,0,0:0:0:0:
392,150,40702,2,0,P|481:269|485:290,1,161.999995056153
85,240,41108,5,0,0:0:0:0:
364,219,41270,2,0,P|453:100|457:79,1,161.999995056153
86,70,41675,5,0,0:0:0:0:
321,309,41837,1,0,0:0:0:0:
41,202,42000,5,0,0:0:0:0:
318,36,42162,1,0,0:0:0:0:
182,333,42324,5,0,0:0:0:0:
110,54,42486,1,0,0:0:0:0:
373,220,42648,2,0,P|462:339|466:360,1,161.999995056153
156,297,43054,5,0,0:0:0:0:
284,65,43216,2,0,P|370:28|435:16,1,107.999996704102
379,331,43540,5,0,0:0:0:0:
225,53,43702,1,0,0:0:0:0:
238,341,43864,5,0,0:0:0:0:
370,48,44027,1,0,0:0:0:0:
447,286,44189,5,0,0:0:0:0:
149,141,44351,1,0,0:0:0:0:
430,123,44513,5,0,0:0:0:0:
235,332,44675,1,0,0:0:0:0:
125,175,44837,5,0,0:0:0:0:
116,160,44918,2,0,P|179:64|191:57,1,107.999996704102
174,246,45162,2,0,P|111:342|99:349,1,107.999996704102
35,137,45486,5,0,0:0:0:0:
263,328,45648,1,0,0:0:0:0:
63,200,45810,5,0,0:0:0:0:
370,65,45973,1,0,0:0:0:0:
213,332,46135,5,0,0:0:0:0:
135,30,46297,1,0,0:0:0:0:
394,236,46459,2,0,P|466:327|469:336,1,107.999996704102
97,222,46783,5,0,0:0:0:0:
352,83,46946,2,0,P|467:68|476:70,1,107.999996704102
239,335,47270,5,0,0:0:0:0:
102,128,47432,1,0,0:0:0:0:
393,57,47594,5,0,0:0:0:0:
237,265,47756,1,0,0:0:0:0:
49,126,47918,5,0,0:0:0:0:
384,232,48081,2,0,P|466:285|495:358,1,161.999995056153
164,127,48648,6,0,P|68:12|63:9,1,107.999996704102
175,341,48973,1,0,0:0:0:0:
196,134,49135,1,0,0:0:0:0:
223,95,49216,1,0,0:0:0:0:
252,56,49297,2,0,P|380:23|390:23,1,107.999996704102
473,244,49621,5,0,0:0:0:0:
204,185,49783,2,0,P|90:161|76:163,1,107.999996704102
406,322,50108,5,0,0:0:0:0:
264,100,50270,2,0,P|162:41|149:39,1,107.999996704102
291,336,50594,5,0,0:0:0:0:
386,60,50756,1,0,0:0:0:0:
172,239,50918,2,0,P|58:263|44:261,1,107.999996704102
271,99,51243,2,0,P|385:75|399:77,1,107.999996704102
315,327,51567,5,0,0:0:0:0:
153,114,51729,2,0,P|39:90|25:92,1,107.999996704102
203,346,52054,5,0,0:0:0:0:
277,26,52216,1,0,0:0:0:0:
110,248,52378,5,0,0:0:0:0:
436,71,52540,1,0,0:0:0:0:
99,54,52702,5,0,0:0:0:0:
299,314,52864,1,0,0:0:0:0:
412,101,53027,5,0,0:0:0:0:
94,260,53189,1,0,0:0:0:0:
397,212,53351,5,0,0:0:0:0:
164,47,53513,2,0,P|50:23|36:25,1,107.999996704102
172,300,53837,5,0,0:0:0:0:
328,85,54000,2,0,P|442:61|456:63,1,107.999996704102
337,326,54324,5,0,0:0:0:0:
220,56,54486,2,0,P|106:32|92:34,1,107.999996704102
180,317,54810,5,0,0:0:0:0:
436,104,54973,1,0,0:0:0:0:
56,186,55135,5,0,0:0:0:0:
448,280,55297,1,0,0:0:0:0:
160,32,55459,5,0,0:0:0:0:
147,352,55621,1,0,0:0:0:0:
408,56,55783,5,0,0:0:0:0:
139,265,55946,1,0,0:0:0:0:
415,358,56108,5,0,0:0:0:0:
293,44,56270,1,0,0:0:0:0:
250,360,56432,5,0,0:0:0:0:
377,113,56594,2,0,P|465:46|474:42,1,107.999996704102
374,350,56918,5,0,0:0:0:0:
255,130,57081,2,0,P|226:19|226:11,1,107.999996704102
447,263,57405,5,0,0:0:0:0:
94,253,57567,1,0,0:0:0:0:
347,18,57729,5,0,0:0:0:0:
208,296,57891,1,0,0:0:0:0:
47,166,58054,5,0,0:0:0:0:
416,45,58216,1,0,0:0:0:0:
141,330,58378,1,0,0:0:0:0:
97,62,58540,5,0,0:0:0:0:
172,306,58702,2,0,P|261:395|269:399,1,107.999996704102
449,306,59027,5,0,0:0:0:0:
234,43,59189,1,0,0:0:0:0:
38,316,59351,5,0,0:0:0:0:
367,73,59513,1,0,0:0:0:0:
40,101,59675,5,0,0:0:0:0:
269,358,59837,1,0,0:0:0:0:
401,29,60000,5,0,0:0:0:0:
70,244,60162,1,0,0:0:0:0:
428,335,60324,5,0,0:0:0:0:
302,33,60486,1,0,0:0:0:0:
223,372,60648,5,0,0:0:0:0:
415,89,60810,1,0,0:0:0:0:
68,145,60973,5,0,0:0:0:0:
438,293,61135,1,0,0:0:0:0:
197,26,61297,5,0,0:0:0:0:
152,373,61459,1,0,0:0:0:0:
298,31,61621,5,0,0:0:0:0:
246,280,61783,2,0,P|181:376|174:381,1,121.500000463486
144,217,62027,2,0,P|209:121|216:116,1,121.500000463486
412,32,62351,5,0,0:0:0:0:
278,354,62513,1,0,0:0:0:0:
29,144,62675,5,0,0:0:0:0:
342,225,62837,1,0,0:0:0:0:
87,338,63000,5,0,0:0:0:0:
356,125,63162,1,0,0:0:0:0:
121,149,63324,2,0,P|33:58|28:45,1,121.500000463486
227,127,63567,2,0,P|315:218|320:231,1,121.500000463486
270,357,63891,5,0,0:0:0:0:
316,130,64054,2,0,P|415:42|427:39,1,121.500000463486
362,346,64378,5,0,0:0:0:0:
212,139,64540,1,0,0:0:0:0:
446,251,64702,5,0,0:0:0:0:
133,246,64864,1,0,0:0:0:0:
451,33,65027,5,0,0:0:0:0:
231,360,65189,1,0,0:0:0:0:
63,40,65351,5,0,0:0:0:0:
401,149,65513,1,0,0:0:0:0:
123,360,65675,5,0,0:0:0:0:
159,47,65837,1,0,0:0:0:0:
365,297,66000,5,0,0:0:0:0:
77,125,66162,1,0,0:0:0:0:
405,30,66324,5,0,0:0:0:0:
185,277,66486,2,0,P|114:383|111:393,1,121.500000463486
291,280,66729,2,0,P|362:174|365:164,1,121.500000463486
339,42,67054,5,0,0:0:0:0:
346,265,67216,2,0,P|423:372|433:378,1,121.500000463486
149,78,67540,5,0,0:0:0:0:
375,188,67702,2,0,P|505:217|514:217,1,121.500000463486
160,292,68027,5,0,0:0:0:0:
313,48,68189,1,0,0:0:0:0:
377,345,68351,5,0,0:0:0:0:
92,45,68513,1,0,0:0:0:0:
435,184,68675,5,0,0:0:0:0:
152,298,68837,2,0,P|38:331|25:331,1,121.500000463486
57,116,69162,5,0,0:0:0:0:
311,202,69324,2,0,P|447:204|459:200,1,121.500000463486
69,342,69648,5,0,0:0:0:0:
188,110,69810,1,0,0:0:0:0:
228,72,69891,1,0,0:0:0:0:
277,45,69973,1,0,0:0:0:0:
332,37,70054,1,0,0:0:0:0:
388,35,70135,1,0,0:0:0:0:
341,315,70297,5,0,0:0:0:0:
235,120,70459,2,0,P|138:55|122:53,1,121.500000463486
403,223,70864,5,0,0:0:0:0:
200,262,71027,2,0,P|74:303|60:312,1,135
105,113,71432,5,0,0:0:0:0:
283,258,71594,2,0,P|366:355|372:368,1,135
358,79,72000,5,0,0:0:0:0:
159,316,72162,1,0,0:0:0:0:
98,96,72324,2,0,P|128:6|133:0,1,90
331,224,72648,5,0,0:0:0:0:
122,284,72810,2,0,P|50:349|45:366,1,90
88,138,73135,5,0,0:0:0:0:
312,286,73297,1,0,0:0:0:0:
204,83,73459,2,0,P|92:22|81:22,1,135
154,297,73864,5,0,0:0:0:0:
309,146,74027,2,0,P|423:99|431:98,1,90
335,313,74351,1,0,0:0:0:0:
191,170,74513,2,0,P|95:104|74:98,1,135
222,325,74918,1,0,0:0:0:0:
308,122,75081,2,0,P|400:28|409:25,1,135
350,197,75405,2,0,P|258:291|249:294,1,135
64,205,75810,5,0,0:0:0:0:
284,105,75973,1,0,0:0:0:0:
333,83,76054,1,0,0:0:0:0:
384,59,76135,1,0,0:0:0:0:
435,36,76216,1,0,0:0:0:0:
507,229,76378,5,0,0:0:0:0:
347,303,76540,2,0,P|250:291|243:286,1,90
238,268,76783,1,0,0:0:0:0:
161,64,76946,2,0,P|241:132|251:153,1,90
102,126,77189,2,0,P|22:58|12:37,1,90
120,46,77432,2,0,B|314:100|177:102|370:171,1,283.499991348267
288,259,78324,6,0,P|236:346|225:354,1,108
199,344,78648,1,0,0:0:0:0:
199,344,78810,1,0,0:0:0:0:
223,203,79135,6,0,P|275:290|286:298,1,108
311,146,79540,2,0,P|290:96|253:57,1,108
219,44,79865,1,0,0:0:0:0:
219,44,80027,1,0,0:0:0:0:
328,177,80756,6,0,P|366:83|366:69,1,108
230,141,81161,2,0,P|203:187|195:240,1,108
204,276,81486,1,0,0:0:0:0:
204,276,81648,1,0,0:0:0:0:
115,150,81891,6,0,P|28:98|20:87,1,108
172,62,82296,2,0,P|221:82|260:119,1,108
274,154,82621,1,0,0:0:0:0:
274,154,82783,1,0,0:0:0:0:
132,238,82946,1,0,0:0:0:0:
132,238,83108,1,0,0:0:0:0:
166,114,83270,2,0,P|242:42|246:40,1,108
227,162,83594,2,0,P|134:251|124:256,1,108
122,226,83918,1,0,0:0:0:0:
122,226,84081,1,0,0:0:0:0:
369,222,84486,2,0,P|276:120|264:114,1,144
298,240,84891,2,0,P|410:365|413:366,1,144
433,331,85297,1,0,0:0:0:0:
465,288,85378,1,0,0:0:0:0:
479,236,85459,1,0,0:0:0:0:
403,85,85621,1,0,0:0:0:0:
374,131,85702,1,0,0:0:0:0:
353,182,85783,1,0,0:0:0:0:
165,89,85946,5,0,0:0:0:0:
263,269,86108,2,0,P|326:320|332:321,1,72
239,48,86432,1,0,0:0:0:0:
183,255,86594,2,0,P|134:313|117:322,1,72
133,173,86837,2,0,B|201:81|190:128|255:41,1,180
