osu file format v14

[General]
AudioFilename: audio.mp3
AudioLeadIn: 0
PreviewTime: 53023
Countdown: 0
SampleSet: Soft
StackLeniency: 0.7
Mode: 0
LetterboxInBreaks: 0
WidescreenStoryboard: 0

[Editor]
Bookmarks: 64730,91163
DistanceSpacing: 1.2
BeatDivisor: 4
GridSize: 32
TimelineZoom: 2.000001

[Metadata]
Title:...Sugu Kite ne (Short Ver.)
TitleUnicode:…すぐ来てね (Short Ver.)
Artist:Miyuna
ArtistUnicode:美優那
Creator:Kuse
Version:Muz's Hard
Source:金色ラブリッチェ -Golden Time-
Tags:galgame eroge 川田まみ 中沢伴行 ed ending sagaplanets visual novel video game japanese female vocals Mami Kawada Nakazawa Kin-iro Loveriche Mimari DreaM117er m1223961117 Shazumiii Never_Log_Off muziyami lp_blue KuBsNia_ZhoYL_
BeatmapID:2294936
BeatmapSetID:1094292

[Difficulty]
HPDrainRate:5
CircleSize:3
OverallDifficulty:6
ApproachRate:7.5
SliderMultiplier:1.4
SliderTickRate:1

[Events]
//Background and Video events
0,0,"bg1.jpg",0,0
//Break Periods
//Storyboard Layer 0 (Background)
//Storyboard Layer 1 (Fail)
//Storyboard Layer 2 (Pass)
//Storyboard Layer 3 (Foreground)
//Storyboard Layer 4 (Overlay)
//Storyboard Sound Samples

[TimingPoints]
2202,365.853658536585,4,2,2,50,1,0
2202,-125,4,2,2,50,0,0
8055,-100,4,2,2,60,0,0
12446,-100,4,2,2,60,0,0
15007,-100,4,2,2,20,0,0
15372,-125,4,2,2,50,0,0
26715,-125,4,2,2,40,0,0
27080,-100,4,2,2,60,0,0
38787,-125,4,2,2,60,0,0
38878,-125,4,2,2,40,0,0
44276,-125,4,2,2,30,0,0
44642,-125,4,2,2,40,0,0
53421,-100,4,2,2,65,0,1
76836,-125,4,2,2,65,0,0
76928,-125,4,2,2,50,0,0
82689,-100,4,2,2,57,0,0
84335,-100,4,2,2,50,0,0
84519,-100,4,2,2,57,0,0
87262,-100,4,2,2,50,0,0
87445,-100,4,2,2,57,0,0
90188,-100,4,2,2,50,0,0
90372,-100,4,2,2,57,0,0
93207,-100,4,2,2,50,0,0
93481,-100,4,2,2,57,0,0
94305,-100,4,2,2,50,0,0
94398,-125,4,2,2,40,0,0
100251,-125,4,2,2,40,0,0

[Colours]
Combo1 : 255,113,113
Combo2 : 92,145,252
Combo3 : 175,249,85
Combo4 : 255,191,191

[HitObjects]
102,174,2202,6,0,L|117:49,1,112,14|8,0:1|0:1,0:0:0:0:
209,67,2750,1,0,0:1:0:0:
209,67,2933,2,0,L|195:178,1,112,8|8,0:1|0:1,0:0:0:0:
354,264,3665,2,0,L|360:209,1,56,8|0,0:1|0:0,0:0:0:0:
375,63,4031,2,0,L|369:118,1,56,8|0,0:1|0:0,0:0:0:0:
444,177,4397,1,8,0:1:0:0:
444,177,4580,2,0,L|450:117,1,56,0|10,0:1|0:1,0:0:0:0:
432,342,5128,6,0,L|303:352,1,112,10|8,0:1|0:1,0:0:0:0:
234,358,5677,1,2,0:1:0:0:
234,358,5860,2,0,L|250:235,1,112,8|8,0:1|0:1,0:0:0:0:
84,312,6592,2,0,L|81:242,1,56,10|0,0:1|0:0,0:0:0:0:
164,221,6958,1,10,0:1:0:0:
95,163,7141,1,2,0:1:0:0:
10,191,7323,2,0,L|7:121,1,56,10|2,0:1|0:1,0:0:0:0:
164,221,7689,2,0,L|166:276,1,56,14|2,0:1|0:1,0:0:0:0:
291,313,8055,6,0,P|357:291|424:310,1,140,6|8,1:2|0:0,0:0:0:0:
503,283,8604,1,0,0:0:0:0:
442,226,8787,2,0,P|420:153|434:74,1,140,0|8,0:0|0:0,0:0:0:0:
273,23,9519,2,0,L|203:16,1,70,0|0,1:0|0:0,0:0:0:0:
62,55,9884,2,0,L|132:62,1,70,8|0,0:0|0:0,0:0:0:0:
211,105,10250,1,0,0:0:0:0:
211,105,10433,2,0,L|289:112,1,70,0|10,1:0|0:0,0:0:0:0:
142,218,10982,6,0,B|127:286|127:286|143:361,1,140,2|8,1:2|0:0,0:0:0:0:
226,362,11531,2,0,B|294:347|294:347|369:363,1,140,2|0,0:0|1:0,0:0:0:0:
432,312,12080,1,8,0:0:0:0:
408,232,12262,1,0,0:0:0:0:
461,167,12445,6,0,L|470:85,1,70,6|0,1:2|0:0,0:0:0:0:
375,16,12811,2,0,L|384:86,1,70,8|6,0:0|1:2,0:0:0:0:
256,192,13360,2,0,L|247:263,2,70,0|8|0,1:2|0:0|0:0,0:0:0:0:
256,192,13909,12,0,15006,0:0:0:0:
214,197,15372,6,0,L|148:189,2,56,4|0|0,1:2|0:0|0:0,0:0:0:0:
189,105,15921,2,0,L|134:99,2,56,0|2|0,1:0|0:2|0:0,0:0:0:0:
349,202,16653,1,0,0:0:0:0:
349,202,16836,6,0,L|344:147,1,56,0|0,1:0|0:0,0:0:0:0:
380,120,17110,1,0,0:0:0:0:
393,77,17201,2,0,L|387:21,1,56,0|0,0:0|1:0,0:0:0:0:
305,66,17567,2,0,L|237:45,1,56
188,113,17933,2,0,L|134:129,1,56
216,198,18299,6,0,L|212:269,2,56,0|0|0,1:0|0:0|0:0,0:0:0:0:
298,282,18848,2,0,L|301:226,2,56,0|2|0,1:0|0:2|0:0,0:0:0:0:
487,190,19580,1,0,0:0:0:0:
487,190,19762,6,0,B|498:258|498:258|489:300,1,112,0|0,1:0|0:0,0:0:0:0:
432,370,20311,2,0,B|389:378|389:378|321:367,1,112,0|0,1:0|0:0,0:0:0:0:
234,343,20860,1,0,0:0:0:0:
136,190,21226,1,0,1:0:0:0:
60,352,21592,6,0,L|60:277,1,56,0|0,0:0|1:0,0:0:0:0:
124,232,21958,1,2,0:0:0:0:
124,232,22141,2,0,L|124:176,1,56
71,103,22506,2,0,L|71:47,1,56,0|0,0:0|1:0,0:0:0:0:
233,33,23055,2,0,L|233:89,1,56,0|0,0:0|1:0,0:0:0:0:
277,167,23421,6,0,L|409:161,1,112
461,214,23970,1,0,0:0:0:0:
398,278,24153,2,0,P|349:251|291:254,1,112,0|0,1:0|0:0,0:0:0:0:
225,311,24701,2,0,P|274:338|332:335,1,112,0|0,1:0|0:0,0:0:0:0:
413,365,25250,1,0,0:0:0:0:
482,309,25433,2,0,L|487:250,1,56,0|0,0:0|1:0,0:0:0:0:
420,192,25799,6,0,L|419:136,2,56,2|2|2,0:0|0:0|1:1,0:0:0:0:
506,118,26348,1,10,0:1:0:0:
417,50,26531,1,2,0:0:0:0:
332,123,26714,2,0,L|283:126,3,28,6|0|0|0,1:2|0:0|0:0|0:0,0:0:0:0:
270,150,27080,6,0,L|129:157,1,140,4|8,1:2|0:0,0:0:0:0:
47,166,27628,1,0,0:0:0:0:
47,166,27720,1,0,0:0:0:0:
47,166,27811,2,0,L|39:255,1,70,2|0,0:0|1:0,0:0:0:0:
106,348,28177,2,0,L|113:279,1,70,8|0,0:0|0:0,0:0:0:0:
174,217,28543,6,0,B|250:198|234:232|313:213,1,140,0|8,1:0|0:0,0:0:0:0:
403,208,29092,1,0,0:0:0:0:
403,208,29183,1,0,0:0:0:0:
402,207,29275,2,0,P|397:242|379:272,1,70,2|0,0:0|1:0,0:0:0:0:
300,300,29641,2,0,P|281:329|279:366,1,70,8|0,0:0|0:0,0:0:0:0:
362,357,30006,6,0,B|441:342|441:342|468:289,1,140,0|8,1:0|0:0,0:0:0:0:
503,215,30555,1,0,0:0:0:0:
499,211,30647,1,0,0:0:0:0:
495,207,30738,1,2,0:0:0:0:
440,142,30921,1,0,1:0:0:0:
464,61,31104,2,0,B|428:58|428:58|395:68,1,70,8|0,0:0|0:0,0:0:0:0:
350,142,31470,6,0,B|283:159|283:159|205:144,1,140,0|8,1:0|0:0,0:0:0:0:
132,171,32019,1,0,0:0:0:0:
169,339,32384,1,0,1:0:0:0:
169,339,32567,2,0,L|96:349,2,70,8|0|0,0:0|0:0|1:0,0:0:0:0:
337,351,33299,6,0,L|425:363,1,70,8|0,0:0|0:0,0:0:0:0:
498,288,33665,2,0,L|429:279,1,70,2|0,0:0|1:0,0:0:0:0:
427,194,34031,1,8,0:0:0:0:
427,194,34214,2,0,L|496:203,2,70,0|0|0,0:0|1:0|0:0,0:0:0:0:
394,116,34762,2,0,L|324:125,1,70,8|0,0:0|0:0,0:0:0:0:
240,135,35128,6,0,B|234:64,1,70,2|0,0:0|1:0,0:0:0:0:
149,70,35494,1,8,0:0:0:0:
162,154,35677,2,0,P|113:126|33:153,1,140
99,223,36226,1,8,0:0:0:0:
99,223,36409,2,0,P|147:250|228:219,1,140,0|0,0:0|1:0,0:0:0:0:
302,189,36958,5,8,0:0:0:0:
302,189,37141,1,4,1:2:0:0:
360,249,37323,2,0,B|381:214|381:214|391:106,1,140,0|8,0:0|0:0,0:0:0:0:
361,35,37872,1,4,0:2:0:0:
279,54,38055,1,8,0:1:0:0:
196,40,38238,1,0,1:0:0:0:
119,74,38421,2,0,L|123:132,3,35,12|0|0|0,0:0|0:0|0:0|0:0,0:0:0:0:
149,141,38787,6,0,P|199:130|268:146,1,112,4|0,1:2|0:0,0:0:0:0:
359,188,39519,2,0,L|343:256,1,56,8|0,0:1|0:0,0:0:0:0:
298,272,39884,2,0,L|310:344,1,56
357,353,40250,2,0,B|401:339|453:355,2,84,0|0|0,1:0|1:0|1:0,0:0:0:0:
304,372,40982,1,8,0:1:0:0:
346,242,41348,1,0,0:0:0:0:
435,174,41714,6,0,L|447:113,1,56,0|0,1:0|0:0,0:0:0:0:
437,63,42080,2,0,B|369:71|392:46|322:57,1,112,0|8,0:0|0:1,0:0:0:0:
240,128,42811,1,0,0:0:0:0:
222,17,43177,2,0,B|167:27|167:27|101:10,1,112,0|0,1:0|0:0,0:0:0:0:
63,34,43726,1,0,1:0:0:0:
63,34,43909,2,0,B|49:88|49:88|59:143,1,112,8|0,0:1|0:0,0:0:0:0:
167,113,44641,6,0,P|168:171|125:235,1,112,0|0,1:0|0:0,0:0:0:0:
82,312,45372,2,0,L|154:318,1,56,8|0,0:1|0:0,0:0:0:0:
188,292,45738,2,0,L|260:298,1,56
288,330,46104,2,0,P|345:348|386:343,2,84,0|0|0,1:0|1:0|1:0,0:0:0:0:
295,274,46836,1,8,0:1:0:0:
365,187,47201,1,0,0:0:0:0:
477,187,47567,6,0,L|500:78,1,112,0|0,1:0|0:0,0:0:0:0:
460,37,48116,2,0,L|338:35,1,112
299,136,48848,2,0,P|243:187|260:70,1,280,0|8,0:0|0:1,0:0:0:0:
114,36,50494,5,8,0:0:0:0:
114,36,50586,2,0,L|109:108,1,56,8|8,0:0|0:0,0:0:0:0:
143,121,50860,2,0,L|137:195,1,56,8|8,0:0|0:3,0:0:0:0:
78,244,51226,2,0,L|46:248,2,28,8|0|8,0:0|0:0|0:3,0:0:0:0:
118,324,51592,2,0,L|186:314,1,56,8|8,0:0|0:0,0:0:0:0:
257,347,51958,6,0,L|257:273,1,56,2|0,0:0|0:0,0:0:0:0:
346,291,52323,2,0,L|346:346,1,56
304,159,53055,2,0,L|308:103,1,56
311,18,53421,6,0,B|234:24|262:59|181:64,1,140,4|8,1:2|0:0,0:0:0:0:
105,25,53970,1,0,0:0:0:0:
105,25,54061,1,0,0:0:0:0:
105,25,54153,2,0,P|94:60|101:96,1,70,2|0,0:0|1:2,0:0:0:0:
87,174,54519,1,8,0:0:0:0:
146,279,54701,6,0,P|170:214|167:145,1,140,0|0,1:0|1:0,0:0:0:0:
251,144,55250,2,0,L|258:87,2,35,8|0|0,0:0|0:0|0:0,0:0:0:0:
322,203,55616,2,0,L|406:192,1,70,2|0,0:0|1:0,0:0:0:0:
406,111,55982,2,0,L|336:120,1,70,8|0,0:0|0:0,0:0:0:0:
193,228,56348,6,0,L|185:311,1,70,0|0,1:0|0:0,0:0:0:0:
251,351,56714,2,0,L|356:341,1,105,8|0,0:0|0:0,0:0:0:0:
397,335,57080,2,0,P|410:286|407:259,1,70,2|0,0:0|1:0,0:0:0:0:
370,193,57445,1,8,0:0:0:0:
322,263,57628,6,0,B|245:221|245:221|188:229,1,140,4|0,1:2|1:0,0:0:0:0:
40,224,58177,2,0,L|109:239,1,70,8|0,0:0|0:0,0:0:0:0:
140,163,58543,1,2,0:0:0:0:
140,163,58726,1,0,1:0:0:0:
78,105,58909,1,12,0:0:0:0:
106,26,59092,1,0,0:0:0:0:
189,17,59275,6,0,B|240:16|240:16|267:41|267:41|319:39,1,140,4|8,1:2|0:0,0:0:0:0:
405,78,59823,1,0,0:0:0:0:
405,78,59915,1,0,0:0:0:0:
405,78,60006,2,0,P|397:117|406:148,1,70,2|0,0:0|1:0,0:0:0:0:
444,220,60372,1,8,0:0:0:0:
476,297,60555,6,0,B|402:315|416:273|338:292,1,140,0|0,1:0|1:0,0:0:0:0:
258,318,61104,2,0,P|272:232|229:183,1,140,8|2,0:0|0:0,0:0:0:0:
170,163,61653,1,0,1:0:0:0:
170,163,61836,2,0,P|171:128|188:84,1,70,8|0,0:0|0:0,0:0:0:0:
325,154,62201,6,0,B|393:172|393:172|460:154,1,140,0|8,1:0|0:0,0:0:0:0:
473,70,62750,1,0,0:0:0:0:
469,66,62842,1,0,0:0:0:0:
465,62,62933,1,2,0:0:0:0:
380,59,63116,2,0,L|294:73,1,70,0|8,1:0|0:0,0:0:0:0:
132,64,63482,6,0,L|202:72,1,70,4|0,1:0|0:0,0:0:0:0:
170,150,63848,1,0,1:0:0:0:
81,144,64031,2,0,L|81:180,2,35,8|0|0,0:0|0:0|0:0,0:0:0:0:
147,235,64397,2,0,L|240:226,1,70,6|0,0:2|1:0,0:0:0:0:
330,149,64762,2,0,L|237:140,1,70,8|0,0:0|0:0,0:0:0:0:
154,50,65128,6,0,B|202:40|202:40|233:53|233:53|288:42,1,140,4|8,1:0|0:0,0:0:0:0:
380,36,65677,1,0,0:0:0:0:
380,36,65769,1,0,0:0:0:0:
380,36,65860,2,0,P|390:82|380:116,1,70,2|0,0:0|1:0,0:0:0:0:
372,187,66226,1,8,0:0:0:0:
447,286,66409,6,0,P|471:222|450:157,1,140,0|0,1:0|1:0,0:0:0:0:
372,187,66958,2,0,L|337:182,2,35,8|0|0,0:0|0:0|0:0,0:0:0:0:
257,209,67323,2,0,L|254:116,1,70,2|0,0:0|1:0,0:0:0:0:
317,84,67689,2,0,L|314:14,1,70,8|0,0:0|0:0,0:0:0:0:
162,58,68055,6,0,L|70:55,1,70,4|0,1:2|0:0,0:0:0:0:
10,68,68421,2,0,L|20:189,1,105,8|0,0:0|0:0,0:0:0:0:
41,207,68787,2,0,L|46:276,1,70,2|0,0:0|1:0,0:0:0:0:
130,285,69153,1,8,0:0:0:0:
308,253,69336,6,0,P|251:215|182:210,1,140,4|0,1:2|1:0,0:0:0:0:
211,339,69884,2,0,P|249:341|292:325,1,70,8|0,0:0|0:0,0:0:0:0:
430,313,70250,2,0,P|395:309|362:319,1,70,2|0,0:0|1:0,0:0:0:0:
308,253,70616,2,0,P|304:218|313:184,1,70,12|0,0:2|0:0,0:0:0:0:
475,106,70982,6,0,B|429:87|429:87|341:103,1,140,4|8,1:2|0:0,0:0:0:0:
260,75,71531,1,0,0:0:0:0:
260,75,71622,1,0,0:0:0:0:
260,75,71714,2,0,B|225:76|225:76|194:59,1,70,2|0,0:0|1:0,0:0:0:0:
119,19,72080,1,8,0:0:0:0:
30,142,72262,5,0,1:0:0:0:
109,172,72445,2,0,L|120:103,1,70,0|0,0:0|1:0,0:0:0:0:
150,249,72811,1,8,0:0:0:0:
41,228,72994,2,0,L|51:297,1,70,0|2,0:0|0:0,0:0:0:0:
192,324,73360,1,0,1:0:0:0:
270,354,73543,1,8,0:0:0:0:
348,324,73726,1,0,0:0:0:0:
425,358,73909,6,0,L|440:213,1,140,4|8,1:2|0:0,0:0:0:0:
443,134,74458,1,0,0:0:0:0:
439,130,74549,1,0,0:0:0:0:
435,126,74641,1,2,0:0:0:0:
367,174,74823,2,0,L|297:177,1,70,0|8,1:0|0:0,0:0:0:0:
202,98,75189,6,0,L|342:91,1,140,4|0,1:2|1:0,0:0:0:0:
402,32,75738,2,0,L|456:32,2,35,8|0|0,0:0|0:0|0:0,0:0:0:0:
424,113,76104,2,0,L|459:113,2,35,2|0|0,1:2|0:0|0:0,0:0:0:0:
452,192,76470,2,0,L|446:279,1,70,8|0,0:0|0:0,0:0:0:0:
360,290,76836,6,0,L|369:153,2,112,4|0|8,1:2|1:0|0:0,0:0:0:0:
286,138,78116,2,0,L|278:249,1,112,0|0,1:0|1:0,0:0:0:0:
273,305,78665,2,0,L|161:297,1,112,0|8,1:0|0:0,0:0:0:0:
19,241,79762,6,0,L|9:318,1,56,0|0,1:0|1:0,0:0:0:0:
124,300,80311,2,0,B|131:244|131:244|109:182,2,112,0|0|0,1:0|1:0|1:0,0:0:0:0:
240,310,81409,5,0,1:0:0:0:
240,310,81592,1,0,1:0:0:0:
377,213,82141,2,0,L|374:148,1,56,0|8,1:0|0:0,0:0:0:0:
255,70,82689,6,0,L|102:51,1,140,6|8,1:2|0:0,0:0:0:0:
57,111,83238,1,0,0:0:0:0:
57,111,83330,1,0,0:0:0:0:
57,111,83421,2,0,L|66:200,1,70,0|0,0:0|1:0,0:0:0:0:
141,139,83787,2,0,L|230:149,1,70,8|0,0:0|0:0,0:0:0:0:
295,154,84153,6,0,L|292:59,1,70,0|0,1:0|0:0,0:0:0:0:
381,162,84519,2,0,L|379:93,1,70,8|0,0:0|0:0,0:0:0:0:
457,273,85067,1,0,1:0:0:0:
457,273,85250,2,0,L|454:203,1,70,10|0,0:0|0:0,0:0:0:0:
403,341,85616,6,0,B|366:364|366:364|253:371,1,140,6|8,1:2|0:0,0:0:0:0:
186,379,86165,1,2,0:0:0:0:
186,379,86256,1,0,0:0:0:0:
186,379,86348,2,0,L|101:384,1,70,0|0,0:0|1:0,0:0:0:0:
49,330,86714,2,0,L|54:244,1,70,8|0,0:0|0:0,0:0:0:0:
148,177,87080,6,0,L|79:180,1,70,0|0,1:0|0:0,0:0:0:0:
69,97,87445,2,0,L|138:94,1,70,10|2,0:0|0:0,0:0:0:0:
183,22,87811,1,2,0:0:0:0:
271,24,87994,1,2,1:0:0:0:
271,24,88177,2,0,L|341:22,1,70,14|2,0:0|0:0,0:0:0:0:
368,101,88543,6,0,B|369:174|369:174|342:234,1,140,6|8,1:2|0:0,0:0:0:0:
276,286,89092,1,0,0:0:0:0:
276,286,89183,1,0,0:0:0:0:
276,286,89275,2,0,L|268:369,1,70,2|0,0:0|1:0,0:0:0:0:
187,311,89641,2,0,L|180:222,1,70,8|0,0:0|0:0,0:0:0:0:
180,157,90006,6,0,L|252:163,1,70,0|0,1:0|0:0,0:0:0:0:
195,73,90372,2,0,L|265:79,1,70,8|0,0:0|0:0,0:0:0:0:
42,97,90921,1,0,1:0:0:0:
42,97,91104,2,0,L|112:103,1,70,10|0,0:0|0:0,0:0:0:0:
102,185,91470,6,0,B|122:276|122:276|159:331,1,140,6|8,1:2|0:0,0:0:0:0:
235,354,92019,1,2,0:0:0:0:
235,354,92110,1,0,0:0:0:0:
235,354,92201,2,0,L|315:346,1,70,0|0,0:0|1:0,0:0:0:0:
453,384,92567,2,0,L|384:378,1,70,8|0,0:0|0:0,0:0:0:0:
376,293,92933,6,0,L|496:304,2,105,2|0|2,1:0|0:0|1:0,0:0:0:0:
370,124,93848,2,0,L|272:114,1,70,0|8,1:0|0:0,0:0:0:0:
256,192,94214,1,8,0:0:0:0:
256,192,94305,1,0,0:0:0:0:
256,192,94397,5,10,0:1:0:0:
434,192,94762,1,8,0:1:0:0:
461,14,95128,2,0,L|349:14,1,112,8|8,0:1|0:1,0:0:0:0:
169,14,95860,2,0,L|57:14,1,112,8|8,0:1|0:1,0:0:0:0:
10,187,96592,1,8,0:1:0:0:
45,362,96958,5,10,0:1:0:0:
217,313,97323,2,0,L|207:193,1,112,10|8,0:1|0:1,0:0:0:0:
153,137,97872,1,2,0:0:0:0:
153,137,98055,2,0,B|205:118|205:118|259:133,1,112,8|8,0:1|0:1,0:0:0:0:
408,233,98787,1,8,0:1:0:0:
379,57,99153,6,0,L|442:70,1,56,10|2,0:1|0:0,0:0:0:0:
454,155,99519,2,0,L|399:143,1,56,10|2,0:1|0:0,0:0:0:0:
317,127,99884,1,10,0:1:0:0:
317,127,100067,1,10,0:1:0:0:
255,192,100250,5,2,0:0:0:0:
255,192,102811,5,2,0:0:0:0:
409,302,103177,2,0,B|419:192|419:192|390:130,1,168,2|2,0:0|0:0,0:0:0:0:
103,302,104641,2,0,B|93:192|93:192|122:130,1,168,2|2,0:0|0:0,0:0:0:0:
256,192,105921,6,0,L|256:224,2,28,0|0|2,0:0|0:0|0:0,0:0:0:0:
