osu file format v14

[General]
AudioFilename: audio.mp3
AudioLeadIn: 0
PreviewTime: 53023
Countdown: 0
SampleSet: Soft
StackLeniency: 0.4
Mode: 0
LetterboxInBreaks: 0
WidescreenStoryboard: 0

[Editor]
DistanceSpacing: 1.3
BeatDivisor: 4
GridSize: 4
TimelineZoom: 1.600001

[Metadata]
Title:...Sugu Kite ne (Short Ver.)
TitleUnicode:…すぐ来てね (Short Ver.)
Artist:Miyuna
ArtistUnicode:美優那
Creator:Kuse
Version:Insane
Source:金色ラブリッチェ -Golden Time-
Tags:galgame eroge 川田まみ 中沢伴行 ed ending sagaplanets visual novel video game japanese female vocals Mami Kawada Nakazawa Kin-iro Loveriche Mimari DreaM117er m1223961117 Shazumiii Never_Log_Off muziyami lp_blue KuBsNia_ZhoYL_
BeatmapID:2287035
BeatmapSetID:1094292

[Difficulty]
HPDrainRate:5
CircleSize:4
OverallDifficulty:7.8
ApproachRate:8.8
SliderMultiplier:1.6
SliderTickRate:1

[Events]
//Background and Video events
0,0,"bg1.jpg",0,0
//Break Periods
//Storyboard Layer 0 (Background)
//Storyboard Layer 1 (Fail)
//Storyboard Layer 2 (Pass)
//Storyboard Layer 3 (Foreground)
//Storyboard Layer 4 (Overlay)
//Storyboard Sound Samples

[TimingPoints]
2202,365.853658536585,4,2,2,50,1,0
6866,-100,4,2,2,5,0,0
6958,-100,4,2,2,50,0,0
8055,-83.3333333333333,4,2,2,60,0,0
8330,-83.3333333333333,4,2,2,5,0,0
8421,-83.3333333333333,4,2,2,60,0,0
9793,-83.3333333333333,4,2,2,5,0,0
9884,-83.3333333333333,4,2,2,60,0,0
11256,-83.3333333333333,4,2,2,5,0,0
11348,-83.3333333333333,4,2,2,60,0,0
12445,-100,4,2,2,60,0,0
15190,-100,4,2,2,20,0,0
15372,-125,4,2,2,50,0,0
18208,-125,4,2,2,5,0,0
18299,-125,4,2,2,50,0,0
22964,-125,4,2,2,10,0,0
23055,-125,4,2,2,50,0,0
24061,-125,4,2,2,5,0,0
24153,-125,4,2,2,50,0,0
24427,-125,4,2,2,5,0,0
24519,-125,4,2,2,50,0,0
25342,-125,4,2,2,5,0,0
25433,-125,4,2,2,50,0,0
26715,-125,4,2,2,40,0,0
27080,-100,4,2,2,60,0,0
29915,-100,4,2,2,5,0,0
30006,-100,4,2,2,60,0,0
32842,-100,4,2,2,5,0,0
32933,-100,4,2,2,60,0,0
35769,-100,4,2,2,5,0,0
35860,-100,4,2,2,60,0,0
38787,-125,4,2,2,60,0,0
38878,-125,4,2,2,40,0,0
44276,-166.666666666667,4,2,2,30,0,0
44641,-125,4,2,2,40,0,0
49762,-100,4,2,2,40,0,0
49810,-100,4,2,2,35,0,0
49855,-100,4,2,2,20,0,0
49900,-100,4,2,2,22,0,0
49946,-100,4,2,2,23,0,0
49992,-100,4,2,2,25,0,0
50037,-100,4,2,2,27,0,0
50083,-100,4,2,2,27,0,0
50129,-100,4,2,2,28,0,0
50174,-100,4,2,2,30,0,0
50220,-100,4,2,2,31,0,0
50266,-100,4,2,2,32,0,0
50312,-100,4,2,2,34,0,0
50357,-100,4,2,2,35,0,0
50403,-100,4,2,2,37,0,0
50449,-100,4,2,2,39,0,0
50495,-100,4,2,2,40,0,0
53421,-83.3333333333333,4,2,2,65,0,1
56622,-83.3333333333333,4,2,2,5,0,1
56714,-83.3333333333333,4,2,2,65,0,1
65037,-83.3333333333333,4,2,2,5,0,0
65128,-71.4285714285714,4,2,2,65,0,1
65403,-71.4285714285714,4,2,2,5,0,1
65494,-71.4285714285714,4,2,2,65,0,1
67964,-71.4285714285714,4,2,2,5,0,1
68055,-71.4285714285714,4,2,2,65,0,1
68330,-71.4285714285714,4,2,2,5,0,1
68421,-71.4285714285714,4,2,2,65,0,1
70982,-83.3333333333333,4,2,2,65,0,1
76836,-125,4,2,2,65,0,0
76928,-100,4,2,2,50,0,0
82690,-100,4,2,2,57,0,0
82964,-100,4,2,2,5,0,0
83055,-100,4,2,2,57,0,0
84427,-100,4,2,2,5,0,0
84519,-100,4,2,2,57,0,0
85891,-100,4,2,2,5,0,0
85982,-100,4,2,2,57,0,0
87354,-100,4,2,2,5,0,0
87445,-100,4,2,2,57,0,0
94397,-125,4,2,2,40,0,0
100250,-200,4,2,2,40,0,0

[Colours]
Combo1 : 255,113,113
Combo2 : 92,145,252
Combo3 : 175,249,85
Combo4 : 255,191,191

[HitObjects]
90,208,2201,6,0,P|103:235|146:272,1,80,14|0,0:1|0:0,0:0:0:0:
187,92,2567,2,0,P|174:65|131:28,1,80,8|0,0:1|0:1,0:0:0:0:
40,143,2933,1,8,0:1:0:0:
117,123,3116,1,0,0:1:0:0:
178,174,3299,1,8,0:1:0:0:
253,146,3482,1,0,0:1:0:0:
429,193,3665,6,0,P|456:180|493:137,1,80,8|0,0:1|0:0,0:0:0:0:
313,96,4031,2,0,P|286:109|249:152,1,80,8|0,0:1|0:0,0:0:0:0:
378,46,4397,1,8,0:1:0:0:
398,123,4580,1,0,0:1:0:0:
347,184,4762,1,10,0:1:0:0:
375,259,4945,1,0,0:1:0:0:
239,335,5128,6,0,P|296:349|333:350,1,80,10|0,0:1|0:0,0:0:0:0:
166,265,5494,2,0,P|109:251|72:250,1,80,8|2,0:1|0:1,0:0:0:0:
7,313,5860,1,8,0:1:0:0:
72,358,6043,1,0,0:0:0:0:
151,368,6226,1,8,0:1:0:0:
226,340,6409,1,0,0:0:0:0:
244,215,6592,6,0,P|289:208|360:262,1,120,10|0,0:1|0:0,0:0:0:0:
350,244,6958,1,10,0:1:0:0:
419,351,7141,1,2,0:1:0:0:
469,215,7323,1,10,0:1:0:0:
469,215,7506,1,2,0:1:0:0:
350,244,7689,1,14,0:1:0:0:
473,292,7872,1,2,0:1:0:0:
270,341,8055,6,0,P|228:264|250:207,1,143.999995605469,6|0,1:2|0:0,0:0:0:0:
307,163,8421,2,0,B|264:135|264:135|187:146,1,95.9999970703126,8|0,0:0|0:0,0:0:0:0:
194,146,8695,1,0,0:0:0:0:
194,146,8787,1,0,0:0:0:0:
117,66,8970,1,0,1:0:0:0:
224,34,9153,2,0,P|271:33|315:53,1,95.9999970703126,8|0,0:0|0:0,0:0:0:0:
325,192,9519,6,0,B|303:147|303:147|317:40,1,143.999995605469,0|0,1:0|0:0,0:0:0:0:
319,28,9884,1,8,0:0:0:0:
432,98,10067,1,0,0:0:0:0:
432,98,10159,1,0,0:0:0:0:
432,98,10250,1,0,0:0:0:0:
394,216,10433,1,0,1:0:0:0:
501,185,10616,2,0,B|449:180|449:180|405:197,1,95.9999970703126,10|0,0:0|0:0,0:0:0:0:
419,380,10982,6,0,P|467:337|447:237,1,143.999995605469,2|0,1:2|0:0,0:0:0:0:
392,300,11348,2,0,B|344:308|344:308|301:281,1,95.9999970703126,8|2,0:0|0:0,0:0:0:0:
278,275,11622,1,0,0:0:0:0:
278,274,11714,1,0,0:0:0:0:
303,161,11897,1,0,1:0:0:0:
188,159,12080,2,0,B|163:202|163:202|181:285,1,95.9999970703126,8|0,0:0|0:0,0:0:0:0:
33,337,12445,6,0,P|61:271|58:177,1,160,6|8,1:2|0:0,0:0:0:0:
91,57,12994,2,0,P|181:40|238:106,1,160,6|0,1:2|1:2,0:0:0:0:
256,191,13543,1,8,0:0:0:0:
364,169,13726,1,0,0:0:0:0:
256,192,13817,12,0,15189,0:0:0:0:
427,69,15372,6,0,B|449:164|449:164|429:222,1,128,4|0,1:2|0:0,0:0:0:0:
358,155,15921,1,0,1:0:0:0:
300,248,16104,2,0,P|348:233|409:281,1,128,2|0,0:2|0:0,0:0:0:0:
278,329,16653,1,0,0:0:0:0:
205,261,16836,2,0,L|220:182,1,64,0|0,1:0|0:0,0:0:0:0:
127,151,17201,1,0,0:0:0:0:
50,229,17384,2,0,B|25:180|25:180|42:94,1,128,0|0,1:0|0:0,0:0:0:0:
113,29,17933,2,0,L|124:131,1,96
127,151,18299,6,0,P|177:107|256:113,1,128,0|0,1:0|0:0,0:0:0:0:
303,165,18848,1,0,1:0:0:0:
371,225,19031,2,0,P|433:221|479:178,1,128,2|0,0:2|0:0,0:0:0:0:
446,103,19580,1,0,0:0:0:0:
364,101,19762,2,0,L|356:38,1,64,0|0,1:0|0:0,0:0:0:0:
304,156,20128,1,0,0:0:0:0:
253,219,20311,2,0,P|219:250|130:239,1,128,0|0,1:0|0:0,0:0:0:0:
64,163,20860,2,0,L|140:175,1,64
203,301,21226,6,0,B|141:288|141:288|83:318,1,128,0|0,1:0|0:0,0:0:0:0:
66,233,21775,1,0,1:0:0:0:
127,172,21958,1,2,0:0:0:0:
60,118,22141,2,0,L|58:46,1,64
135,86,22506,1,0,0:0:0:0:
210,121,22689,2,0,P|261:124|306:95,1,96,0|0,1:0|0:0,0:0:0:0:
331,78,23055,6,0,P|324:116|319:160,1,64,0|0,0:0|1:0,0:0:0:0:
393,214,23421,2,0,P|400:182|405:141,1,64
306,214,23787,2,0,P|292:252|306:308,1,96
330,328,24153,6,0,B|277:322|277:322|215:345,1,96,0|0,1:0|0:0,0:0:0:0:
208,353,24519,1,0,0:0:0:0:
131,320,24701,2,0,L|133:240,1,64,0|2,1:0|0:0,0:0:0:0:
13,184,25067,2,0,B|54:206|54:206|118:178,1,96
122,175,25433,2,0,P|149:146|196:139,1,64,0|0,0:0|1:0,0:0:0:0:
264,154,25799,5,2,0:0:0:0:
302,80,25982,1,2,0:0:0:0:
275,161,26165,1,2,1:1:0:0:
403,102,26348,1,10,0:1:0:0:
362,182,26531,1,2,0:0:0:0:
461,223,26714,1,6,1:2:0:0:
464,241,26805,1,0,0:0:0:0:
465,260,26897,1,0,0:0:0:0:
462,278,26988,1,0,0:0:0:0:
448,298,27080,6,0,P|397:288|294:347,1,160,4|8,1:2|0:0,0:0:0:0:
176,383,27628,1,0,0:0:0:0:
136,381,27720,1,0,0:0:0:0:
102,361,27811,1,2,0:0:0:0:
84,326,27903,1,0,0:0:0:0:
85,286,27994,1,0,1:0:0:0:
166,207,28177,2,0,B|169:165|169:165|153:115,1,80,8|0,0:0|0:0,0:0:0:0:
87,177,28543,5,0,1:0:0:0:
231,258,28726,1,0,0:0:0:0:
281,151,28909,1,8,0:0:0:0:
160,215,29092,1,0,0:0:0:0:
294,147,29275,2,0,L|348:154,1,40,2|0,0:0|0:0,0:0:0:0:
416,49,29458,2,0,L|376:43,1,40,0|0,1:0|0:0,0:0:0:0:
441,150,29641,2,0,B|423:146|407:133|407:133|407:190|420:240,1,120,8|0,0:0|0:0,0:0:0:0:
451,245,30006,6,0,B|346:249|380:302|281:291,1,160,0|8,1:0|0:0,0:0:0:0:
82,349,30555,1,0,0:0:0:0:
120,359,30647,1,0,0:0:0:0:
160,356,30738,1,2,0:0:0:0:
196,339,30830,1,0,0:0:0:0:
224,311,30921,1,0,1:0:0:0:
187,170,31104,2,0,L|178:249,1,80,8|0,0:0|0:0,0:0:0:0:
82,349,31470,6,0,B|69:307|69:307|82:190,1,160,0|8,1:0|0:0,0:0:0:0:
147,107,32019,1,0,0:0:0:0:
54,32,32201,2,0,L|105:38,1,40,2|0,0:0|0:0,0:0:0:0:
246,13,32384,2,0,L|193:7,1,40,0|0,1:0|0:0,0:0:0:0:
147,107,32567,2,0,P|188:91|250:135,1,120,8|0,0:0|0:0,0:0:0:0:
258,146,32933,6,0,P|289:185|393:171,1,160,0|8,1:0|0:0,0:0:0:0:
482,70,33482,1,0,0:0:0:0:
470,108,33573,1,0,0:0:0:0:
466,148,33665,1,2,0:0:0:0:
470,187,33756,1,0,0:0:0:0:
482,225,33848,1,0,1:0:0:0:
405,345,34031,2,0,P|366:311|357:257,1,80,8|0,0:0|0:0,0:0:0:0:
265,177,34397,6,0,P|246:229|158:290,1,160,0|8,1:0|0:0,0:0:0:0:
77,339,34945,1,0,0:0:0:0:
12,263,35128,2,0,P|15:233|34:204,1,40,2|0,0:0|0:0,0:0:0:0:
87,178,35311,2,0,P|112:166|133:142,1,40,0|0,1:0|0:0,0:0:0:0:
54,47,35494,2,0,P|51:133|71:182,1,120,8|0,0:0|0:0,0:0:0:0:
87,178,35860,6,0,P|118:131|223:129,1,160,0|8,1:0|0:0,0:0:0:0:
352,184,36409,1,0,0:0:0:0:
389,170,36500,1,0,0:0:0:0:
420,145,36592,1,2,0:0:0:0:
441,112,36683,1,0,0:0:0:0:
449,72,36775,1,0,1:0:0:0:
349,44,36958,1,8,0:0:0:0:
294,122,37141,1,4,1:2:0:0:
402,243,37323,6,0,P|400:282|385:319,1,80,0|0,0:0|1:0,0:0:0:0:
298,250,37689,1,8,0:0:0:0:
191,273,37872,2,0,L|198:352,1,80,4|8,0:2|0:1,0:0:0:0:
124,191,38238,1,0,1:0:0:0:
184,89,38421,1,12,0:0:0:0:
155,61,38512,1,0,0:0:0:0:
117,51,38604,1,0,0:0:0:0:
78,59,38695,1,0,0:0:0:0:
51,82,38787,6,0,P|71:118|228:148,1,192,4|0,1:2|0:0,0:0:0:0:
350,73,39519,2,0,P|379:145|372:286,1,192,8|0,0:1|0:0,0:0:0:0:
283,299,40250,2,0,P|306:339|355:361,2,96,0|0|0,1:0|1:0|1:0,0:0:0:0:
283,198,40982,2,0,B|199:203|180:288|180:288|160:258|129:261,1,192,8|0,0:1|0:0,0:0:0:0:
56,169,41714,6,0,B|23:177|-2:160|-2:160|25:232|22:309,1,192,0|0,1:0|0:0,0:0:0:0:
176,137,42445,2,0,P|157:84|35:103,1,192,8|0,0:1|0:0,0:0:0:0:
264,209,43177,6,0,P|253:157|258:101,2,96,0|0|0,1:0|1:0|1:0,0:0:0:0:
412,91,43909,1,8,0:1:0:0:
412,91,44275,1,0,0:0:0:0:
418,114,44366,1,0,0:0:0:0:
422,137,44458,1,0,0:0:0:0:
423,161,44549,1,0,0:0:0:0:
415,184,44641,6,0,P|405:234|430:377,1,192,0|0,1:0|0:0,0:0:0:0:
326,254,45372,2,0,P|253:264|160:341,1,192,8|0,0:1|0:0,0:0:0:0:
48,311,46104,6,0,P|67:268|74:221,2,96,0|0|0,1:0|1:0|1:0,0:0:0:0:
15,124,46836,2,0,P|90:107|181:183,1,192,8|0,0:1|0:0,0:0:0:0:
302,78,47567,6,0,B|277:49|233:45|233:45|219:112|267:152,1,192,0|0,1:0|0:0,0:0:0:0:
418,149,48299,2,0,B|462:112|448:45|448:45|404:49|379:78,1,192,8|0,0:1|0:0,0:0:0:0:
342,182,49031,6,0,P|346:232|364:283,2,96,0|0|0,1:0|1:0|1:0,0:0:0:0:
441,217,49762,2,0,B|433:247,14,20,8|0|0|0|0|0|0|0|0|0|0|0|0|0|0,0:1|0:0|0:0|0:0|0:0|0:0|0:0|0:0|0:0|0:0|0:0|0:0|0:0|0:0|0:0,0:0:0:0:
449,187,50494,5,8,0:0:0:0:
472,190,50586,1,8,0:0:0:0:
402,80,50769,1,8,0:0:0:0:
376,75,50860,1,8,0:0:0:0:
305,137,51043,1,8,0:3:0:0:
228,47,51226,1,8,0:0:0:0:
227,67,51317,1,0,0:0:0:0:
226,87,51409,1,8,0:3:0:0:
156,125,51592,6,0,L|132:120,2,20,8|0|0,0:0|0:0|0:0,0:0:0:0:
178,205,51775,2,0,L|163:217,2,20,8|0|0,0:0|0:0|0:0,0:0:0:0:
256,191,51958,1,2,0:0:0:0:
256,192,52049,12,0,53055,0:0:0:0:
315,143,53421,6,0,P|372:144|421:157,1,95.9999970703126,4|0,1:2|0:0,0:0:0:0:
325,306,53787,2,0,P|268:305|219:292,1,95.9999970703126,8|0,0:0|0:0,0:0:0:0:
76,224,54153,1,2,0:0:0:0:
221,278,54336,1,0,1:2:0:0:
57,325,54519,1,8,0:0:0:0:
228,184,54701,6,0,P|187:159|73:253,1,191.999994140625,0|0,1:0|1:0,0:0:0:0:
102,47,55250,2,0,P|121:104|144:145,1,95.9999970703126,8|0,0:0|0:0,0:0:0:0:
270,31,55616,1,2,0:0:0:0:
233,30,55708,1,0,0:0:0:0:
202,46,55799,1,0,1:0:0:0:
345,147,55982,2,0,P|358:99|363:52,1,95.9999970703126,8|0,0:0|0:0,0:0:0:0:
476,260,56348,6,0,P|423:297|322:262,1,143.999995605469,0|0,1:0|0:0,0:0:0:0:
323,269,56714,2,0,P|273:251|216:277,1,95.9999970703126,8|0,0:0|0:0,0:0:0:0:
213,274,56988,1,0,0:0:0:0:
213,274,57080,1,2,0:0:0:0:
171,129,57262,1,0,1:0:0:0:
141,219,57445,1,8,0:0:0:0:
329,78,57628,6,0,P|337:151|318:284,1,191.999994140625,4|0,1:2|1:0,0:0:0:0:
424,106,58177,2,0,P|429:158|425:207,1,95.9999970703126,8|0,0:0|0:0,0:0:0:0:
254,97,58543,1,2,0:0:0:0:
253,69,58634,1,0,0:0:0:0:
253,41,58726,1,0,1:0:0:0:
133,79,58909,1,12,0:0:0:0:
169,188,59092,1,0,0:0:0:0:
89,360,59275,6,0,P|87:309|91:256,1,95.9999970703126,4|0,1:2|0:0,0:0:0:0:
169,188,59641,2,0,P|240:197|275:233,1,95.9999970703126,8|0,0:0|0:0,0:0:0:0:
319,277,59915,1,0,0:0:0:0:
319,277,60006,2,0,P|329:324|327:375,1,95.9999970703126,2|0,0:0|1:0,0:0:0:0:
245,294,60372,1,8,0:0:0:0:
329,136,60555,2,0,P|285:131|225:139,1,95.9999970703126,0|0,1:0|0:0,0:0:0:0:
40,202,60921,5,0,1:0:0:0:
120,150,61104,2,0,P|137:201|123:251,1,95.9999970703126,8|0,0:0|0:0,0:0:0:0:
123,280,61378,1,0,0:0:0:0:
123,280,61470,1,2,0:0:0:0:
312,248,61653,1,0,1:0:0:0:
208,223,61836,1,8,0:0:0:0:
321,378,62019,1,0,0:0:0:0:
432,286,62201,6,0,B|456:227|442:162|442:162|388:165|360:122,1,191.999994140625,0|8,1:0|0:0,0:0:0:0:
376,9,62750,2,0,P|415:35|431:80,1,95.9999970703126,0|2,0:0|0:0,0:0:0:0:
284,153,63116,2,0,P|288:99|317:56,1,95.9999970703126,0|8,1:0|0:0,0:0:0:0:
315,248,63482,6,0,B|207:266|228:182|120:205,1,191.999994140625,4|0,1:0|1:0,0:0:0:0:
30,240,64031,1,8,0:0:0:0:
154,297,64214,1,0,0:0:0:0:
26,324,64397,1,6,0:2:0:0:
164,371,64580,1,0,1:0:0:0:
258,260,64762,2,0,P|202:239|155:311,1,143.999995605469,8|0,0:0|0:0,0:0:0:0:
235,338,65128,6,0,B|342:333|292:374|405:369,1,167.999994873047,4|0,1:0|0:0,0:0:0:0:
423,369,65494,2,0,P|447:316|419:260,1,111.999996582031,8|0,0:0|0:0,0:0:0:0:
408,258,65769,1,0,0:0:0:0:
408,258,65860,1,2,0:0:0:0:
357,127,66043,1,0,1:0:0:0:
316,251,66226,1,8,0:0:0:0:
356,110,66409,6,0,B|293:146|293:146|130:92,1,223.999993164063,0|0,1:0|1:0,0:0:0:0:
28,63,66958,2,0,P|25:142|31:193,1,111.999996582031,8|0,0:0|0:0,0:0:0:0:
193,268,67323,2,0,P|197:214|197:156,1,111.999996582031,2|0,0:0|1:0,0:0:0:0:
95,342,67689,2,0,P|170:306|256:320,1,167.999994873047,8|0,0:0|0:0,0:0:0:0:
318,354,68055,6,0,B|271:327|271:327|334:258|277:178,1,167.999994873047,4|0,1:2|0:0,0:0:0:0:
292,201,68421,2,0,P|275:147|301:77,1,111.999996582031,8|0,0:0|0:0,0:0:0:0:
312,73,68695,1,0,0:0:0:0:
312,73,68787,1,2,0:0:0:0:
484,63,68970,1,0,1:0:0:0:
415,181,69153,1,8,0:0:0:0:
371,3,69336,6,0,P|294:-16|226:98,1,223.999993164063,4|0,1:2|1:0,0:0:0:0:
255,317,69884,2,0,P|259:257|256:205,1,111.999996582031,8|0,0:0|0:0,0:0:0:0:
114,90,70250,1,2,0:0:0:0:
183,239,70433,1,0,1:0:0:0:
336,264,70616,2,0,L|394:269,1,55.9999982910157,12|0,0:2|0:0,0:0:0:0:
329,108,70799,2,0,L|273:101,1,55.9999982910157
460,135,70982,6,0,P|406:155|334:290,1,191.999994140625,4|8,1:2|0:0,0:0:0:0:
400,329,71531,1,0,0:0:0:0:
274,375,71714,2,0,P|226:378|179:376,1,95.9999970703126,2|0,0:0|1:0,0:0:0:0:
91,255,72080,1,8,0:0:0:0:
245,195,72262,1,0,1:0:0:0:
121,65,72445,6,0,P|119:117|123:167,1,95.9999970703126,0|0,0:0|1:0,0:0:0:0:
240,283,72811,1,8,0:0:0:0:
294,137,72994,2,0,P|297:89|295:41,1,95.9999970703126,0|2,0:0|0:0,0:0:0:0:
304,158,73360,1,0,1:0:0:0:
468,107,73543,1,8,0:0:0:0:
384,15,73726,1,0,0:0:0:0:
411,171,73909,6,0,P|411:219|408:267,1,95.9999970703126,4|0,1:2|0:0,0:0:0:0:
250,313,74275,2,0,P|246:256|247:201,1,95.9999970703126,8|0,0:0|0:0,0:0:0:0:
330,282,74641,1,2,0:0:0:0:
255,140,74823,1,0,1:0:0:0:
132,246,75006,1,8,0:0:0:0:
34,99,75189,6,0,P|113:78|156:201,1,191.999994140625,4|0,1:2|1:0,0:0:0:0:
22,254,75738,2,0,P|77:252|138:255,1,95.9999970703126,8|0,0:0|0:0,0:0:0:0:
344,276,76104,1,2,1:2:0:0:
180,319,76287,1,0,0:0:0:0:
302,198,76470,1,8,0:0:0:0:
442,302,76653,1,0,0:0:0:0:
443,324,76744,1,0,0:0:0:0:
443,339,76836,6,0,P|403:362|312:349,2,128,4|0|8,1:2|1:0|0:0,0:0:0:0:
450,179,78116,6,0,P|450:258|442:338,1,160,0|0,1:0|1:0,0:0:0:0:
326,273,78665,1,0,1:0:0:0:
93,330,79031,1,8,0:0:0:0:
93,330,79762,5,0,1:0:0:0:
228,285,79945,1,0,1:0:0:0:
228,294,80311,5,0,1:0:0:0:
93,249,80677,1,0,1:0:0:0:
296,230,81043,1,0,1:0:0:0:
327,103,81409,5,0,1:0:0:0:
327,103,81592,1,0,1:0:0:0:
327,103,82141,5,0,1:0:0:0:
301,241,82323,1,8,0:0:0:0:
97,93,82689,6,0,P|118:148|104:243,1,120,6|0,1:2|0:0,0:0:0:0:
73,278,83055,2,0,B|112:291|112:291|163:276,1,80,8|0,0:0|0:0,0:0:0:0:
178,271,83330,1,0,0:0:0:0:
178,271,83421,1,0,0:0:0:0:
297,238,83604,1,0,1:0:0:0:
402,302,83787,2,0,P|406:245|403:202,1,80,8|0,0:0|0:0,0:0:0:0:
273,53,84153,6,0,P|280:110|367:123,1,120,0|0,1:0|0:0,0:0:0:0:
361,137,84519,1,8,0:0:0:0:
459,67,84701,1,0,0:0:0:0:
461,43,84793,1,0,0:0:0:0:
462,19,84884,1,0,0:0:0:0:
452,148,85067,1,0,1:0:0:0:
349,39,85250,2,0,P|300:40|252:69,1,80,10|0,0:0|0:0,0:0:0:0:
115,217,85616,6,0,B|69:159|107:93,1,120,6|0,1:2|0:0,0:0:0:0:
174,55,85982,2,0,B|191:96|191:96|175:143,1,80,8|2,0:0|0:0,0:0:0:0:
183,155,86256,1,0,0:0:0:0:
183,155,86348,1,0,0:0:0:0:
248,240,86531,1,0,1:0:0:0:
193,330,86714,2,0,P|239:337|288:332,1,80,8|0,0:0|0:0,0:0:0:0:
452,181,87080,6,0,P|462:263|458:330,1,120,0|0,1:0|0:0,0:0:0:0:
456,339,87445,1,10,0:0:0:0:
378,230,87628,1,2,0:0:0:0:
427,106,87811,1,2,0:0:0:0:
427,106,87994,1,2,1:0:0:0:
310,176,88177,1,14,0:0:0:0:
198,99,88360,1,2,0:0:0:0:
193,79,88451,1,0,0:0:0:0:
199,59,88543,6,0,P|262:42|329:118,1,160,6|8,1:2|0:0,0:0:0:0:
270,246,89092,1,0,0:0:0:0:
272,272,89183,1,0,0:0:0:0:
274,297,89275,1,2,0:0:0:0:
201,174,89458,1,0,1:0:0:0:
355,267,89641,2,0,P|356:320|326:371,1,80,8|0,0:0|0:0,0:0:0:0:
128,267,90006,6,0,P|173:255|281:306,1,160,0|8,1:0|0:0,0:0:0:0:
99,351,90555,1,0,0:0:0:0:
71,347,90647,1,0,0:0:0:0:
44,343,90738,1,0,0:0:0:0:
185,364,90921,1,0,1:0:0:0:
49,258,91104,2,0,P|46:211|50:173,1,80,10|0,0:0|0:0,0:0:0:0:
234,5,91470,6,0,P|237:91|230:165,1,160,6|8,1:2|0:0,0:0:0:0:
131,179,92019,1,2,0:0:0:0:
126,148,92110,1,0,0:0:0:0:
125,117,92201,1,0,0:0:0:0:
243,245,92384,1,0,1:0:0:0:
353,114,92567,2,0,P|303:103|254:116,1,80,8|0,0:0|0:0,0:0:0:0:
418,354,92933,6,0,P|464:289|467:211,1,160,2|8,1:0|0:0,0:0:0:0:
331,158,93482,2,0,P|285:222|281:301,1,160,2|0,1:0|1:0,0:0:0:0:
378,259,94031,1,8,0:0:0:0:
378,259,94214,1,8,0:0:0:0:
215,365,94397,6,0,P|209:325|188:291,1,64,10|0,0:1|0:0,0:0:0:0:
145,239,94762,2,0,P|153:191|181:159,1,64,8|0,0:1|0:1,0:1:0:0:
240,154,95128,2,0,P|281:168|315:165,1,64,8|0,0:1|0:0,0:0:0:0:
319,85,95494,2,0,P|278:71|244:74,1,64,8|0,0:1|0:0,0:0:0:0:
379,147,95860,6,0,P|376:191|382:220,1,64,8|0,0:1|0:0,0:0:0:0:
440,269,96226,2,0,P|444:315|439:355,1,64,8|0,0:1|0:1,0:1:0:0:
367,369,96592,2,0,P|333:371|301:365,1,64,8|0,0:1|0:0,0:0:0:0:
307,282,96958,2,0,P|341:280|373:286,1,64,10|0,0:1|0:0,0:0:0:0:
234,330,97323,6,0,P|201:334|169:332,1,64,10|0,0:1|0:0,0:0:0:0:
98,289,97689,1,8,0:1:0:0:
158,231,97872,2,0,P|191:227|223:229,1,64,2|8,0:0|0:1,0:0:0:0:
291,274,98238,1,0,0:0:0:0:
304,191,98421,2,0,P|309:144|307:115,1,64,8|0,0:1|0:0,0:0:0:0:
233,89,98787,2,0,P|189:85|154:91,1,64,8|0,0:1|0:0,0:0:0:0:
108,154,99153,5,10,0:1:0:0:
108,154,99336,1,2,0:0:0:0:
207,169,99519,1,10,0:1:0:0:
207,169,99701,1,2,0:0:0:0:
303,148,99884,1,10,0:1:0:0:
397,167,100067,1,10,0:1:0:0:
485,199,100250,6,0,L|480:257,1,40,2|0,0:0|0:0,0:0:0:0:
479,272,100616,1,0,0:0:0:0:
478,285,100799,1,0,0:0:0:0:
478,285,101165,1,0,0:0:0:0:
441,374,101531,1,0,0:0:0:0:
324,275,101714,6,0,L|319:229,1,40
316,204,102080,1,0,0:0:0:0:
314,188,102262,1,0,0:0:0:0:
314,188,102628,1,0,0:0:0:0:
229,100,102811,2,0,L|225:58,1,40,2|0,0:0|0:0,0:0:0:0:
128,147,103177,6,0,L|118:194,2,40,2|0|0,0:0|0:0|0:0,0:0:0:0:
114,225,103726,1,2,0:0:0:0:
173,301,104092,1,0,0:0:0:0:
261,262,104458,1,0,0:0:0:0:
342,363,104641,6,0,L|336:314,2,40,2|0|0,0:0|0:0|0:0,0:0:0:0:
333,289,105189,1,2,0:0:0:0:
406,226,105555,1,0,0:0:0:0:
340,163,105921,1,0,0:0:0:0:
340,163,106104,1,2,0:0:0:0:
