osu file format v14

[General]
AudioFilename: audio.mp3
AudioLeadIn: 0
PreviewTime: -1
Countdown: 1
SampleSet: None
StackLeniency: 0.7
Mode: 0
LetterboxInBreaks: 0
WidescreenStoryboard: 0

[Editor]
DistanceSpacing: 1
BeatDivisor: 4
GridSize: 16
TimelineZoom: 1

[Metadata]
Title:Mermaid Melody Opening 1 [TV Size]
TitleUnicode:Mermaid Melody Opening 1 [TV Size]
Artist:Miyuki Kanbe
ArtistUnicode:Miyuki Kanbe
Creator:MamiWithoutHead
Version:Normal
Source:youtube
Tags:mermaid melody
BeatmapID:1442468
BeatmapSetID:682124

[Difficulty]
HPDrainRate:5
CircleSize:5
OverallDifficulty:6
ApproachRate:6
SliderMultiplier:1.4
SliderTickRate:1

[Events]
//Background and Video events
0,0,"download (1).jpg",0,0
Video,0,"Mermaid Melody Opening 1.mp4"
//Break Periods
//Storyboard Layer 0 (Background)
//Storyboard Layer 1 (Fail)
//Storyboard Layer 2 (Pass)
//Storyboard Layer 3 (Foreground)
//Storyboard Sound Samples

[TimingPoints]
-Infinity,Infinity,4,1,0,100,1,0
0,500,4,1,0,100,1,0
5375.06451612903,240.935483870968,4,1,0,100,1,0

[Colours]
Combo1 : 255,88,9
Combo2 : 255,128,192
Combo3 : 0,128,255
Combo4 : 0,128,64
Combo5 : 128,0,128
Combo6 : 249,249,0
Combo7 : 0,0,255
Combo8 : 255,128,64

[HitObjects]
256,176,6760,5,0,0:0:0:0:
128,112,7001,1,0,0:0:0:0:
288,112,7242,1,0,0:0:0:0:
320,336,7603,1,0,0:0:0:0:
112,176,8025,5,0,0:0:0:0:
160,64,8687,1,0,0:0:0:0:
448,128,9230,1,0,0:0:0:0:
272,144,9531,5,0,0:0:0:0:
192,256,9772,1,0,0:0:0:0:
224,160,9952,1,0,0:0:0:0:
112,64,10193,2,0,P|416:256|416:256,1,350
240,160,11157,2,0,L|304:144,1,35
144,160,11880,2,0,P|208:160|464:32,8,350
128,288,16939,1,0,0:0:0:0:
208,176,17180,1,0,0:0:0:0:
464,96,17662,5,0,0:0:0:0:
352,128,17903,1,0,0:0:0:0:
160,176,18265,5,0,0:0:0:0:
112,96,18686,6,0,P|416:288|416:288,1,350
336,48,19710,5,0,0:0:0:0:
32,352,20433,1,0,0:0:0:0:
272,160,20975,1,0,0:0:0:0:
16,96,21457,1,0,0:0:0:0:
208,176,21818,1,0,0:0:0:0:
416,272,22240,1,0,0:0:0:0:
48,256,23083,2,0,L|80:272,1,35
288,144,23565,2,0,P|48:160|304:176,3,805
416,96,27962,5,0,0:0:0:0:
96,208,28565,1,0,0:0:0:0:
352,304,29046,1,0,0:0:0:0:
320,112,29408,1,0,0:0:0:0:
192,224,29709,1,0,0:0:0:0:
240,336,29950,1,0,0:0:0:0:
432,192,30372,1,0,0:0:0:0:
320,160,30552,1,0,0:0:0:0:
176,128,30793,1,0,0:0:0:0:
64,256,31094,1,0,0:0:0:0:
96,96,31817,2,0,P|304:96|304:96,1,210
448,128,32420,6,0,B|272:208|272:208|240:224,2,210
224,80,33564,2,0,B|96:256|80:256|80:256,1,245
240,112,34407,2,0,P|80:304|80:304,1,245
240,144,35190,2,0,P|480:256|480:256,1,245
288,64,36034,2,0,P|224:304|224:304,3,245
320,64,38021,1,0,0:0:0:0:
256,272,38383,1,0,0:0:0:0:
128,256,38624,1,0,0:0:0:0:
144,144,38804,1,0,0:0:0:0:
272,112,39045,1,0,0:0:0:0:
320,176,39226,1,0,0:0:0:0:
144,192,39527,5,0,0:0:0:0:
176,112,40852,1,0,0:0:0:0:
400,192,41274,1,0,0:0:0:0:
320,64,41575,1,0,0:0:0:0:
112,176,41997,1,0,0:0:0:0:
176,352,42298,1,0,0:0:0:0:
352,240,42659,1,0,0:0:0:0:
224,176,42900,1,0,0:0:0:0:
112,144,43141,1,0,0:0:0:0:
16,16,44466,6,0,P|32:144|32:144,1,105
224,160,45008,2,0,P|256:288|256:288,1,105
304,48,45551,2,0,P|448:256|448:256,4,245
224,320,47719,1,0,0:0:0:0:
64,176,48622,1,0,0:0:0:0:
304,64,49104,1,0,0:0:0:0:
480,176,49466,1,0,0:0:0:0:
320,192,49767,1,0,0:0:0:0:
352,112,50128,1,0,0:0:0:0:
208,208,50430,1,0,0:0:0:0:
64,272,50731,1,0,0:0:0:0:
128,176,50972,1,0,0:0:0:0:
224,160,51152,1,0,0:0:0:0:
336,224,51393,1,0,0:0:0:0:
304,128,52116,1,0,0:0:0:0:
144,304,52959,1,0,0:0:0:0:
176,112,53321,1,0,0:0:0:0:
512,128,53923,1,0,0:0:0:0:
304,144,54284,1,0,0:0:0:0:
160,176,54525,1,0,0:0:0:0:
112,288,54766,1,0,0:0:0:0:
16,96,56091,6,0,P|112:256|112:256,4,175
304,48,57778,2,0,P|384:336|384:336,2,280
272,128,58922,2,0,L|64:272,3,245
240,96,61151,2,0,L|416:288,3,245
240,128,62777,6,0,P|496:352|496:352,1,315
64,288,64042,6,0,B|432:16|288:128|288:128,1,350
64,176,65066,6,0,P|128:208|128:208,1,70
336,112,65608,2,0,B|272:192|288:192|288:192,1,70
48,224,66151,2,0,P|160:208|160:208,1,105
256,64,66813,2,0,P|256:160|256:160,1,70
64,208,67295,5,0,0:0:0:0:
240,128,67656,1,0,0:0:0:0:
272,368,68078,1,0,0:0:0:0:
192,256,68319,1,0,0:0:0:0:
176,144,68500,1,0,0:0:0:0:
272,112,68680,1,0,0:0:0:0:
368,112,68861,1,0,0:0:0:0:
496,192,69162,2,0,P|48:192|48:192,3,420
224,64,71632,5,0,0:0:0:0:
384,112,71933,1,0,0:0:0:0:
224,176,72234,1,0,0:0:0:0:
96,64,72535,1,0,0:0:0:0:
112,192,72776,1,0,0:0:0:0:
288,272,73138,1,0,0:0:0:0:
288,176,73318,1,0,0:0:0:0:
176,208,73499,1,0,0:0:0:0:
336,112,73800,1,0,0:0:0:0:
160,304,74282,1,0,0:0:0:0:
144,336,74463,6,0,B|448:16|448:16|432:48,2,455
96,160,76330,6,0,P|480:256|480:256,1,385
176,160,77535,6,0,P|496:32|496:32,1,315
240,144,78498,5,0,0:0:0:0:
352,288,78800,5,0,0:0:0:0:
128,240,79161,5,0,0:0:0:0:
256,192,79824,12,0,80968,0:0:0:0:
64,48,81269,5,0,0:0:0:0:
336,240,81811,1,0,0:0:0:0:
416,48,82173,1,0,0:0:0:0:
272,224,82534,1,0,0:0:0:0:
448,96,82896,5,0,0:0:0:0:
240,224,83317,1,0,0:0:0:0:
224,112,83799,1,0,0:0:0:0:
144,288,84160,1,0,0:0:0:0:
288,256,84401,1,0,0:0:0:0:
192,16,84823,1,0,0:0:0:0:
160,144,85064,1,0,0:0:0:0:
448,224,85606,5,0,0:0:0:0:
336,208,85787,1,0,0:0:0:0:
288,144,86389,5,0,0:0:0:0:
240,224,86570,1,0,0:0:0:0:
240,192,87293,5,0,0:0:0:0:
352,240,87534,1,0,0:0:0:0:
304,144,87714,1,0,0:0:0:0:
96,96,88256,1,0,0:0:0:0:
160,224,88497,1,0,0:0:0:0:
304,144,88798,1,0,0:0:0:0:
144,144,89100,6,0,P|336:240|336:240,1,210
464,16,89943,6,0,P|352:160|352:160,1,175
160,192,90545,6,0,P|352:80|352:80,1,210
144,144,91268,6,0,P|400:272|400:272,1,280
288,48,93256,6,0,B|144:144|368:112|368:112|416:112|384:112,3,245
256,192,95244,12,10,98436,0:0:0:0:
