osu file format v14

[General]
AudioFilename: 1-001.mp3
AudioLeadIn: 0
PreviewTime: 66612
Countdown: 0
SampleSet: Soft
StackLeniency: 0.7
Mode: 0
LetterboxInBreaks: 0
WidescreenStoryboard: 0

[Editor]
DistanceSpacing: 1.3
BeatDivisor: 4
GridSize: 8
TimelineZoom: 1.1

[Metadata]
Title:Gensou Roukaku
TitleUnicode:幻想楼閣
Artist:Miyuki Hashimoto
ArtistUnicode:橋本みゆき
Creator:Tsukuyomi
Version:Fantasy
Source:ハピメア-Fragmentation Dream-
Tags:Purple Software Hapymaher opening eroge Little cloudsplash16 Enjoy -_E_n_j_u_- baldrace
BeatmapID:808996
BeatmapSetID:369068

[Difficulty]
HPDrainRate:7
CircleSize:4.5
OverallDifficulty:8
ApproachRate:9
SliderMultiplier:1.6
SliderTickRate:1

[Events]
//Background and Video events
0,0,"BG.jpg",0,0
//Break Periods
//Storyboard Layer 0 (Background)
//Storyboard Layer 1 (Fail)
//Storyboard Layer 2 (Pass)
//Storyboard Layer 3 (Foreground)
//Storyboard Sound Samples

[TimingPoints]
1237,500,4,2,1,60,1,0
9237,-133.333333333333,4,2,1,50,0,0
15237,-133.333333333333,4,2,1,60,0,0
16237,-100,4,2,1,55,0,0
17237,-100,4,2,3,70,0,0
33237,-100,4,2,1,60,0,0
65237,-100,4,2,1,55,0,0
67237,-83.3333333333333,4,2,3,70,0,1
69237,-83.3333333333333,4,2,1,70,0,1
69487,-83.3333333333333,4,2,3,70,0,1
71237,-83.3333333333333,4,2,1,50,0,1
71487,-83.3333333333333,4,2,3,70,0,1
73237,-83.3333333333333,4,2,1,70,0,1
73487,-83.3333333333333,4,2,3,70,0,1
77237,-83.3333333333333,4,2,1,70,0,1
77487,-83.3333333333333,4,2,3,70,0,1
79237,-83.3333333333333,4,2,1,50,0,1
79487,-83.3333333333333,4,2,3,70,0,1
81237,-83.3333333333333,4,2,1,70,0,1
81487,-83.3333333333333,4,2,3,70,0,1
85237,-83.3333333333333,4,2,1,70,0,1
85487,-83.3333333333333,4,2,3,70,0,1
87237,-83.3333333333333,4,2,1,50,0,1
87487,-83.3333333333333,4,2,3,70,0,1
89237,-83.3333333333333,4,2,1,70,0,1
89487,-83.3333333333333,4,2,3,70,0,1
93237,-83.3333333333333,4,2,1,70,0,1
93487,-83.3333333333333,4,2,3,70,0,1
95237,-83.3333333333333,4,2,1,50,0,1
95487,-83.3333333333333,4,2,3,70,0,1
96237,-83.3333333333333,4,2,1,70,0,1
96487,-83.3333333333333,4,2,3,70,0,1
97237,-83.3333333333333,4,2,1,50,0,1
97487,-83.3333333333333,4,2,3,70,0,1
99237,-83.3333333333333,4,2,1,55,0,1
100737,-83.3333333333333,4,2,1,60,0,1
102237,-83.3333333333333,4,2,1,50,0,1
102737,-83.3333333333333,4,2,3,60,0,1
103237,-133.333333333333,4,2,1,60,0,0
123237,-133.333333333333,4,2,1,20,0,0

[Colours]
Combo1 : 255,128,128
Combo2 : 128,0,255
Combo3 : 22,233,233
Combo4 : 0,255,128

[HitObjects]
232,88,9237,6,0,P|188:128|148:128,1,90.0000034332277,4|0,0:3|0:0,0:0:0:0:
85,127,9737,2,0,P|69:191|94:260,2,120.000004577637,2|2|2,3:0|0:0|3:0,0:0:0:0:
178,348,11237,6,0,P|222:308|262:308,1,90.0000034332277,4|0,0:3|0:0,0:0:0:0:
325,309,11737,2,0,P|341:245|316:176,2,120.000004577637,2|2|2,3:0|0:0|3:0,0:0:0:0:
325,309,12987,1,0,0:0:0:0:
325,309,13237,6,0,L|218:334,1,90.0000034332277,4|0,0:3|0:0,0:0:0:0:
169,296,13737,1,2,3:0:0:0:
380,184,14237,2,0,L|273:209,1,90.0000034332277,4|0,0:3|0:0,0:0:0:0:
224,171,14737,1,2,3:0:0:0:
380,184,14987,1,4,0:3:0:0:
119,117,15237,5,4,0:0:0:0:
350,256,15487,1,4,0:0:0:0:
173,53,15737,1,4,0:0:0:0:
289,299,15987,1,4,0:0:0:0:
251,32,16237,2,0,P|286:32|314:40,1,40,4|0,0:0|0:0,0:0:0:0:
371,39,16487,1,0,0:0:0:0:
371,39,16612,1,0,0:0:0:0:
371,39,16737,2,0,L|398:66,3,20
415,59,16987,2,0,B|437:42|437:42|460:32,1,40
489,143,17237,6,0,P|475:199|433:227,1,80,4|2,0:0|0:0,0:0:0:0:
380,221,17612,1,0,0:0:0:0:
319,274,17737,2,0,L|330:343,1,40,8|0,0:0|0:0,0:0:0:0:
460,213,17987,2,0,L|452:160,1,40,2|0,0:0|0:0,0:0:0:0:
265,101,18237,1,0,0:0:0:0:
191,131,18362,2,0,L|178:235,1,80,2|2,0:0|0:0,0:0:0:0:
118,259,18737,2,0,L|144:308,1,40,8|0,0:0|0:0,0:0:0:0:
265,101,18987,2,0,L|283:136,1,40,2|0,0:0|0:0,0:0:0:0:
118,259,19237,6,0,P|74:256|36:228,1,80,2|0,0:0|0:0,0:0:0:0:
102,183,19612,1,0,0:0:0:0:
102,183,19737,2,0,L|152:169,1,40,8|0,0:0|0:0,0:0:0:0:
55,120,19987,2,0,L|120:104,1,40,2|0,0:0|0:0,0:0:0:0:
248,168,20237,2,0,L|298:154,1,40,2|0,0:0|0:0,0:0:0:0:
140,172,20487,2,0,L|102:183,1,40,0|2,0:0|0:0,0:0:0:0:
264,184,20737,1,8,0:0:0:0:
264,184,20862,2,0,L|314:170,1,40,2|0,0:0|0:0,0:0:0:0:
140,192,21112,1,2,0:0:0:0:
140,192,21237,6,0,P|104:244|112:292,1,80
128,336,21612,1,2,0:0:0:0:
204,360,21737,2,0,L|252:344,2,40,8|0|2,0:0|0:0|0:0,0:0:0:0:
304,232,22237,1,0,0:0:0:0:
380,256,22362,2,0,L|492:240,1,80,2|2,0:0|0:0,0:0:0:0:
304,232,22737,2,0,L|200:248,1,80,8|0,0:0|0:0,0:0:0:0:
336,160,23112,1,0,0:0:0:0:
336,160,23237,6,0,L|396:148,1,40,2|0,0:0|0:0,0:0:0:0:
251,274,23487,1,2,0:0:0:0:
251,274,23612,1,0,0:0:0:0:
251,274,23737,2,0,L|210:228,1,40,10|0,0:0|0:0,0:0:0:0:
392,292,23987,2,0,L|372:349,1,40,2|0,0:0|0:0,0:0:0:0:
105,282,24237,1,2,0:0:0:0:
130,250,24362,1,0,0:0:0:0:
104,221,24487,1,0,0:0:0:0:
136,195,24612,1,2,0:0:0:0:
128,156,24737,5,8,3:2:0:0:
184,100,24862,1,2,3:2:0:0:
236,160,24987,1,0,3:0:0:0:
304,116,25112,1,2,3:2:0:0:
384,104,25237,6,0,P|440:104|492:128,1,80,4|0,3:2|0:0,0:0:0:0:
417,178,25612,1,2,0:0:0:0:
342,209,25737,2,0,P|292:210|279:204,1,40,8|0,0:0|0:0,0:0:0:0:
384,104,25987,2,0,P|434:103|447:109,1,40,2|0,0:0|0:0,0:0:0:0:
204,265,26237,1,0,0:0:0:0:
133,228,26362,2,0,P|99:187|91:136,1,80,2|2,0:0|0:0,0:0:0:0:
128,89,26737,2,0,P|174:83|187:84,1,40,8|0,0:0|0:0,0:0:0:0:
91,162,26987,2,0,P|45:168|32:167,1,40,2|0,0:0|0:0,0:0:0:0:
133,228,27237,6,0,P|176:224|236:228,1,80,2|0,0:0|0:0,0:0:0:0:
280,272,27612,1,0,0:0:0:0:
212,225,27737,2,0,L|224:172,1,40,8|0,0:0|0:0,0:0:0:0:
368,252,27987,2,0,L|359:291,1,40,2|0,0:0|0:0,0:0:0:0:
220,185,28237,2,0,L|160:185,1,40,2|0,0:0|0:0,0:0:0:0:
359,290,28487,2,0,L|419:290,1,40,0|2,0:0|0:0,0:0:0:0:
240,288,28737,1,8,0:0:0:0:
240,288,28862,2,0,P|248:340|260:360,1,40,2|0,0:0|0:0,0:0:0:0:
372,200,29112,1,2,0:0:0:0:
432,148,29237,6,0,P|428:100|408:40,1,80,4|0,0:0|0:0,0:0:0:0:
348,32,29612,1,2,0:0:0:0:
420,68,29737,2,0,L|468:56,1,40,8|0,0:0|0:0,0:0:0:0:
320,140,29987,2,0,L|272:128,1,40,2|0,0:0|0:0,0:0:0:0:
356,272,30237,1,0,0:0:0:0:
436,264,30362,2,0,P|448:212|444:160,1,80,2|2,0:0|0:0,0:0:0:0:
336,306,30737,2,0,P|348:290|356:272,1,40,8|0,0:0|0:0,0:0:0:0:
257,324,30987,2,0,L|223:322,3,20
189,320,31237,5,4,0:0:0:0:
160,276,31362,1,0,3:0:0:0:
113,250,31487,1,0,3:0:0:0:
61,242,31612,1,0,3:0:0:0:
9,250,31737,5,8,3:2:0:0:
44,211,31862,1,0,3:0:0:0:
82,175,31987,1,0,3:0:0:0:
118,137,32112,1,0,3:0:0:0:
154,100,32237,5,0,3:0:0:0:
191,136,32362,2,0,L|216:112,1,20,0|0,3:0|3:0,0:0:0:0:
241,149,32487,1,0,0:0:0:0:
292,141,32612,1,0,3:0:0:0:
336,113,32737,5,8,3:2:0:0:
380,140,32862,2,0,L|360:168,1,20,0|0,3:0|3:0,0:0:0:0:
406,184,32987,1,4,3:2:0:0:
413,235,33112,1,0,3:0:0:0:
397,284,33237,6,0,P|354:331|312:337,1,80,4|0,3:2|0:0,0:0:0:0:
260,324,33612,1,0,0:0:0:0:
296,252,33737,2,0,P|300:208|264:152,1,80,10|0,0:0|0:0,0:0:0:0:
244,108,34112,1,0,0:0:0:0:
316,72,34237,2,0,P|336:56|348:24,2,40,2|0|0,0:0|0:0|0:0,0:0:0:0:
244,108,34612,1,2,0:0:0:0:
180,156,34737,2,8,P|176:200|180:216,1,40,8|0,0:0|0:0,0:0:0:0:
308,156,34987,2,0,P|312:200|308:216,1,40,2|0,0:0|0:0,0:0:0:0:
104,132,35237,5,2,0:0:0:0:
392,272,35487,1,0,0:0:0:0:
140,32,35737,1,10,0:0:0:0:
284,300,35987,1,0,0:0:0:0:
284,300,36112,1,0,0:0:0:0:
284,300,36237,2,0,P|288:256|284:240,1,40,2|0,0:0|0:0,0:0:0:0:
156,300,36487,2,0,P|152:256|156:240,1,40
327,372,36737,2,0,P|342:357|354:342,1,40,8|0,0:0|0:0,0:0:0:0:
112,372,36987,2,0,P|84:340|80:332,1,40,2|0,0:0|0:0,0:0:0:0:
224,128,37237,6,0,L|220:232,1,80,2|0,0:0|0:0,0:0:0:0:
288,252,37612,1,0,0:0:0:0:
364,224,37737,2,0,L|367:144,1,80,10|0,0:0|0:0,0:0:0:0:
440,112,38112,1,2,0:0:0:0:
500,164,38237,2,0,L|500:208,2,40
440,112,38612,1,0,0:0:0:0:
368,144,38737,2,0,P|324:156|320:156,1,40,8|0,0:0|0:0,0:0:0:0:
247,155,38987,2,0,P|228:152|210:144,1,40
137,107,39237,6,0,P|103:74|92:17,1,80,2|0,0:0|0:0,0:0:0:0:
211,59,39612,1,0,0:0:0:0:
188,177,39737,2,0,P|131:201|81:197,1,80,10|0,0:0|0:0,0:0:0:0:
12,136,40112,1,0,0:0:0:0:
92,43,40237,1,2,0:0:0:0:
92,43,40362,1,0,0:0:0:0:
92,43,40487,2,0,L|132:66,1,40,2|0,0:0|0:0,0:0:0:0:
188,177,40737,2,0,L|227:154,1,40,8|0,0:0|0:0,0:0:0:0:
324,79,40987,2,0,L|363:101,1,40,2|0,0:0|0:0,0:0:0:0:
384,224,41237,6,0,L|480:176,1,80,2|0,0:0|0:0,0:0:0:0:
472,268,41612,1,0,0:0:0:0:
404,312,41737,2,0,L|304:284,1,80,8|0,0:0|0:0,0:0:0:0:
296,216,42112,1,0,0:0:0:0:
328,292,42237,2,0,P|320:320|312:336,2,40,2|0|0,0:0|0:0|0:0,0:0:0:0:
296,216,42612,1,2,0:0:0:0:
216,204,42737,2,0,P|184:236|176:248,1,40,8|0,0:0|0:0,0:0:0:0:
376,208,42987,2,0,P|408:176|416:164,1,40
204,192,43237,6,0,P|156:236|140:272,1,80,2|0,0:0|0:0,0:0:0:0:
292,240,43612,1,0,0:0:0:0:
232,112,43737,2,0,P|180:112|140:136,1,80,10|0,0:0|0:0,0:0:0:0:
292,240,44112,1,0,0:0:0:0:
300,64,44237,2,0,P|264:32|256:28,1,40,2|0,0:0|0:0,0:0:0:0:
376,96,44487,1,0,0:0:0:0:
376,96,44612,1,0,0:0:0:0:
376,96,44737,2,0,P|421:80|429:75,1,40,8|0,0:0|0:0,0:0:0:0:
312,148,44987,2,0,P|302:195|302:204,1,40,2|0,0:0|0:0,0:0:0:0:
152,52,45237,6,0,P|128:92|120:152,1,80,2|0,0:0|0:0,0:0:0:0:
64,180,45612,1,0,0:0:0:0:
200,136,45737,2,0,P|252:124|292:128,1,80,8|0,0:0|0:0,0:0:0:0:
256,48,46112,1,0,0:0:0:0:
328,188,46237,2,0,P|360:228|364:232,2,40,2|0|0,0:0|0:0|0:0,0:0:0:0:
404,160,46612,1,2,0:0:0:0:
244,173,46737,2,0,P|244:193|252:212,1,40,8|0,0:0|0:0,0:0:0:0:
404,160,46987,1,0,0:0:0:0:
390,240,47112,1,0,0:0:0:0:
328,188,47237,6,0,P|328:136|360:92,1,80,2|0,0:0|0:0,0:0:0:0:
468,209,47612,1,0,0:0:0:0:
356,323,47737,2,0,P|312:286|299:244,1,80,10|0,0:0|0:0,0:0:0:0:
468,209,48112,1,0,0:0:0:0:
466,369,48237,2,0,L|421:361,1,40,2|0,0:0|0:0,0:0:0:0:
356,323,48487,1,2,0:0:0:0:
356,323,48612,2,0,L|325:316,2,20,0|0|8,3:2|3:0|3:2,0:0:0:0:
436,263,48862,2,0,L|416:268,2,20,0|0|2,3:2|3:0|3:2,0:0:0:0:
360,212,49112,1,0,0:0:0:0:
360,212,49237,6,0,L|272:172,1,80,6|0,0:0|0:0,0:0:0:0:
216,144,49612,1,0,0:0:0:0:
268,84,49737,2,0,P|312:72|324:72,1,40,8|0,0:0|0:0,0:0:0:0:
216,144,49987,2,0,P|171:135|160:130,1,40
287,178,50237,1,2,0:0:0:0:
287,178,50362,1,0,0:0:0:0:
287,178,50487,2,0,P|272:236|272:240,1,40
128,320,50737,2,0,P|90:326|42:298,1,80,8|2,0:0|0:0,0:0:0:0:
101,246,51112,1,0,0:0:0:0:
129,170,51237,6,0,P|91:164|43:192,1,80,2|0,0:0|0:0,0:0:0:0:
179,232,51612,1,0,0:0:0:0:
287,266,51737,2,0,P|268:269|248:269,1,40,8|0,0:0|0:0,0:0:0:0:
390,218,51987,2,0,P|370:214|351:216,1,40
447,275,52237,1,2,0:0:0:0:
447,275,52362,1,0,0:0:0:0:
447,275,52487,2,0,L|488:269,1,40
390,220,52737,2,0,L|351:215,1,40,8|0,0:0|0:0,0:0:0:0:
249,270,52987,2,0,L|290:264,1,40,2|0,0:0|0:0,0:0:0:0:
390,220,53237,6,0,P|351:181|342:121,1,80,2|0,0:0|0:0,0:0:0:0:
392,96,53612,1,0,0:0:0:0:
448,152,53737,2,0,L|488:120,1,40,8|0,0:0|0:0,0:0:0:0:
342,158,53987,1,0,0:0:0:0:
342,158,54112,1,2,0:0:0:0:
342,158,54237,2,0,L|295:122,1,40
256,27,54487,2,0,L|324:9,1,40,2|0,0:0|0:0,0:0:0:0:
138,31,54737,2,0,P|114:81|113:120,1,80,8|2,0:0|0:0,0:0:0:0:
256,176,55112,1,0,0:0:0:0:
373,30,55237,6,0,P|393:64|400:104,1,80,2|0,0:0|0:0,0:0:0:0:
360,176,55612,1,0,0:0:0:0:
408,240,55737,2,0,L|464:232,1,40,8|0,0:0|0:0,0:0:0:0:
399,103,55987,2,0,L|455:95,1,40
320,181,56237,1,2,0:0:0:0:
264,240,56362,1,0,0:0:0:0:
320,181,56487,2,0,L|376:173,1,40,2|0,0:0|0:0,0:0:0:0:
328,40,56737,2,0,L|344:16,2,20,8|0|0,3:2|3:0|3:0,0:0:0:0:
256,80,56987,1,2,0:0:0:0:
176,64,57112,1,0,0:0:0:0:
256,80,57237,6,0,P|248:120|264:168,1,80,6|0,0:0|0:0,0:0:0:0:
197,209,57612,1,0,0:0:0:0:
133,258,57737,2,0,P|141:298|125:346,1,80,8|0,0:0|0:0,0:0:0:0:
30,222,58112,1,2,0:0:0:0:
131,335,58237,1,0,0:0:0:0:
131,335,58362,1,0,0:0:0:0:
131,335,58487,2,0,P|111:370|101:376,1,40,2|0,0:0|0:0,0:0:0:0:
166,220,58737,2,0,P|185:216|204:219,1,40,8|0,0:0|0:0,0:0:0:0:
52,256,58987,2,0,P|39:242|31:224,1,40,2|0,0:0|0:0,0:0:0:0:
91,30,59237,6,0,P|117:64|125:118,1,80,2|0,0:0|0:0,0:0:0:0:
203,121,59612,1,0,0:0:0:0:
193,257,59737,2,0,P|169:225|159:187,1,80,8|0,0:0|0:0,0:0:0:0:
203,121,60112,1,0,0:0:0:0:
193,257,60237,2,0,P|150:258|132:252,1,40,2|0,0:0|0:0,0:0:0:0:
203,121,60487,1,0,0:0:0:0:
203,121,60612,1,0,0:0:0:0:
203,121,60737,2,0,P|247:120|265:126,1,40,8|0,0:0|0:0,0:0:0:0:
385,180,60987,1,2,0:0:0:0:
439,120,61112,1,0,0:0:0:0:
321,132,61237,6,0,P|306:180|316:221,1,80,4|2,0:0|0:0,0:0:0:0:
385,180,61612,1,0,0:0:0:0:
242,119,61737,2,0,P|222:117|203:121,1,40,8|0,0:0|0:0,0:0:0:0:
61,186,61987,1,0,0:0:0:0:
7,126,62112,1,0,0:0:0:0:
125,138,62237,2,0,P|140:186|133:206,2,40,2|0|0,0:0|0:0|0:0,0:0:0:0:
203,120,62612,1,0,0:0:0:0:
61,186,62737,2,0,P|63:209|73:235,1,40,8|0,0:0|0:0,0:0:0:0:
132,273,62987,1,2,0:0:0:0:
186,213,63112,1,0,0:0:0:0:
68,225,63237,6,0,P|53:273|63:314,1,80,4|2,0:0|0:0,0:0:0:0:
119,355,63612,1,0,0:0:0:0:
200,357,63737,2,0,L|224:315,1,40,8|0,0:0|0:0,0:0:0:0:
343,222,63987,2,0,L|319:180,1,40,2|0,0:0|0:0,0:0:0:0:
234,55,64237,1,4,0:0:0:0:
234,55,64362,2,0,L|203:39,2,20
333,75,64612,2,0,L|364:59,2,20,0|0|8,0:0|0:0|0:0,0:0:0:0:
260,145,64862,2,0,L|229:129,2,20,0|0|0,3:0|3:0|3:0,0:0:0:0:
379,165,65112,2,0,L|410:149,1,20
432,135,65237,5,12,0:0:0:0:
466,206,65362,1,8,0:0:0:0:
393,240,65487,1,8,0:0:0:0:
438,305,65612,1,8,0:0:0:0:
139,353,65987,5,8,0:0:0:0:
105,282,66112,1,8,0:0:0:0:
178,248,66237,1,8,0:0:0:0:
133,183,66362,1,8,0:0:0:0:
133,183,66737,6,0,L|142:149,3,20,0|0|0|0,3:0|3:0|3:0|3:0,0:0:0:0:
146,138,66987,2,0,L|108:111,1,40
213,46,67237,6,0,P|253:29|340:60,1,95.9999970703126,4|0,0:0|0:0,0:0:0:0:
266,107,67612,1,2,0:0:0:0:
185,119,67737,2,0,P|146:90|139:64,1,47.9999985351563,8|0,0:0|0:0,0:0:0:0:
348,106,67987,1,0,0:0:0:0:
348,106,68112,1,0,0:0:0:0:
348,106,68237,2,0,P|387:135|394:161,1,47.9999985351563,2|0,0:0|0:0,0:0:0:0:
185,119,68487,2,0,P|190:70|209:51,1,47.9999985351563,0|2,0:0|0:0,0:0:0:0:
275,253,68737,2,0,P|208:281|169:271,1,95.9999970703126,8|2,0:0|0:0,0:0:0:0:
213,201,69112,1,0,0:0:0:0:
275,253,69237,6,0,P|326:280|396:260,1,95.9999970703126,4|0,0:3|0:0,0:0:0:0:
336,200,69612,1,0,0:0:0:0:
316,121,69737,2,0,P|274:151|269:164,1,47.9999985351563,8|0,0:0|0:0,0:0:0:0:
417,182,69987,2,0,P|387:140|374:135,1,47.9999985351563,2|0,0:0|0:0,0:0:0:0:
260,221,70237,1,2,0:0:0:0:
260,221,70362,2,0,P|291:263|325:267,1,47.9999985351563
336,200,70612,1,0,0:0:0:0:
183,231,70737,2,0,P|129:229|69:177,1,95.9999970703126,8|2,0:0|0:0,0:0:0:0:
154,154,71112,1,0,0:0:0:0:
231,290,71237,6,0,P|285:288|345:236,1,95.9999970703126,8|0,0:3|0:0,0:0:0:0:
293,346,71612,1,0,0:0:0:0:
372,327,71737,2,0,P|438:324|480:358,1,95.9999970703126,8|0,0:0|0:0,0:0:0:0:
424,265,72112,1,0,0:0:0:0:
360,216,72237,2,0,P|356:163|369:132,1,47.9999985351563,2|0,0:0|0:0,0:0:0:0:
496,301,72487,2,0,P|500:354|487:385,1,47.9999985351563,0|2,0:0|0:0,0:0:0:0:
331,215,72737,2,0,P|323:163|342:101,1,95.9999970703126,8|2,0:0|0:0,0:0:0:0:
469,172,73112,1,0,0:0:0:0:
355,294,73237,6,0,P|291:288|255:244,1,95.9999970703126,4|0,3:0|0:0,0:0:0:0:
331,215,73612,1,0,0:0:0:0:
252,192,73737,2,0,P|219:209|206:243,1,47.9999985351563,8|0,0:0|0:0,0:0:0:0:
378,119,73987,2,0,P|334:79|305:72,1,47.9999985351563,2|0,0:0|0:0,0:0:0:0:
499,200,74237,2,0,P|458:239|428:241,1,47.9999985351563,2|0,0:0|0:0,0:0:0:0:
345,84,74487,2,0,P|400:70|416:72,1,47.9999985351563
340,279,74737,2,0,P|299:297|276:291,1,47.9999985351563,8|0,0:0|0:0,0:0:0:0:
253,155,74987,2,0,P|297:156|308:161,1,47.9999985351563,2|0,0:0|0:0,0:0:0:0:
84,190,75237,6,0,P|68:140|91:75,1,95.9999970703126,4|0,0:0|0:0,0:0:0:0:
147,140,75612,1,0,0:0:0:0:
220,175,75737,2,0,P|272:183|283:181,1,47.9999985351563,8|0,0:0|0:0,0:0:0:0:
117,260,75987,1,0,0:0:0:0:
117,260,76112,1,0,0:0:0:0:
117,260,76237,2,0,P|65:268|54:266,1,47.9999985351563,2|0,0:0|0:0,0:0:0:0:
266,183,76487,2,0,P|318:175|329:177,1,47.9999985351563,0|2,0:0|0:0,0:0:0:0:
84,190,76737,2,0,P|68:140|91:75,1,95.9999970703126,8|2,0:0|0:0,0:0:0:0:
173,203,77112,1,0,0:0:0:0:
247,328,77237,6,0,P|263:278|240:213,1,95.9999970703126,4|0,3:0|0:0,0:0:0:0:
173,203,77612,1,0,0:0:0:0:
247,328,77737,2,0,P|299:329|311:323,1,47.9999985351563,8|0,0:0|0:0,0:0:0:0:
173,203,77987,2,0,P|125:247|123:255,1,47.9999985351563,2|0,0:0|0:0,0:0:0:0:
334,203,78237,2,0,P|313:141|300:130,1,47.9999985351563,2|0,0:0|0:0,0:0:0:0:
254,236,78487,1,0,0:0:0:0:
254,236,78612,1,0,0:0:0:0:
417,178,78737,2,0,P|399:111|369:74,1,95.9999970703126,8|2,0:0|0:0,0:0:0:0:
334,203,79112,1,0,0:0:0:0:
446,257,79237,6,0,P|502:240|562:195,1,95.9999970703126,8|0,3:0|0:0,0:0:0:0:
417,178,79612,1,0,0:0:0:0:
363,289,79737,2,0,P|383:347|410:381,1,95.9999970703126,8|0,0:0|0:0,0:0:0:0:
446,257,80112,1,0,0:0:0:0:
334,203,80237,2,0,P|288:243|287:245,1,47.9999985351563
446,257,80487,2,0,P|492:217|493:215,1,47.9999985351563,2|0,0:0|0:0,0:0:0:0:
295,230,80737,2,0,P|269:186|276:115,1,95.9999970703126,8|2,0:0|0:0,0:0:0:0:
356,49,81112,1,0,0:0:0:0:
213,23,81237,6,0,P|164:64|149:106,1,95.9999970703126,4|0,3:0|0:0,0:0:0:0:
267,142,81612,1,0,0:0:0:0:
356,49,81737,2,0,L|311:12,1,47.9999985351563,8|0,0:0|0:0,0:0:0:0:
267,142,81987,2,0,L|281:197,1,47.9999985351563
393,79,82237,2,0,L|348:42,1,47.9999985351563,2|0,0:0|0:0,0:0:0:0:
278,188,82487,2,0,L|291:242,1,47.9999985351563,2|0,0:0|0:0,0:0:0:0:
433,106,82737,2,0,L|460:95,3,23.9999992675781,8|0|0|0,3:2|3:0|3:0|3:0,0:0:0:0:
485,104,82987,2,0,L|496:150,1,47.9999985351563,2|0,0:0|0:0,0:0:0:0:
420,301,83237,6,0,P|365:315|301:301,1,95.9999970703126,4|0,0:0|0:0,0:0:0:0:
256,240,83612,1,0,0:0:0:0:
192,312,83737,2,0,P|168:272|168:240,1,47.9999985351563,8|0,0:0|0:0,0:0:0:0:
320,168,83987,2,0,P|344:208|344:240,1,47.9999985351563
131,172,84237,1,2,0:0:0:0:
66,122,84362,2,0,P|95:71|123:59,1,47.9999985351563
131,172,84612,1,2,0:0:0:0:
89,242,84737,2,0,P|30:242|5:224,1,47.9999985351563,8|0,0:0|0:0,0:0:0:0:
212,151,84987,2,0,P|241:201|238:231,1,47.9999985351563
382,56,85237,6,0,P|420:101|439:167,1,95.9999970703126,4|0,3:0|0:0,0:0:0:0:
363,185,85612,1,0,0:0:0:0:
367,335,85737,2,0,P|351:318|341:296,1,47.9999985351563,8|0,0:0|0:0,0:0:0:0:
433,134,85987,1,0,0:0:0:0:
439,216,86112,1,0,0:0:0:0:
363,185,86237,2,0,P|347:130|355:108,1,47.9999985351563,2|0,0:0|0:0,0:0:0:0:
340,295,86487,2,0,P|350:317|367:335,1,47.9999985351563,0|2,0:0|0:0,0:0:0:0:
190,178,86737,2,0,P|210:244|237:275,1,95.9999970703126,8|2,0:0|0:0,0:0:0:0:
147,286,87112,1,0,0:0:0:0:
252,118,87237,6,0,P|293:84|350:72,1,95.9999970703126,8|0,3:0|0:0,0:0:0:0:
395,125,87612,1,0,0:0:0:0:
252,118,87737,2,0,P|202:111|152:77,1,95.9999970703126,8|0,0:0|0:0,0:0:0:0:
183,9,88112,1,0,0:0:0:0:
252,118,88237,1,2,0:0:0:0:
252,118,88362,1,0,0:0:0:0:
252,118,88487,2,0,L|247:190,1,47.9999985351563,0|2,0:0|0:0,0:0:0:0:
131,321,88737,2,0,L|92:197,1,95.9999970703126,8|2,0:0|0:0,0:0:0:0:
410,52,89237,6,0,L|371:176,1,95.9999970703126,4|0,3:0|0:0,0:0:0:0:
456,206,89612,1,0,0:0:0:0:
285,150,89737,2,0,L|283:280,1,95.9999970703126,8|0,0:0|0:0,0:0:0:0:
355,309,90112,1,0,0:0:0:0:
283,245,90237,2,0,P|262:301|265:318,1,47.9999985351563,2|0,0:0|0:0,0:0:0:0:
456,206,90487,2,0,P|477:261|474:278,1,47.9999985351563,0|2,0:0|0:0,0:0:0:0:
286,103,90737,2,0,P|284:150|291:162,1,47.9999985351563,8|0,0:0|0:0,0:0:0:0:
320,24,90987,1,0,0:0:0:0:
404,25,91112,2,0,L|432:15,1,23.9999992675781,0|0,3:0|3:0,0:0:0:0:
404,25,91237,6,0,P|434:71|427:138,1,95.9999970703126,4|0,3:2|0:0,0:0:0:0:
356,90,91612,1,0,0:0:0:0:
277,67,91737,2,0,P|271:49|285:1,1,47.9999985351563,8|0,0:0|0:0,0:0:0:0:
277,189,91987,1,0,0:0:0:0:
277,189,92112,1,0,0:0:0:0:
277,189,92237,2,0,P|258:186|220:153,1,47.9999985351563,2|0,0:0|0:0,0:0:0:0:
417,231,92487,2,0,P|408:291|420:309,1,47.9999985351563,0|2,0:0|0:0,0:0:0:0:
277,189,92737,2,0,P|254:257|263:306,1,95.9999970703126,8|2,0:0|0:0,0:0:0:0:
189,330,93112,1,0,0:0:0:0:
100,189,93237,6,0,P|120:233|122:281,1,95.9999970703126,4|0,3:0|0:0,0:0:0:0:
189,330,93612,1,0,0:0:0:0:
100,189,93737,2,0,L|151:161,1,47.9999985351563,8|0,0:0|0:0,0:0:0:0:
189,330,93987,2,0,L|138:358,1,47.9999985351563,2|0,0:0|0:0,0:0:0:0:
225,203,94237,1,2,0:0:0:0:
225,203,94362,2,0,L|285:201,1,47.9999985351563
189,330,94612,1,0,0:0:0:0:
100,189,94737,2,0,P|122:128|164:95,1,95.9999970703126,8|2,0:0|0:0,0:0:0:0:
225,203,95112,1,0,0:0:0:0:
348,174,95237,6,0,P|405:165|470:184,1,95.9999970703126,8|0,3:0|0:0,0:0:0:0:
454,252,95612,1,0,0:0:0:0:
348,174,95737,2,0,P|314:121|311:69,1,95.9999970703126,8|2,0:0|0:0,0:0:0:0:
468,95,96112,1,0,0:0:0:0:
454,252,96237,2,0,P|405:297|346:300,1,95.9999970703126,4|0,3:0|0:0,0:0:0:0:
437,359,96612,1,0,0:0:0:0:
308,261,96737,2,0,P|248:274|205:313,1,95.9999970703126,8|0,0:0|0:0,0:0:0:0:
377,303,97112,1,0,0:0:0:0:
255,187,97237,6,0,P|243:129|260:72,1,95.9999970703126,8|0,3:0|0:0,0:0:0:0:
320,52,97612,1,0,0:0:0:0:
249,93,97737,2,0,L|199:85,1,47.9999985351563,8|0,0:0|0:0,0:0:0:0:
95,150,97987,2,0,L|143:143,1,47.9999985351563,2|0,0:0|0:0,0:0:0:0:
39,216,98237,1,0,0:0:0:0:
39,216,98362,2,0,L|62:237,2,23.9999992675781
134,238,98612,1,0,0:0:0:0:
134,238,98737,2,0,L|165:253,2,23.9999992675781,8|0|0,3:2|3:0|3:0,0:0:0:0:
228,209,98987,2,0,L|256:214,2,23.9999992675781,0|0|0,3:0|3:0|3:0,0:0:0:0:
320,180,99237,5,12,0:0:0:0:
255,130,99362,1,8,0:0:0:0:
281,54,99487,1,8,0:0:0:0:
363,54,99612,1,8,0:0:0:0:
386,132,99737,1,8,0:0:0:0:
386,132,99987,5,8,0:0:0:0:
321,182,100112,1,8,0:0:0:0:
347,258,100237,1,8,0:0:0:0:
429,258,100362,1,8,0:0:0:0:
452,180,100487,1,8,0:0:0:0:
452,180,100737,2,0,L|422:176,3,23.9999992675781,0|0|0|0,3:0|3:0|0:0|3:0,0:0:0:0:
386,132,100987,2,0,L|363:147,3,23.9999992675781,0|0|0|0,3:0|3:0|3:0|3:0,0:0:0:0:
324,190,101237,6,0,P|268:195|223:182,1,95.9999970703126,12|0,0:0|0:0,0:0:0:0:
380,30,101612,2,0,P|436:25|481:38,1,95.9999970703126,12|0,0:0|0:0,0:0:0:0:
229,185,101987,1,12,0:0:0:0:
40,37,102237,2,0,L|73:60,7,23.9999992675781,12|0|0|0|0|0|0|0,3:2|3:0|3:0|3:0|3:0|3:0|3:0|3:0,0:0:0:0:
92,49,102737,2,0,L|134:35,3,23.9999992675781,0|0|0|0,3:0|3:0|3:0|3:0,0:0:0:0:
105,91,102987,1,0,0:0:0:0:
105,91,103112,1,0,0:0:0:0:
105,91,103237,6,0,P|89:144|96:170,1,60.0000022888184,4|0,0:0|0:0,0:0:0:0:
116,217,103612,1,0,0:0:0:0:
189,234,103737,2,0,L|236:226,1,30.0000011444092,2|0,3:0|0:0,0:0:0:0:
123,303,103987,2,0,L|170:311,1,30.0000011444092,2|0,0:0|0:0,0:0:0:0:
298,352,104237,1,2,0:0:0:0:
328,327,104362,1,0,0:0:0:0:
360,305,104487,2,0,L|364:252,1,30.0000011444092
430,194,104737,2,0,L|432:223,1,30.0000011444092,2|0,3:0|0:0,0:0:0:0:
344,165,104987,2,0,L|346:135,1,30.0000011444092,2|0,0:0|0:0,0:0:0:0:
436,40,105237,6,0,L|453:118,1,60.0000022888184,2|0,0:0|0:0,0:0:0:0:
419,167,105612,1,0,0:0:0:0:
344,165,105737,2,0,L|296:155,1,30.0000011444092,2|0,3:0|0:0,0:0:0:0:
320,61,105987,2,0,L|283:83,1,30.0000011444092,2|0,0:0|0:0,0:0:0:0:
218,18,106237,2,0,L|206:60,1,30.0000011444092,2|0,0:0|0:0,0:0:0:0:
167,142,106487,1,0,0:0:0:0:
129,151,106612,1,2,0:0:0:0:
91,160,106737,2,0,L|38:150,1,30.0000011444092,2|0,3:0|0:0,0:0:0:0:
167,142,106987,2,0,L|220:152,1,30.0000011444092,2|0,0:0|0:0,0:0:0:0:
308,190,107237,6,0,L|263:213,1,30.0000011444092,2|0,0:0|0:0,0:0:0:0:
152,280,107487,2,0,L|231:295,1,60.0000022888184,0|2,0:0|3:0,0:0:0:0:
285,307,107862,1,0,0:0:0:0:
285,307,107987,2,0,L|289:363,1,30.0000011444092,2|0,0:0|0:0,0:0:0:0:
217,261,108237,2,0,L|210:291,1,30.0000011444092,2|0,0:0|0:0,0:0:0:0:
150,207,108487,2,0,L|131:247,1,30.0000011444092
96,139,108737,1,2,3:0:0:0:
90,100,108862,1,0,0:0:0:0:
101,62,108987,1,2,0:0:0:0:
135,43,109112,1,0,0:0:0:0:
173,41,109237,6,0,P|208:47|244:75,1,60.0000022888184,2|0,0:0|0:0,0:0:0:0:
461,247,109737,1,2,3:0:0:0:
467,286,109862,1,0,0:0:0:0:
456,324,109987,1,0,0:0:0:0:
422,343,110112,1,0,0:0:0:0:
383,347,110237,2,0,L|336:344,1,30.0000011444092,2|0,0:0|0:0,0:0:0:0:
295,276,110487,2,0,L|248:279,1,30.0000011444092,0|2,0:0|0:0,0:0:0:0:
349,207,110737,2,0,L|382:217,1,30.0000011444092,2|0,3:0|3:0,3:0:0:0:
256,154,110987,2,0,L|301:135,1,30.0000011444092,2|0,0:0|0:0,0:0:0:0:
133,210,111237,6,0,L|209:236,1,60.0000022888184,4|0,0:0|0:0,0:0:0:0:
262,254,111612,1,0,0:0:0:0:
335,236,111737,2,0,L|330:199,1,30.0000011444092,2|0,3:0|0:0,0:0:0:0:
271,160,111987,2,0,L|276:123,1,30.0000011444092,2|0,0:0|0:0,0:0:0:0:
354,35,112237,1,2,0:0:0:0:
386,56,112362,1,0,0:0:0:0:
419,76,112487,2,0,L|426:118,1,30.0000011444092
469,200,112737,1,2,3:0:0:0:
441,227,112862,1,0,0:0:0:0:
414,255,112987,2,0,L|412:313,1,30.0000011444092,2|0,0:0|0:0,0:0:0:0:
321,338,113237,6,0,P|281:342|241:330,1,60.0000022888184,2|0,0:0|0:0,0:0:0:0:
188,324,113612,1,0,0:0:0:0:
188,324,113737,2,0,L|192:270,1,30.0000011444092,2|0,3:0|0:0,0:0:0:0:
106,207,113987,1,2,0:0:0:0:
106,207,114112,1,0,0:0:0:0:
106,207,114237,2,0,L|116:257,1,30.0000011444092,2|0,0:0|0:0,0:0:0:0:
90,355,114487,2,0,L|94:301,1,30.0000011444092,0|2,0:0|0:0,0:0:0:0:
190,294,114737,2,0,L|188:324,1,30.0000011444092,2|0,3:0|0:0,0:0:0:0:
285,298,114987,2,0,L|289:244,1,30.0000011444092,2|0,0:0|0:0,0:0:0:0:
201,125,115237,6,0,L|216:200,1,60.0000022888184,2|0,0:0|0:0,0:0:0:0:
280,218,115612,1,0,0:0:0:0:
355,218,115737,2,0,L|368:173,1,30.0000011444092,2|0,3:0|0:0,0:0:0:0:
289,190,115987,1,2,0:0:0:0:
289,190,116112,1,0,0:0:0:0:
289,190,116237,2,0,L|276:235,1,30.0000011444092,2|0,0:0|0:0,0:0:0:0:
212,183,116487,2,0,L|203:133,1,30.0000011444092
141,193,116737,2,0,P|126:224|83:245,1,60.0000022888184,2|2,3:0|0:0,0:0:0:0:
67,174,117112,1,0,0:0:0:0:
105,238,117237,6,0,L|132:285,1,30.0000011444092,2|0,0:0|0:0,0:0:0:0:
254,281,117487,2,0,P|300:265|332:271,1,60.0000022888184,0|2,0:0|3:0,0:0:0:0:
348,272,117862,1,0,0:0:0:0:
378,295,117987,1,2,0:0:0:0:
379,256,118112,1,0,0:0:0:0:
391,218,118237,2,0,P|400:195|416:177,1,30.0000011444092,2|0,0:0|0:0,0:0:0:0:
316,86,118487,2,0,P|309:124|312:142,1,30.0000011444092,0|2,0:0|0:0,0:0:0:0:
234,245,118737,1,2,3:0:0:0:
234,245,118862,1,0,0:0:0:0:
234,245,118987,2,0,P|219:224|217:195,1,30.0000011444092,2|2,0:0|0:3,0:0:0:0:
256,192,119737,12,4,123237,2:3:0:0:
