osu file format v14

[General]
AudioFilename: 1-001.mp3
AudioLeadIn: 0
PreviewTime: 66612
Countdown: 0
SampleSet: Soft
StackLeniency: 0.7
Mode: 0
LetterboxInBreaks: 0
WidescreenStoryboard: 1

[Editor]
DistanceSpacing: 1
BeatDivisor: 4
GridSize: 4
TimelineZoom: 1

[Metadata]
Title:Gensou Roukaku
TitleUnicode:幻想楼閣
Artist:Miyuki Hashimoto
ArtistUnicode:橋本みゆき
Creator:Tsukuyomi
Version:Easy
Source:ハピメア-Fragmentation Dream-
Tags:Purple Software Hapymaher opening eroge Little cloudsplash16 Enjoy -_E_n_j_u_- baldrace
BeatmapID:837368
BeatmapSetID:369068

[Difficulty]
HPDrainRate:2
CircleSize:3
OverallDifficulty:3
ApproachRate:3
SliderMultiplier:1
SliderTickRate:1

[Events]
//Background and Video events
0,0,"BG.jpg",0,0
//Break Periods
//Storyboard Layer 0 (Background)
//Storyboard Layer 1 (Fail)
//Storyboard Layer 2 (Pass)
//Storyboard Layer 3 (Foreground)
//Storyboard Sound Samples

[TimingPoints]
1237,500,4,2,1,60,1,0
9237,-100,4,2,1,50,0,0
15237,-100,4,2,1,60,0,0
16237,-100,4,2,1,55,0,0
17237,-100,4,2,3,70,0,0
33237,-100,4,2,1,60,0,0
65237,-100,4,2,1,55,0,0
67237,-100,4,2,3,70,0,1
69237,-100,4,2,1,70,0,1
69487,-100,4,2,3,70,0,1
71237,-100,4,2,1,50,0,1
71487,-100,4,2,3,70,0,1
73237,-100,4,2,1,70,0,1
73487,-100,4,2,3,70,0,1
77237,-100,4,2,1,70,0,1
77487,-100,4,2,3,70,0,1
79237,-100,4,2,1,50,0,1
79487,-100,4,2,3,70,0,1
81237,-100,4,2,1,70,0,1
81487,-100,4,2,3,70,0,1
85237,-100,4,2,1,70,0,1
85487,-100,4,2,3,70,0,1
87237,-100,4,2,1,50,0,1
87487,-100,4,2,3,70,0,1
89237,-100,4,2,1,70,0,1
89487,-100,4,2,3,70,0,1
93237,-100,4,2,1,70,0,1
93487,-100,4,2,3,70,0,1
95237,-100,4,2,1,50,0,1
95487,-100,4,2,3,70,0,1
96237,-100,4,2,1,70,0,1
96487,-100,4,2,3,70,0,1
97237,-100,4,2,1,50,0,1
97487,-100,4,2,3,70,0,1
99237,-100,4,2,1,55,0,1
100737,-100,4,2,1,60,0,1
102237,-100,4,2,1,50,0,1
102737,-100,4,2,3,60,0,1
103237,-100,4,2,1,60,0,0
123237,-100,4,2,1,20,0,0

[Colours]
Combo1 : 255,128,128
Combo2 : 128,0,255
Combo3 : 22,233,233
Combo4 : 0,255,128

[HitObjects]
80,248,9237,6,0,P|108:292|172:320,1,100,4|2,0:3|3:0,0:0:0:0:
404,148,11237,2,0,P|376:104|312:76,1,100,4|2,0:3|3:0,0:0:0:0:
64,208,13237,6,0,L|172:228,1,100,4|2,0:3|3:0,0:0:0:0:
244,168,14237,2,0,L|352:148,1,100,4|2,0:3|3:0,0:0:0:0:
424,212,15237,1,4,0:0:0:0:
352,280,15737,1,4,0:0:0:0:
280,348,16237,1,4,0:0:0:0:
92,276,17237,6,0,P|136:232|176:96,1,200,4|0,0:0|0:0,0:0:0:0:
256,44,18737,1,8,0:0:0:0:
335,103,19237,2,0,P|356:199|420:276,1,200,2|2,0:0|0:0,0:0:0:0:
372,364,20737,1,8,0:0:0:0:
272,376,21237,6,0,P|216:356|172:312,1,100,0|8,0:0|0:0,0:0:0:0:
208,232,22237,2,0,P|204:176|224:124,1,100,0|8,0:0|0:0,0:0:0:0:
316,124,23237,2,0,P|360:96|416:96,2,100,2|10|2,0:0|0:0|0:0,0:0:0:0:
236,184,24737,1,8,3:2:0:0:
176,264,25237,6,0,B|232:316|232:316|280:324|368:308,1,200,4|0,3:2|0:0,0:0:0:0:
432,244,26737,1,8,0:0:0:0:
400,148,27237,2,0,B|344:96|344:96|296:88|208:104,1,200,2|2,0:0|0:0,0:0:0:0:
136,156,28737,1,8,0:0:0:0:
136,256,29237,6,0,P|152:312|184:352,1,100,4|8,0:0|0:0,0:0:0:0:
240,268,30237,2,0,P|268:227|280:178,1,100,0|8,0:0|0:0,0:0:0:0:
353,110,31237,2,0,P|378:160|375:212,2,100,4|8|0,0:0|3:2|3:0,0:0:0:0:
260,76,32737,1,8,3:2:0:0:
173,125,33237,6,0,P|126:140|60:123,1,100,4|10,3:2|0:0,0:0:0:0:
123,45,34237,2,0,P|170:30|236:47,1,100,2|8,0:0|0:0,0:0:0:0:
297,100,35237,2,0,P|345:108|393:93,2,100,2|10|2,0:0|0:0|0:0,0:0:0:0:
219,38,36737,1,8,0:0:0:0:
134,89,37237,6,0,P|114:129|115:195,1,100,2|10,0:0|0:0,0:0:0:0:
193,246,38237,2,0,P|192:295|171:340,1,100,0|8,0:0|0:0,0:0:0:0:
72,339,39237,2,0,P|50:294|50:244,2,100,2|10|2,0:0|0:0|0:0,0:0:0:0:
171,340,40737,1,8,0:0:0:0:
270,327,41237,6,0,P|334:308|372:279,1,100,2|8,0:0|0:0,0:0:0:0:
359,189,42237,2,0,P|296:164|249:164,1,100,2|8,0:0|0:0,0:0:0:0:
164,163,43237,2,0,P|129:117|132:63,2,100,2|10|2,0:0|0:0|0:0,0:0:0:0:
250,109,44737,1,8,0:0:0:0:
343,73,45237,6,0,P|388:102|423:150,1,100,2|8,0:0|0:0,0:0:0:0:
463,226,46237,2,0,P|449:281|402:317,1,100,2|8,0:0|0:0,0:0:0:0:
320,330,47237,2,0,B|220:323|220:323|220:262|182:234,1,200,2|2,0:0|0:0,0:0:0:0:
123,315,48737,1,8,3:2:0:0:
70,229,49237,6,0,P|73:174|176:71,1,200,6|2,0:0|0:0,0:0:0:0:
264,44,50737,1,8,0:0:0:0:
248,144,51237,2,0,P|244:216|336:320,1,200,2|2,0:0|0:0,0:0:0:0:
416,336,52737,1,8,0:0:0:0:
416,236,53237,2,0,P|420:192|464:144,2,100,2|8|0,0:0|0:0|0:0,0:0:0:0:
324,276,54737,1,8,0:0:0:0:
224,280,55237,6,0,P|160:264|216:84,1,300,2|8,0:0|3:2,0:0:0:0:
212,184,57237,2,0,L|324:168,1,100,6|8,0:0|0:0,0:0:0:0:
412,156,58237,2,0,L|432:56,2,100,0|8|2,0:0|0:0|0:0,0:0:0:0:
388,252,59737,2,0,P|352:296|296:304,1,100,8|2,0:0|0:0,0:0:0:0:
212,296,60737,1,8,0:0:0:0:
140,228,61237,6,0,P|104:180|112:120,1,100,4|8,0:0|0:0,0:0:0:0:
204,148,62237,2,0,P|252:108|260:52,1,100,2|8,0:0|0:0,0:0:0:0:
164,60,63237,2,0,P|108:48|48:64,1,100,4|8,0:0|0:0,0:0:0:0:
36,152,64237,2,0,L|56:264,1,100,4|8,0:0|0:0,0:0:0:0:
76,348,65237,5,12,0:0:0:0:
224,320,65987,1,8,0:0:0:0:
364,268,66737,1,0,3:0:0:0:
448,216,67237,6,0,P|400:176|348:172,1,100,4|8,0:0|0:0,0:0:0:0:
264,160,68237,2,0,P|248:104|264:56,1,100,2|8,0:0|0:0,0:0:0:0:
356,36,69237,1,4,0:3:0:0:
448,72,69737,2,0,L|428:176,2,100,8|2|8,0:0|0:0|0:0,0:0:0:0:
356,36,71237,6,0,P|292:40|252:68,1,100,8|8,0:3|0:0,0:0:0:0:
204,140,72237,2,0,P|144:148|96:136,1,100,2|8,0:0|0:0,0:0:0:0:
28,76,73237,1,4,3:0:0:0:
120,40,73737,1,8,0:0:0:0:
220,36,74237,2,0,P|272:44|312:72,1,100,2|8,0:0|0:0,0:0:0:0:
404,108,75237,6,0,L|396:212,1,100,4|8,0:0|0:0,0:0:0:0:
308,252,76237,2,0,L|316:148,1,100,2|8,0:0|0:0,0:0:0:0:
236,92,77237,2,0,L|228:196,2,100,4|8|2,3:0|0:0|0:0,0:0:0:0:
140,68,78737,1,8,0:0:0:0:
64,132,79237,6,0,B|80:180|40:248|40:248|112:312,1,200,8|0,3:0|0:0,0:0:0:0:
184,352,80737,1,8,0:0:0:0:
268,300,81237,2,0,B|326:248|326:248|286:180|302:132,1,200,4|2,3:0|0:0,0:0:0:0:
364,52,82737,1,8,3:2:0:0:
400,144,83237,6,0,P|408:180|444:232,1,100,4|8,0:0|0:0,0:0:0:0:
468,328,84237,2,0,P|408:348|356:336,1,100,2|8,0:0|0:0,0:0:0:0:
276,320,85237,2,0,L|284:208,2,100,4|8|2,3:0|0:0|0:0,0:0:0:0:
176,332,86737,1,8,0:0:0:0:
88,288,87237,6,0,B|116:240|164:236|164:236|152:184|208:136,1,200,8|2,3:0|0:0,0:0:0:0:
260,224,88737,1,8,0:0:0:0:
360,224,89237,2,0,P|420:200|440:156,1,100,4|8,3:0|0:0,0:0:0:0:
484,84,90237,2,0,P|432:72|368:96,1,100,2|8,0:0|0:0,0:0:0:0:
304,136,91237,5,4,3:2:0:0:
204,156,91737,2,0,P|136:160|96:144,1,100,8|2,0:0|0:0,0:0:0:0:
12,120,92737,1,8,0:0:0:0:
4,220,93237,2,0,L|56:312,1,100,4|8,3:0|0:0,0:0:0:0:
132,248,94237,2,0,L|180:152,1,100,2|8,0:0|0:0,0:0:0:0:
240,80,95237,6,0,P|288:56|348:68,1,100,8|8,3:0|0:0,0:0:0:0:
420,108,96237,2,0,P|444:156|432:216,1,100,4|8,3:0|0:0,0:0:0:0:
388,288,97237,2,0,P|340:312|280:300,1,100,8|8,3:0|0:0,0:0:0:0:
216,244,98237,2,0,P|192:196|204:136,1,100,0|8,0:0|3:2,0:0:0:0:
292,180,99237,5,12,0:0:0:0:
320,32,99987,1,8,0:0:0:0:
172,48,100737,1,0,3:0:0:0:
80,88,101237,2,0,B|84:144|56:176|56:176|76:228|76:228|140:220,1,200,12|12,0:0|3:2,0:0:0:0:
324,240,103237,6,0,B|280:276|268:332|268:332|172:396|84:316,1,300,4|2,0:0|3:0,0:0:0:0:
4,276,105237,2,0,B|56:212|124:232|124:232|100:160|100:160|164:168|176:104,1,300,2|2,0:0|3:0,0:0:0:0:
260,72,107237,6,0,P|296:80|372:64,1,100,2|2,0:0|3:0,0:0:0:0:
448,112,108237,2,0,L|432:216,1,100,2|2,0:0|3:0,0:0:0:0:
364,284,109237,2,0,P|300:292|260:280,2,100,2|2|2,0:0|3:0|0:0,0:0:0:0:
432,210,110737,1,2,3:0:0:0:
396,116,111237,6,0,B|344:136|332:188|332:188|248:188|213:144|213:144|152:188,1,300,4|2,0:0|3:0,0:0:0:0:
64,224,113237,2,0,P|60:168|88:116,1,100,2|2,0:0|3:0,0:0:0:0:
156,68,114237,1,2,0:0:0:0:
256,60,114737,1,2,3:0:0:0:
352,36,115237,6,0,P|348:100|320:136,1,100,2|2,0:0|3:0,0:0:0:0:
248,184,116237,2,0,P|240:256|256:292,1,100,2|2,0:0|3:0,0:0:0:0:
332,336,117237,2,0,P|404:344|448:328,1,100,2|2,0:0|3:0,0:0:0:0:
480,248,118237,2,0,P|408:240|364:256,1,100,2|2,0:0|3:0,0:0:0:0:
256,192,119737,12,4,123237,2:3:0:0:
