osu file format v14

[General]
AudioFilename: audio.mp3
AudioLeadIn: 0
PreviewTime: -1
Countdown: 0
SampleSet: Normal
StackLeniency: 0.7
Mode: 0
LetterboxInBreaks: 0
WidescreenStoryboard: 0

[Editor]
DistanceSpacing: 0.8
BeatDivisor: 4
GridSize: 32
TimelineZoom: 1

[Metadata]
Title:Circlet princess
TitleUnicode:Circlet princess (サークレット・プリンセス)
Artist:Miyuki Hashimoto
ArtistUnicode:Miyuki Hashimoto
Creator:Villy
Version:Hard
Source:
Tags:
BeatmapID:2022273
BeatmapSetID:966098

[Difficulty]
HPDrainRate:4
CircleSize:4
OverallDifficulty:4
ApproachRate:6
SliderMultiplier:1.4
SliderTickRate:1

[Events]
//Background and Video events
0,0,"Konachan.com - 282835 sample.jpg",0,0
//Break Periods
//Storyboard Layer 0 (Background)
//Storyboard Layer 1 (Fail)
//Storyboard Layer 2 (Pass)
//Storyboard Layer 3 (Foreground)
//Storyboard Sound Samples

[TimingPoints]
15459,370.37037037037,4,1,0,100,1,0

[Colours]
Combo1 : 64,0,128
Combo2 : 0,0,128
Combo3 : 0,0,64
Combo4 : 64,0,64

[HitObjects]
256,192,3792,12,0,6477,0:0:0:0:
97,197,6940,6,0,B|147:147|181:150|250:168,1,140
292,190,7496,2,0,B|331:238|353:266|353:266|382:301,3,140
192,192,8977,2,0,P|128:256|128:256,1,70
256,96,9533,1,0,0:0:0:0:
384,128,9903,2,0,B|416:192|416:192|352:224,1,140
256,320,10458,1,0,0:0:0:0:
96,224,10829,2,0,B|64:160|64:160|128:128,1,140
256,96,11570,1,0,0:0:0:0:
384,64,11940,1,0,0:0:0:0:
384,64,12496,6,0,L|288:192,1,140
256,32,13051,2,0,L|192:160,2,140
320,256,14162,1,0,0:0:0:0:
320,256,14347,2,0,B|256:256|352:192|352:192|256:160,1,210
256,192,15458,5,0,0:0:0:0:
256,192,15829,2,0,P|256:96|256:96,1,70
160,96,16384,5,0,0:0:0:0:
352,96,16755,1,0,0:0:0:0:
352,256,17125,1,0,0:0:0:0:
160,256,17310,1,0,0:0:0:0:
160,64,17681,2,0,P|160:160|160:160,1,70
160,224,18051,1,0,0:0:0:0:
320,64,18421,1,0,0:0:0:0:
448,160,18792,2,0,B|416:192|384:192|384:192,1,70
320,288,19347,1,0,0:0:0:0:
320,288,19718,2,0,B|224:288|224:288|192:256|192:256|224:192,1,210
288,96,20644,1,0,0:0:0:0:
288,96,20829,1,0,0:0:0:0:
288,96,21014,2,0,L|288:192,1,70
320,256,21384,2,0,B|288:288|256:288|256:288,1,70
160,288,21755,1,0,0:0:0:0:
128,160,22125,2,0,B|128:96|128:96|160:96,1,70
288,96,22496,1,0,0:0:0:0:
288,96,22866,1,0,0:0:0:0:
384,96,23236,1,0,0:0:0:0:
384,96,23421,6,0,P|384:256|384:256,1,140
160,96,24347,2,0,B|192:160|192:160|128:224,1,140
160,320,24903,1,0,0:0:0:0:
288,320,25273,2,0,P|352:288|352:224,1,140
352,160,26014,1,0,0:0:0:0:
352,160,26199,2,0,P|288:96|160:128,1,210
128,192,27125,1,0,0:0:0:0:
128,192,27310,6,0,P|192:256|192:256,1,70
192,256,27681,2,0,P|256:192|256:192,1,70
288,160,28236,2,0,P|352:96|384:128,1,140
416,192,28977,1,0,0:0:0:0:
416,192,29162,2,0,P|384:256|384:256,1,70
352,320,29533,2,0,P|256:288|256:288,1,70
224,256,29903,2,0,P|256:192|256:192,1,70
416,96,30273,2,0,P|384:32|320:64,1,140
224,64,30829,2,0,P|192:32|96:64,1,140
96,160,31384,1,0,0:0:0:0:
96,256,31755,1,0,0:0:0:0:
96,256,31940,2,0,P|192:256|192:256,1,70
224,256,32310,2,0,B|320:192|320:64|320:64,1,210
256,64,33236,6,0,B|192:128|128:64|128:64,1,140
96,128,33792,1,0,0:0:0:0:
96,128,34162,1,0,0:0:0:0:
96,128,34533,2,0,P|160:256|160:256,1,140
158,253,35088,2,0,P|222:221|222:221,1,70
224,224,35458,2,0,P|288:256|288:256,1,70
288,256,35829,2,0,P|352:224|352:224,1,70
352,160,36199,6,0,B|352:96|288:64|288:64,1,140
192,64,36755,2,0,B|160:96|160:192|160:192,1,140
256,192,37310,1,0,0:0:0:0:
192,288,37681,1,0,0:0:0:0:
192,288,37866,2,0,B|224:320|332:319|332:319,1,140
352,192,38421,2,0,P|320:96|320:96,1,70
256,96,38792,2,0,P|192:64|192:64,2,70
96,128,39533,1,0,0:0:0:0:
96,128,39718,2,0,B|64:192|64:192|128:256,1,140
224,320,40273,1,0,0:0:0:0:
352,320,40644,2,0,B|384:256|384:256|288:288,1,140
320,160,41199,2,0,B|320:96|320:96|224:128,1,140
192,128,41755,1,0,0:0:0:0:
192,128,41940,1,0,0:0:0:0:
192,128,42125,2,0,P|32:224|238:292,1,490
320,352,43792,2,0,P|320:288|384:288,1,140
384,192,44347,1,0,0:0:0:0:
384,192,44533,1,0,0:0:0:0:
384,96,44718,2,0,B|320:64|288:96|288:96,1,70
224,96,45273,1,0,0:0:0:0:
224,96,45458,2,0,L|192:192,2,70
320,96,46384,5,0,0:0:0:0:
320,96,46755,2,0,P|352:192|352:192,2,70
224,64,47496,1,0,0:0:0:0:
224,64,47681,1,0,0:0:0:0:
224,64,47866,2,0,P|160:32|160:32,1,70
128,96,48236,2,0,P|192:128|192:128,1,70
160,192,48607,2,0,P|96:160|96:160,1,70
64,224,48977,2,0,P|128:256|128:256,1,70
384,128,49347,6,0,P|320:96|320:96,1,70
288,160,49717,2,0,P|352:192|352:192,1,70
320,256,50088,2,0,P|256:224|256:224,1,70
224,288,50458,2,0,P|288:320|288:320,1,70
160,96,51014,2,0,P|320:96|320:96,1,140
160,224,51755,1,0,0:0:0:0:
288,224,51940,1,0,0:0:0:0:
256,192,52403,12,0,53607,0:0:0:0:
169,121,53977,6,0,B|146:191|270:298|270:298,1,210
384,160,54903,1,0,0:0:0:0:
384,160,55273,2,0,B|320:128|320:128|224:128,1,140
160,96,55829,2,0,P|96:160|96:160,1,70
160,224,56199,2,0,P|224:288|224:288,1,70
288,320,56570,1,0,0:0:0:0:
416,320,56940,2,0,B|448:256|448:256|384:192|416:128,1,210
363,61,57866,1,0,0:0:0:0:
256,64,58236,2,0,B|192:64|192:64|96:96,1,140
96,192,58792,2,0,P|96:288|96:288,1,70
192,288,59162,2,0,P|288:288|288:288,1,70
352,256,59533,2,0,P|416:192|416:192,1,70
352,96,59903,5,0,0:0:0:0:
256,96,60273,1,0,0:0:0:0:
256,96,60458,2,0,B|193:116|140:200|140:200,1,140
192,256,61199,1,0,0:0:0:0:
288,256,61570,1,0,0:0:0:0:
288,256,61755,2,0,B|342:222|342:222|359:215,1,70
332,112,62310,5,0,0:0:0:0:
239,81,62681,2,0,P|175:145|175:145,1,70
108,204,63236,1,0,0:0:0:0:
192,288,63421,2,0,B|256:288|256:288|288:256|288:256|320:288,1,140
416,256,64162,1,0,0:0:0:0:
416,96,65088,2,0,P|352:64|288:128,1,140
192,96,65829,1,0,0:0:0:0:
96,160,66199,1,0,0:0:0:0:
96,160,66384,2,0,P|128:256|160:320,2,140
224,96,67496,1,0,0:0:0:0:
224,96,67681,2,0,P|288:160|288:160,1,70
288,160,68051,2,0,P|224:224|224:224,1,70
224,224,68421,2,0,P|288:288|288:288,1,70
384,256,68792,5,0,0:0:0:0:
416,160,69162,1,0,0:0:0:0:
384,64,69347,1,0,0:0:0:0:
288,64,69718,2,0,B|256:32|256:32|160:32,1,140
160,160,70458,1,0,0:0:0:0:
160,256,70644,1,0,0:0:0:0:
160,256,70736,1,0,0:0:0:0:
160,256,70829,2,0,P|256:256|256:256,1,70
320,256,71384,1,0,0:0:0:0:
384,192,71755,6,0,L|384:32,1,140
288,64,72310,1,0,0:0:0:0:
192,96,72681,2,0,P|192:256|192:256,1,140
288,288,73236,1,0,0:0:0:0:
352,288,74162,2,0,L|352:128,1,140
256,128,74718,1,0,0:0:0:0:
192,256,75088,1,0,0:0:0:0:
128,128,75458,2,0,P|32:256|32:256,1,140
256,128,76199,2,0,P|160:256|160:256,1,140
128,320,76755,5,0,0:0:0:0:
288,320,77125,1,0,0:0:0:0:
288,320,77496,2,0,L|192:320,1,70
128,192,78051,1,0,0:0:0:0:
192,128,78236,1,0,0:0:0:0:
256,64,78421,1,0,0:0:0:0:
320,160,78607,2,0,P|352:224|352:224,1,70
256,256,78977,2,0,P|288:320|288:320,1,70
256,192,79533,12,0,80458,0:0:0:0:
128,128,80829,6,0,P|192:160|192:160,1,70
352,128,81199,2,0,L|288:160,1,70
160,256,81662,1,0,0:0:0:0:
320,256,81940,1,0,0:0:0:0:
245,141,82310,1,0,0:0:0:0:
243,252,82496,1,0,0:0:0:0:
192,192,82681,2,0,P|288:192|288:192,1,70
352,160,83144,1,0,0:0:0:0:
448,160,83421,2,0,B|416:192|416:192|448:224|448:224|448:288|448:256,1,140
288,160,83977,6,0,P|224:224|224:224,1,70
160,288,84347,1,0,0:0:0:0:
160,160,84625,1,0,0:0:0:0:
160,160,84903,2,0,P|288:64|288:64,1,140
320,128,85458,2,0,P|384:192|384:192,1,70
448,224,85829,1,0,0:0:0:0:
352,288,86107,2,0,P|224:288|224:288,1,105
256,192,86940,1,0,0:0:0:0:
256,192,87033,12,0,89162,0:0:0:0:
