osu file format v14

[General]
AudioFilename: audio.mp3
AudioLeadIn: 0
PreviewTime: 67427
Countdown: 0
SampleSet: Soft
StackLeniency: 0.7
Mode: 0
LetterboxInBreaks: 0
WidescreenStoryboard: 0

[Editor]
DistanceSpacing: 0.9
BeatDivisor: 2
GridSize: 4
TimelineZoom: 1.7

[Metadata]
Title:Aoitori
TitleUnicode:アオイトリ
Artist:Miyuki Hashimoto
ArtistUnicode:橋本みゆき
Creator:KaedekaShizuru
Version:sahuang's Normal
Source:アオイトリ
Tags:purple software eroge galgame opening visual novel minakami yuki koiyuki s_o_a_p soap narcissu sahuang
BeatmapID:1425855
BeatmapSetID:670502

[Difficulty]
HPDrainRate:3
CircleSize:3.5
OverallDifficulty:4
ApproachRate:4
SliderMultiplier:0.9
SliderTickRate:1

[Events]
//Background and Video events
0,0,"ib_001.jpg",0,0
Video,250,"video.mp4"
//Break Periods
2,16503,18113
//Storyboard Layer 0 (Background)
//Storyboard Layer 1 (Fail)
//Storyboard Layer 2 (Pass)
//Storyboard Layer 3 (Foreground)
//Storyboard Sound Samples

[TimingPoints]
3783,521.684693771085,4,2,1,5,1,0
4565,-100,4,2,1,15,0,0
5087,-100,4,2,1,5,0,0
5608,-100,4,2,1,15,0,0
5869,-100,4,2,1,5,0,0
6652,-100,4,2,1,15,0,0
7434,-100,4,2,1,18,0,0
7695,-100,4,2,1,15,0,0
7956,-100,4,2,1,5,0,0
8739,-100,4,2,1,15,0,0
12129,-100,4,2,1,10,0,0
12912,-100,4,2,1,18,0,0
13434,-100,4,2,1,10,0,0
13955,-100,4,2,1,18,0,0
14216,-100,4,2,1,10,0,0
14999,-100,4,2,1,18,0,0
15520,-100,4,2,1,20,0,0
16303,-100,4,2,1,10,0,0
17316,-100,4,2,1,18,0,0
19433,521.684693771085,4,2,2,40,1,0
19433,-83.3333333333333,4,2,2,40,0,0
34040,-83.3333333333333,4,2,3,35,0,0
48647,-83.3333333333333,4,2,3,35,0,0
49560,-83.3333333333333,4,2,2,35,0,0
50734,-83.3333333333333,4,2,2,35,0,0
66906,-83.3333333333333,4,2,2,35,0,0
67427,-83.3333333333333,4,2,1,50,0,0
67949,-83.3333333333333,4,2,2,50,0,0
68601,-83.3333333333333,4,2,2,40,0,0
68732,-83.3333333333333,4,2,2,30,0,0
68862,-83.3333333333333,4,2,2,25,0,0
68993,-83.3333333333333,4,2,2,50,0,0
69253,-83.3333333333333,4,2,2,40,0,0
69514,-83.3333333333333,4,2,2,50,0,1
84121,-83.3333333333333,4,2,2,40,0,0
85426,-83.3333333333333,4,2,2,35,0,0
85556,-83.3333333333333,4,2,2,40,0,0
85686,-83.3333333333333,4,2,2,45,0,0
86208,-83.3333333333333,4,2,2,50,0,1
107076,-83.3333333333333,4,2,2,70,0,1
107988,-83.3333333333333,4,2,2,20,0,1
108119,-83.3333333333333,4,2,2,35,0,1
108380,-83.3333333333333,4,2,2,30,0,1
108510,-83.3333333333333,4,2,2,35,0,1
108641,-83.3333333333333,4,2,2,42,0,1
109162,-83.3333333333333,4,2,2,45,0,0
119596,-83.3333333333333,4,2,2,5,0,0

[Colours]
Combo1 : 255,128,0
Combo2 : 0,255,255
Combo3 : 255,0,0
Combo4 : 0,0,255
Combo5 : 128,0,255

[HitObjects]
123,240,3782,6,0,P|99:191|126:114,1,135,0|0,0:0|0:0,0:0:0:0:
181,49,5087,2,0,L|173:-10,2,45,2|0|4,0:0|0:0|0:0,0:0:0:0:
211,81,5869,2,0,P|254:99|355:72,1,135,2|4,0:0|0:0,0:0:0:0:
402,147,7173,2,0,L|463:135,2,45,4|4|4,0:0|0:0|0:0,0:0:0:0:
362,169,7956,6,0,B|336:227|378:236|355:307,1,135,2|4,0:0|0:0,0:0:0:0:
269,323,9260,2,0,L|276:374,2,45,4|0|0,0:0|0:0|0:0,0:0:0:0:
234,293,10043,2,0,L|131:287,1,90,2|0,0:0|0:0,0:0:0:0:
106,263,10825,1,2,0:0:0:0:
73,231,11086,2,0,L|78:142,1,90,2|2,0:0|0:0,0:0:0:0:
155,186,12129,6,0,P|118:131|260:103,1,270,2|0,0:0|0:0,0:0:0:0:
272,176,14216,2,0,P|235:231|377:259,1,270,2|0,0:0|0:0,0:0:0:0:
356,184,16303,5,2,0:0:0:0:
101,153,19433,6,0,L|229:144,1,107.999996704102,4|8,0:0|0:0,0:0:0:0:
257,140,20215,1,0,0:0:0:0:
321,212,20737,1,4,3:0:0:0:
321,212,20998,2,0,L|310:277,1,53.9999983520508,8|0,0:0|0:0,0:0:0:0:
347,297,21519,2,0,P|412:299|477:219,2,161.999995056153,0|0|8,1:0|0:0|0:0,0:0:0:0:
302,315,23345,1,4,3:0:0:0:
261,342,23606,6,0,P|215:333|135:348,1,107.999996704102,0|8,1:0|0:0,0:0:0:0:
109,358,24389,1,0,0:0:0:0:
109,260,24910,1,4,3:0:0:0:
109,260,25171,2,0,L|107:174,1,53.9999983520508,8|0,0:0|0:0,0:0:0:0:
138,167,25693,2,0,P|144:111|143:55,1,107.999996704102,0|8,1:0|0:0,0:0:0:0:
240,58,26736,2,0,P|239:111|245:165,1,107.999996704102,2|8,0:0|0:0,0:0:0:0:
283,196,27519,1,4,3:0:0:0:
326,220,27779,6,0,L|436:204,1,107.999996704102,0|8,1:0|0:0,0:0:0:0:
480,195,28562,1,0,0:0:0:0:
495,290,29084,1,0,0:0:0:0:
495,290,29345,2,0,P|477:347|454:367,1,53.9999983520508,8|0,0:0|0:0,0:0:0:0:
435,358,29866,2,0,B|350:356|350:356|283:309,2,161.999995056153,0|0|8,1:0|0:0|0:0,0:0:0:0:
442,309,31692,1,4,3:0:0:0:
410,271,31953,6,0,P|401:225|412:156,1,107.999996704102,0|8,1:0|0:0,0:0:0:0:
380,125,32736,2,0,L|267:112,1,107.999996704102,0|8,0:0|0:0,0:0:0:0:
227,95,33518,2,0,L|167:101,1,53.9999983520508,8|8,0:0|0:0,0:0:0:0:
132,124,34040,6,0,L|147:275,1,107.999996704102,4|2,0:0|0:0,0:0:0:0:
138,279,34822,2,0,B|220:237|214:305|298:265,1,161.999995056153,0|2,0:0|0:0,0:0:0:0:
390,255,36126,2,0,P|363:199|315:172,1,107.999996704102,8|2,0:0|0:0,0:0:0:0:
277,170,36909,2,0,L|257:36,1,107.999996704102,0|2,0:0|0:0,0:0:0:0:
291,25,37691,1,2,0:0:0:0:
373,76,38213,6,0,L|388:182,1,107.999996704102,8|2,0:0|0:0,0:0:0:0:
398,230,38996,2,0,P|394:288|278:317,1,161.999995056153,0|2,0:0|0:0,0:0:0:0:
214,305,40300,2,0,P|157:291|96:308,1,107.999996704102,0|0,0:0|0:0,0:0:0:0:
67,325,41082,2,0,L|71:197,1,107.999996704102,8|2,0:0|0:0,0:0:0:0:
46,174,41865,1,2,0:0:0:0:
107,98,42387,6,0,L|244:90,1,107.999996704102,4|2,3:0|0:0,0:0:0:0:
259,111,43169,2,0,L|400:121,1,107.999996704102,0|0,0:0|0:0,0:0:0:0:
411,138,43952,2,0,P|421:169|421:200,1,53.9999983520508,2|4,0:0|3:0,0:0:0:0:
402,234,44473,2,0,L|411:348,1,107.999996704102,4|2,3:0|0:0,0:0:0:0:
368,367,45256,1,0,0:0:0:0:
289,309,45778,2,0,L|296:248,2,53.9999983520508,2|2|4,0:0|0:0|3:0,0:0:0:0:
250,339,46560,6,0,L|118:352,1,107.999996704102,4|0,3:0|0:0,0:0:0:0:
73,280,47603,2,0,L|62:218,1,53.9999983520508,0|4,0:0|3:0,0:0:0:0:
104,199,48125,2,0,L|115:137,1,53.9999983520508,0|0,0:0|0:0,0:0:0:0:
90,102,48647,1,4,3:0:0:0:
173,51,49169,1,4,3:0:0:0:
258,97,49690,2,0,P|297:96|348:63,2,80.9999975280763,4|4|8,3:0|3:0|0:0,0:0:0:0:
225,133,50734,6,0,P|234:182|230:267,1,107.999996704102,0|8,1:0|0:0,0:0:0:0:
202,277,51516,1,0,0:0:0:0:
202,277,51777,2,0,L|321:262,1,107.999996704102,2|8,0:0|0:0,0:0:0:0:
404,283,52820,1,0,1:0:0:0:
340,355,53342,1,8,0:0:0:0:
241,357,53864,2,0,L|159:367,1,53.9999983520508,2|0,0:0|0:0,0:0:0:0:
143,341,54385,1,8,0:0:0:0:
79,267,54907,6,0,L|69:145,1,107.999996704102,4|8,3:0|0:0,0:0:0:0:
126,80,55950,2,0,P|124:49|118:8,2,53.9999983520508,2|0|8,0:0|0:0|0:0,0:0:0:0:
164,110,56733,1,0,0:0:0:0:
164,110,56994,2,0,L|273:93,1,107.999996704102,0|8,1:0|0:0,0:0:0:0:
356,139,58037,2,0,L|373:248,1,107.999996704102,2|8,0:0|0:0,0:0:0:0:
382,293,58820,1,8,0:0:0:0:
382,293,59081,6,0,P|318:275|245:281,1,107.999996704102,0|8,1:0|0:0,0:0:0:0:
251,316,59863,2,0,B|193:333|193:333|65:313,1,161.999995056153,0|8,0:0|0:0,0:0:0:0:
67,224,61167,2,0,L|211:244,1,107.999996704102,0|8,1:0|0:0,0:0:0:0:
269,221,62211,1,2,0:0:0:0:
314,203,62471,1,4,3:0:0:0:
341,162,62732,2,0,L|345:97,1,53.9999983520508,8|0,0:0|0:0,0:0:0:0:
330,61,63254,6,0,P|279:45|212:51,1,107.999996704102,0|8,1:0|0:0,0:0:0:0:
150,110,64297,2,0,P|96:112|45:96,1,107.999996704102,4|8,3:0|0:0,0:0:0:0:
6,185,65341,2,0,L|16:302,1,107.999996704102,0|8,1:0|0:0,0:0:0:0:
55,319,66123,1,0,0:0:0:0:
55,319,66384,2,0,L|46:377,2,53.9999983520508,2|4|8,0:0|3:0|0:0,0:0:0:0:
214,276,68732,6,0,L|160:272,1,53.9999983520508,0|8,0:0|0:0,0:0:0:0:
119,245,69253,1,8,0:0:0:0:
89,206,69514,6,0,P|77:137|94:76,1,107.999996704102,0|8,1:0|0:0,0:0:0:0:
122,70,70297,2,0,L|236:78,1,107.999996704102,0|4,0:0|3:0,0:0:0:0:
275,61,71079,1,8,0:0:0:0:
358,110,71601,2,0,L|368:222,1,107.999996704102,0|8,1:0|0:0,0:0:0:0:
349,261,72383,2,0,P|286:277|238:265,1,107.999996704102,0|4,0:0|3:0,0:0:0:0:
199,251,73166,2,0,L|130:262,1,53.9999983520508,8|0,0:0|0:0,0:0:0:0:
98,248,73688,5,0,1:0:0:0:
47,163,74209,2,0,P|47:127|58:99,1,53.9999983520508,8|0,0:0|0:0,0:0:0:0:
89,78,74731,2,0,L|221:62,1,107.999996704102,2|8,0:0|0:0,0:0:0:0:
240,85,75514,1,0,0:0:0:0:
240,85,75774,2,0,P|249:137|236:202,1,107.999996704102,0|8,1:0|0:0,0:0:0:0:
216,233,76557,2,0,P|278:227|336:243,1,107.999996704102,0|4,0:0|3:0,0:0:0:0:
368,253,77340,2,0,L|369:190,1,53.9999983520508,8|4,0:0|3:0,0:0:0:0:
381,152,77861,6,0,P|376:80|464:45,2,161.999995056153,0|0|8,1:0|0:0|0:0,0:0:0:0:
421,178,79687,1,0,0:0:0:0:
462,203,79948,2,0,L|463:322,1,107.999996704102,0|8,1:0|0:0,0:0:0:0:
378,357,80991,2,0,P|338:363|320:361,1,53.9999983520508,2|4,0:0|3:0,0:0:0:0:
281,339,81513,2,0,P|269:301|271:275,1,53.9999983520508,8|0,0:0|0:0,0:0:0:0:
293,244,82035,6,0,L|299:112,1,107.999996704102,0|8,1:0|0:0,0:0:0:0:
275,93,82817,2,0,B|237:75|187:83|187:83|140:62|140:62|90:93|42:94,1,215.999993408203,0|0,0:0|0:0,0:0:0:0:
35,122,84121,6,0,L|41:183,1,53.9999983520508,8|4,0:0|3:0,0:0:0:0:
41,224,84643,2,0,L|96:249,1,53.9999983520508,8|4,0:0|3:0,0:0:0:0:
132,270,85165,1,8,0:0:0:0:
226,248,85686,1,8,0:0:0:0:
226,199,85947,1,8,0:0:0:0:
266,171,86208,6,0,P|325:153|400:161,1,107.999996704102,0|8,1:0|0:0,0:0:0:0:
414,175,86991,2,0,L|406:289,1,107.999996704102,0|4,0:0|3:0,0:0:0:0:
385,326,87773,1,8,0:0:0:0:
293,291,88295,2,0,L|181:301,1,107.999996704102,0|8,1:0|0:0,0:0:0:0:
142,278,89077,2,0,P|126:215|138:167,1,107.999996704102,0|4,0:0|3:0,0:0:0:0:
164,135,89860,2,0,L|233:124,1,53.9999983520508,8|4,0:0|3:0,0:0:0:0:
265,119,90382,5,0,1:0:0:0:
353,79,90903,2,0,P|389:79|417:90,1,53.9999983520508,8|0,0:0|0:0,0:0:0:0:
437,121,91425,2,0,L|453:253,1,107.999996704102,2|8,0:0|0:0,0:0:0:0:
416,264,92208,1,0,0:0:0:0:
416,264,92468,2,0,P|364:266|318:299,1,107.999996704102,0|8,1:0|0:0,0:0:0:0:
293,338,93251,2,0,L|165:350,1,107.999996704102,0|4,0:0|3:0,0:0:0:0:
137,341,94033,2,0,L|146:280,1,53.9999983520508,8|4,0:0|3:0,0:0:0:0:
128,244,94555,6,0,P|133:172|74:105,2,161.999995056153,0|0|8,1:0|0:0|0:0,0:0:0:0:
41,199,96642,2,0,P|29:252|62:320,1,107.999996704102,0|8,1:0|0:0,0:0:0:0:
131,346,97685,2,0,L|198:334,1,53.9999983520508,2|4,0:0|3:0,0:0:0:0:
217,300,98207,2,0,L|284:312,1,53.9999983520508,8|0,0:0|0:0,0:0:0:0:
310,337,98729,6,0,L|305:229,1,107.999996704102,0|8,1:0|0:0,0:0:0:0:
330,187,99511,2,0,P|346:111|208:95,1,215.999993408203,0|0,0:0|0:0,0:0:0:0:
199,100,100815,1,0,1:0:0:0:
102,92,101337,1,8,0:0:0:0:
23,149,101859,1,2,0:0:0:0:
20,246,102380,2,0,L|36:323,1,53.9999983520508,8|8,0:0|0:0,0:0:0:0:
55,340,102902,6,0,P|109:327|182:347,1,107.999996704102,0|8,1:0|0:0,0:0:0:0:
252,366,103945,2,0,P|304:374|356:361,1,107.999996704102,2|8,0:0|0:0,0:0:0:0:
386,321,104728,1,0,0:0:0:0:
386,321,104989,2,0,P|395:268|382:216,1,107.999996704102,0|8,1:0|0:0,0:0:0:0:
285,201,106032,2,0,L|294:140,2,53.9999983520508,8|4|8,0:0|3:0|0:0,0:0:0:0:
254,239,106815,1,8,0:0:0:0:
254,239,107076,6,0,B|208:230|208:230|184:245|152:241|120:230|104:204,1,161.999995056153,4|0,0:0|0:0,0:0:0:0:
80,163,108119,1,8,0:0:0:0:
140,89,108641,2,0,L|212:79,1,53.9999983520508,8|8,0:0|0:0,0:0:0:0:
240,67,109162,6,0,L|249:195,1,107.999996704102,0|8,1:0|0:0,0:0:0:0:
295,183,109944,2,0,P|301:237|287:299,1,107.999996704102,0|4,0:0|3:0,0:0:0:0:
258,325,110727,1,8,0:0:0:0:
161,335,111248,2,0,B|104:339|58:309|58:309|0:340,2,161.999995056153,0|0|8,1:0|0:0|0:0,0:0:0:0:
193,298,113075,1,4,3:0:0:0:
204,250,113336,6,0,P|213:204|181:118,1,107.999996704102,0|8,1:0|0:0,0:0:0:0:
189,48,114379,2,0,L|125:61,1,53.9999983520508,0|4,1:0|3:0,0:0:0:0:
114,102,114901,2,0,L|50:89,1,53.9999983520508,4|4,3:0|3:0,0:0:0:0:
23,60,115422,5,4,3:0:0:0:
256,192,115683,12,0,119596,0:0:0:0:
