osu file format v14

[General]
AudioFilename: audio.mp3
AudioLeadIn: 0
PreviewTime: 67427
Countdown: 0
SampleSet: Soft
StackLeniency: 0.7
Mode: 0
LetterboxInBreaks: 0
WidescreenStoryboard: 1

[Editor]
DistanceSpacing: 1.6
BeatDivisor: 4
GridSize: 4
TimelineZoom: 1.7

[Metadata]
Title:Aoitori
TitleUnicode:アオイトリ
Artist:Miyuki Hashimoto
ArtistUnicode:橋本みゆき
Creator:KaedekaShizuru
Version:S o a p's Advanced
Source:アオイトリ
Tags:purple software eroge galgame opening visual novel minakami yuki koiyuki s_o_a_p soap narcissu sahuang
BeatmapID:1421494
BeatmapSetID:670502

[Difficulty]
HPDrainRate:4
CircleSize:4
OverallDifficulty:5
ApproachRate:6
SliderMultiplier:1.2
SliderTickRate:1

[Events]
//Background and Video events
0,0,"ev_001.jpg",0,0
Video,250,"video.mp4"
//Break Periods
2,34240,40665
//Storyboard Layer 0 (Background)
//Storyboard Layer 1 (Fail)
//Storyboard Layer 2 (Pass)
//Storyboard Layer 3 (Foreground)
//Storyboard Sound Samples

[TimingPoints]
3783,521.684693771085,4,2,1,5,1,0
4565,-100,4,2,1,15,0,0
5087,-100,4,2,1,5,0,0
5608,-100,4,2,1,15,0,0
5869,-100,4,2,1,5,0,0
6652,-100,4,2,1,15,0,0
7434,-100,4,2,1,18,0,0
7695,-100,4,2,1,15,0,0
7956,-100,4,2,1,5,0,0
8739,-100,4,2,1,15,0,0
12129,-100,4,2,1,10,0,0
12912,-100,4,2,1,18,0,0
13434,-100,4,2,1,10,0,0
13955,-100,4,2,1,18,0,0
14216,-100,4,2,1,10,0,0
14999,-100,4,2,1,18,0,0
15520,-100,4,2,1,20,0,0
16303,-100,4,2,1,10,0,0
17216,-100,4,2,1,18,0,0
19433,521.684693771085,4,2,2,40,1,0
34040,-100,4,2,3,35,0,0
48647,-100,4,2,3,35,0,0
49560,-100,4,2,2,35,0,0
50734,-100,4,2,2,35,0,0
66906,-100,4,2,2,35,0,0
67427,-80,4,2,1,50,0,0
67949,-80,4,2,2,50,0,0
68601,-80,4,2,2,40,0,0
68732,-80,4,2,2,30,0,0
68862,-80,4,2,2,25,0,0
68993,-80,4,2,2,50,0,0
69253,-80,4,2,2,40,0,0
69514,-80,4,2,2,50,0,1
84121,-80,4,2,2,40,0,0
85426,-80,4,2,2,35,0,0
85556,-80,4,2,2,40,0,0
85686,-80,4,2,2,45,0,0
86208,-80,4,2,2,50,0,1
107076,-80,4,2,2,70,0,1
107988,-80,4,2,2,20,0,1
108119,-80,4,2,2,35,0,1
108380,-80,4,2,2,30,0,1
108510,-80,4,2,2,35,0,1
108641,-80,4,2,2,42,0,1
109162,-80,4,2,2,45,0,0
119596,-80,4,2,2,5,0,0

[Colours]
Combo1 : 255,128,0
Combo2 : 0,255,255
Combo3 : 255,0,0
Combo4 : 0,0,255
Combo5 : 128,0,255

[HitObjects]
133,95,3782,5,2,0:0:0:0:
92,180,4043,1,0,0:0:0:0:
132,268,4304,1,0,0:0:0:0:
228,268,4565,1,4,0:0:0:0:
232,76,5087,2,0,L|264:20,2,60,2|0|4,0:0|0:0|0:0,0:0:0:0:
260,168,5869,5,2,0:0:0:0:
320,104,6130,2,0,L|348:48,2,60,0|0|4,0:0|0:0|0:0,0:0:0:0:
388,284,7173,2,0,L|360:348,2,60,4|4|4,0:0|0:0|0:0,0:0:0:0:
340,200,7956,5,2,0:0:0:0:
296,284,8217,2,0,L|268:348,2,60,0|0|4,0:0|0:0|0:0,0:0:0:0:
104,260,9260,1,4,0:0:0:0:
176,324,9521,1,0,0:0:0:0:
204,232,9782,1,0,0:0:0:0:
128,176,10043,6,0,L|80:128,1,60,2|0,0:0|0:0,0:0:0:0:
24,204,10564,1,0,0:0:0:0:
12,108,10825,2,0,L|16:72,3,20
96,48,11347,2,0,L|116:32,3,20
228,192,12129,5,2,0:0:0:0:
252,100,12390,1,0,0:0:0:0:
340,68,12651,1,0,0:0:0:0:
424,116,12912,1,4,0:0:0:0:
312,272,13434,2,0,L|388:276,2,60,2|0|4,0:0|0:0|0:0,0:0:0:0:
268,356,14216,5,2,0:0:0:0:
364,352,14477,2,0,L|440:356,2,60,0|0|4,0:0|0:0|0:0,0:0:0:0:
184,328,15520,5,4,0:0:0:0:
104,288,15781,1,0,0:0:0:0:
76,204,16042,1,0,0:0:0:0:
116,124,16303,2,0,L|148:92,1,30,2|0,0:0|0:0,0:0:0:0:
256,176,17216,6,0,L|256:220,1,40
360,292,19433,6,0,P|408:284|444:224,1,120,4|8,0:0|0:0,0:0:0:0:
352,192,20215,2,0,P|380:152|416:140,1,60,0|2,0:0|0:0,0:0:0:0:
484,144,20737,1,4,3:0:0:0:
436,60,20998,2,0,P|356:56|332:72,1,90,8|0,0:0|0:0,0:0:0:0:
312,92,21519,6,0,L|244:48,1,60,0|0,1:0|0:0,0:0:0:0:
180,108,22041,1,8,0:0:0:0:
256,168,22302,2,0,P|252:224|236:296,1,120,0|4,0:0|3:0,0:0:0:0:
164,228,23084,2,0,P|164:188|160:160,1,60,8|4,0:0|3:0,0:0:0:0:
100,92,23606,6,0,P|156:68|172:64,1,60,0|0,1:0|0:0,0:0:0:0:
252,72,24128,1,8,0:0:0:0:
244,168,24389,2,0,L|252:248,1,60,0|2,0:0|0:0,0:0:0:0:
332,276,24910,1,4,3:0:0:0:
348,180,25171,2,0,P|392:168|432:164,1,60,8|0,0:0|0:0,0:0:0:0:
504,160,25693,6,0,P|472:204|472:260,1,90,0|0,1:0|0:0,0:0:0:0:
464,284,26214,2,0,P|444:328|384:360,1,90,8|8,0:0|0:0,0:0:0:0:
364,340,26736,2,0,P|280:312|232:312,1,120,2|8,0:0|0:0,0:0:0:0:
156,332,27519,2,0,L|104:344,1,30,4|8,3:0|0:0,0:0:0:0:
84,320,27779,6,0,P|56:268|56:248,1,60,0|0,1:0|0:0,0:0:0:0:
64,172,28301,1,8,0:0:0:0:
148,220,28562,2,0,L|208:188,1,60,0|2,0:0|0:0,0:0:0:0:
292,160,29084,2,0,L|280:240,2,60,4|8|0,3:0|0:0|0:0,0:0:0:0:
357,89,29866,6,0,P|303:67|220:92,1,120,0|8,1:0|0:0,0:0:0:0:
184,156,30649,2,0,P|160:92|100:64,1,120,0|4,0:0|3:0,0:0:0:0:
84,156,31431,2,0,L|80:216,1,60,8|4,0:0|3:0,0:0:0:0:
168,260,31953,6,0,P|124:296|120:376,1,120,0|8,1:0|0:0,0:0:0:0:
208,340,32735,2,0,L|284:328,1,60,0|0,0:0|1:0,0:0:0:0:
324,252,33257,1,8,0:0:0:0:
416,220,33518,1,8,0:0:0:0:
480,292,33779,1,8,0:0:0:0:
388,324,34040,5,4,0:0:0:0:
136,72,41865,6,0,B|116:100|115:115|103:143,1,60,2|0,0:0|0:0,0:0:0:0:
112,224,42387,2,0,P|184:188|240:184,1,120,4|2,3:0|0:0,0:0:0:0:
312,152,43169,2,0,P|308:204|308:284,1,120,0|0,0:0|0:0,0:0:0:0:
396,312,43952,1,2,0:0:0:0:
464,244,44213,1,4,3:0:0:0:
412,164,44473,6,0,P|380:80|372:40,1,120,4|2,3:0|0:0,0:0:0:0:
292,104,45256,2,0,P|220:88|160:108,1,120,0|2,0:0|0:0,0:0:0:0:
86,124,46038,2,0,L|58:56,1,60,0|4,0:0|3:0,0:0:0:0:
0,140,46560,6,0,P|30:193|86:212,1,120,4|0,3:0|0:0,0:0:0:0:
176,208,47343,1,0,0:0:0:0:
140,296,47603,2,0,P|204:292|272:292,1,120,0|0,0:0|0:0,0:0:0:0:
356,284,48386,6,0,L|352:324,2,30,0|0|4,0:0|0:0|3:0,0:0:0:0:
404,92,49169,1,4,3:0:0:0:
216,48,49690,2,0,L|100:40,1,90,4|4,3:0|3:0,0:0:0:0:
216,156,50473,1,8,0:0:0:0:
124,136,50734,6,0,P|116:212|116:272,1,120,0|8,1:0|0:0,0:0:0:0:
72,340,51516,1,0,0:0:0:0:
167,332,51777,2,0,P|244:327|277:297,1,120,2|8,0:0|0:0,0:0:0:0:
200,244,52559,1,0,0:0:0:0:
294,208,52820,6,0,P|352:240|364:314,1,120,0|8,1:0|0:0,0:0:0:0:
468,260,53603,1,0,0:0:0:0:
420,176,53864,2,0,P|420:132|424:108,2,60,2|0|8,0:0|0:0|0:0,0:0:0:0:
324,192,54646,1,0,0:0:0:0:
304,100,54907,6,0,P|236:88|164:84,1,120,4|8,3:0|0:0,0:0:0:0:
92,60,55690,1,0,0:0:0:0:
56,148,55950,2,0,P|52:192|56:224,1,60,2|0,0:0|0:0,0:0:0:0:
144,236,56472,2,0,P|145:206|141:176,1,60,8|0,0:0|0:0,0:0:0:0:
236,196,56994,6,0,B|312:176|408:176|408:176|372:196|388:248,1,240,0|2,1:0|0:0,0:0:0:0:
428,312,58298,1,0,0:0:0:0:
340,324,58559,1,0,0:0:0:0:
340,324,58689,1,0,0:0:0:0:
340,324,58820,1,0,0:0:0:0:
248,356,59081,6,0,P|232:300|188:236,1,120,0|8,1:0|0:0,0:0:0:0:
152,164,59863,2,0,P|112:212|108:292,1,120,0|4,0:0|3:0,0:0:0:0:
184,324,60646,2,0,L|248:308,1,60,8|0,0:0|0:0,0:0:0:0:
292,228,61167,6,0,P|364:220|432:216,1,120,0|8,1:0|0:0,0:0:0:0:
484,284,61950,2,0,L|516:148,1,120,0|4,0:0|3:0,0:0:0:0:
424,132,62732,1,8,0:0:0:0:
496,68,62993,1,0,0:0:0:0:
408,32,63254,6,0,L|332:36,1,60,0|0,1:0|0:0,0:0:0:0:
252,20,63776,1,8,0:0:0:0:
172,76,64037,2,0,P|100:96|40:96,1,120
28,188,64819,1,8,0:0:0:0:
88,264,65080,1,0,0:0:0:0:
184,276,65341,6,0,P|178:218|128:181,1,120,0|8,1:0|0:0,0:0:0:0:
188,104,66123,1,0,0:0:0:0:
272,156,66384,2,0,P|340:156|404:136,1,120,2|8,0:0|0:0,0:0:0:0:
252,344,67427,5,4,0:0:0:0:
384,88,68732,5,8,0:0:0:0:
340,196,68993,2,0,L|364:280,1,75,8|8,0:0|0:0,0:0:0:0:
244,244,69514,6,0,P|176:232|88:228,1,150,0|8,1:0|0:0,0:0:0:0:
172,132,70297,2,0,P|268:132|324:116,1,150,0|4,0:0|3:0,0:0:0:0:
424,48,71079,1,8,0:0:0:0:
476,156,71340,6,0,L|460:240,1,75,0|0,0:0|1:0,0:0:0:0:
368,304,71862,1,0,0:0:0:0:
248,300,72123,1,8,0:0:0:0:
128,320,72383,2,0,P|60:284|44:184,1,150,0|4,0:0|3:0,0:0:0:0:
132,144,73166,1,8,0:0:0:0:
244,192,73427,1,0,0:0:0:0:
244,192,73557,1,0,0:0:0:0:
244,192,73688,6,0,P|308:172|400:168,1,150,0|8,1:0|0:0,0:0:0:0:
380,288,74470,1,0,0:0:0:0:
484,228,74731,2,0,L|496:132,1,75,2|4,0:0|3:0,0:0:0:0:
416,60,75253,2,0,P|376:76|340:76,1,75,8|0,0:0|0:0,0:0:0:0:
228,44,75774,6,0,P|216:100|212:128,1,75,0|0,1:0|0:0,0:0:0:0:
308,192,76296,1,8,0:0:0:0:
192,216,76557,2,0,P|132:184|120:88,1,150,0|4,0:0|3:0,0:0:0:0:
28,196,77340,1,8,0:0:0:0:
100,292,77600,1,0,0:0:0:0:
100,292,77731,1,0,0:0:0:0:
100,292,77861,6,0,P|175:301|249:318,1,150,0|8,1:0|0:0,0:0:0:0:
352,380,78644,2,0,P|368:309|367:289,1,75,0|2,0:0|0:0,0:0:0:0:
448,220,79165,2,0,P|404:188|300:227,1,150,4|0,3:0|0:0,0:0:0:0:
204,172,79948,6,0,P|210:208|210:246,1,75,0|0,1:0|0:0,0:0:0:0:
284,340,80470,1,8,0:0:0:0:
164,336,80730,2,0,P|100:312|16:300,1,150,0|4,0:0|3:0,0:0:0:0:
112,220,81513,2,0,P|92:180|80:140,1,75,8|0,0:0|0:0,0:0:0:0:
204,164,82035,6,0,P|264:164|292:160,1,75,0|0,1:0|0:0,0:0:0:0:
320,276,82556,1,8,0:0:0:0:
384,176,82817,2,0,P|380:108|388:24,1,150,0|4,0:0|3:0,0:0:0:0:
272,60,83600,2,0,L|200:96,1,75,8|0,0:0|0:0,0:0:0:0:
96,48,84121,5,8,0:0:0:0:
296,180,84643,1,8,0:0:0:0:
60,224,85165,1,8,0:0:0:0:
260,352,85686,1,8,0:0:0:0:
428,180,86208,6,0,P|436:228|444:348,1,150,0|8,1:0|0:0,0:0:0:0:
340,272,86991,2,0,P|332:224|324:104,1,150,0|4,0:0|3:0,0:0:0:0:
400,32,87773,1,8,0:0:0:0:
280,28,88034,1,0,0:0:0:0:
204,120,88295,6,0,P|172:64|160:32,1,75,0|0,1:0|0:0,0:0:0:0:
48,72,88817,1,8,0:0:0:0:
112,172,89077,2,0,P|108:236|92:328,1,150,0|4,0:0|3:0,0:0:0:0:
216,324,89860,1,8,0:0:0:0:
312,248,90121,1,0,0:0:0:0:
312,248,90251,1,0,0:0:0:0:
312,248,90382,6,0,P|408:248|476:224,1,150,0|8,1:0|0:0,0:0:0:0:
404,124,91164,1,0,0:0:0:0:
300,64,91425,2,0,P|232:116|168:96,1,150,2|8,0:0|0:0,0:0:0:0:
68,44,92208,1,0,0:0:0:0:
88,160,92468,6,0,P|80:224|80:260,1,75,0|0,1:0|0:0,0:0:0:0:
152,332,92990,1,8,0:0:0:0:
208,224,93251,2,0,P|264:264|276:352,1,150,0|4,0:0|3:0,0:0:0:0:
392,296,94033,1,8,0:0:0:0:
432,184,94294,1,0,0:0:0:0:
432,184,94425,1,0,0:0:0:0:
432,184,94555,6,0,P|360:147|308:96,1,150,0|8,1:0|0:0,0:0:0:0:
212,172,95338,2,0,P|184:104|100:56,1,150,0|4,0:0|3:0,0:0:0:0:
100,180,96120,2,0,P|124:260|120:280,1,75,8|0,0:0|0:0,0:0:0:0:
228,312,96642,6,0,P|264:240|336:208,1,150,0|8,1:0|0:0,0:0:0:0:
416,132,97424,2,0,P|416:212|432:284,1,150,0|4,0:0|3:0,0:0:0:0:
320,328,98207,1,8,0:0:0:0:
204,304,98468,1,0,0:0:0:0:
124,216,98729,6,0,P|112:272|112:312,1,75,0|0,1:0|0:0,0:0:0:0:
8,228,99250,1,8,0:0:0:0:
44,112,99511,2,0,P|104:104|208:80,1,150,0|4,0:0|3:0,0:0:0:0:
312,100,100294,1,8,0:0:0:0:
408,28,100554,1,0,0:0:0:0:
448,140,100815,6,0,P|448:188|436:296,1,150,0|8,1:0|0:0,0:0:0:0:
212,380,101859,2,0,P|212:304|222:230,1,150,2|8,0:0|0:0,0:0:0:0:
160,128,102641,1,0,0:0:0:0:
160,128,102772,1,0,0:0:0:0:
160,128,102902,6,0,P|92:136|72:132,1,75,0|0,1:0|0:0,0:0:0:0:
20,36,103424,2,0,P|76:24|108:24,1,75,8|0,0:0|0:0,0:0:0:0:
212,48,103945,2,0,P|272:40|292:40,1,75,2|4,0:0|3:0,0:0:0:0:
352,140,104467,1,8,0:0:0:0:
328,256,104728,5,0,0:0:0:0:
328,256,104858,1,0,0:0:0:0:
328,256,104989,2,0,P|404:256|448:192,1,150,0|8,1:0|0:0,0:0:0:0:
256,192,105641,12,4,107076,0:0:0:0:
96,296,107858,6,0,P|80:244|104:144,1,150,0|8,0:0|0:0,0:0:0:0:
220,152,108641,2,0,P|205:186|188:219,1,75,8|8,0:0|0:0,0:0:0:0:
216,336,109162,6,0,P|284:307|358:314,1,150,0|8,1:0|0:0,0:0:0:0:
476,284,109945,1,0,0:0:0:0:
376,220,110206,2,0,P|324:200|284:180,1,75,2|4,0:0|3:0,0:0:0:0:
208,264,110727,1,0,0:0:0:0:
220,144,110988,1,0,0:0:0:0:
124,216,111249,6,0,P|100:136|124:72,1,150,0|8,1:0|0:0,0:0:0:0:
240,56,112032,2,0,P|304:64|388:56,1,150,0|4,0:0|3:0,0:0:0:0:
488,124,112814,2,0,P|460:192|456:220,1,75,8|4,0:0|3:0,0:0:0:0:
340,172,113336,6,0,P|344:228|352:328,1,150,0|8,1:0|0:0,0:0:0:0:
240,276,114118,1,0,0:0:0:0:
156,364,114379,1,0,1:0:0:0:
64,284,114640,1,4,3:0:0:0:
148,196,114901,1,4,3:0:0:0:
112,80,115162,1,4,3:0:0:0:
24,164,115422,5,4,3:0:0:0:
256,192,115553,12,0,119596,0:0:0:0:
