osu file format v14

[General]
AudioFilename: audio.mp3
AudioLeadIn: 0
PreviewTime: 67427
Countdown: 0
SampleSet: Soft
StackLeniency: 0.7
Mode: 0
LetterboxInBreaks: 0
WidescreenStoryboard: 1

[Editor]
DistanceSpacing: 1.2
BeatDivisor: 4
GridSize: 4
TimelineZoom: 1.2

[Metadata]
Title:Aoitori
TitleUnicode:アオイトリ
Artist:Miyuki Hashimoto
ArtistUnicode:橋本みゆき
Creator:KaedekaShizuru
Version:Narcissu's Hard
Source:アオイトリ
Tags:purple software eroge galgame opening visual novel minakami yuki koiyuki s_o_a_p soap narcissu sahuang
BeatmapID:1425198
BeatmapSetID:670502

[Difficulty]
HPDrainRate:5
CircleSize:4
OverallDifficulty:6
ApproachRate:7
SliderMultiplier:1
SliderTickRate:1

[Events]
//Background and Video events
0,0,"2.jpg",0,0
Video,250,"video.mp4"
//Break Periods
2,34240,35226
2,36326,37313
2,38413,39400
//Storyboard Layer 0 (Background)
//Storyboard Layer 1 (Fail)
//Storyboard Layer 2 (Pass)
//Storyboard Layer 3 (Foreground)
//Storyboard Sound Samples

[TimingPoints]
3783,521.684693771085,4,2,16,20,1,0
10825,-100,4,2,16,10,0,0
12129,-100,4,2,16,20,0,0
17216,-100,4,2,16,10,0,0
17477,-100,4,2,16,20,0,0
19433,521.684693771085,4,2,16,60,1,0
19433,-62.5,4,2,16,60,0,0
34040,-71.4285714285714,4,2,16,40,0,0
49690,-62.5,4,2,16,60,0,0
69514,-58.1395348837209,4,2,16,72,0,1
86078,-58.1395348837209,4,2,16,72,0,0
86208,-58.1395348837209,4,2,16,72,0,1
107076,-58.1395348837209,4,2,16,72,0,0
109162,-62.5,4,2,16,60,0,1
109293,-62.5,4,2,16,60,0,0
114901,-62.5,4,2,16,50,0,0
115422,-62.5,4,2,16,40,0,0
116466,-62.5,4,2,16,35,0,0
117509,-62.5,4,2,16,30,0,0
118553,-62.5,4,2,16,20,0,0
119596,-62.5,4,2,16,10,0,0

[Colours]
Combo1 : 255,128,255
Combo2 : 128,255,255
Combo3 : 255,255,128
Combo4 : 128,128,255

[HitObjects]
420,32,3782,5,2,0:0:0:0:
340,92,4043,1,2,0:0:0:0:
224,60,4304,1,2,0:0:0:0:
340,92,4565,6,0,P|352:140|343:188,1,100,2|2,0:1|0:0,0:0:0:0:
260,244,5348,1,2,0:0:0:0:
434,232,5608,6,0,P|398:266|351:283,1,100,2|2,0:1|0:0,0:0:0:0:
260,244,6391,1,2,0:0:0:0:
180,300,6652,1,2,0:1:0:0:
180,300,7173,6,0,L|176:356,2,50,2|2|2,0:0|0:0|0:0,0:0:0:0:
121,148,7957,5,2,0:0:0:0:
256,236,8218,1,2,0:0:0:0:
95,245,8479,1,2,0:0:0:0:
221,143,8739,6,0,P|236:100|232:36,1,100,2|2,0:1|0:0,0:0:0:0:
136,28,9521,1,2,0:0:0:0:
332,64,9782,1,2,0:0:0:0:
221,143,10043,6,0,P|219:192|234:239,1,100,2|2,0:1|0:0,0:0:0:0:
316,276,10825,2,0,L|320:308,3,16.6666666666667,2|2|2|2,0:0|0:0|0:0|0:1,0:0:0:0:
160,288,11347,2,0,L|128:292,3,16.6666666666667,2|2|2|2,0:0|0:0|0:0|0:1,0:0:0:0:
364,192,12129,21,2,0:0:0:0:
472,224,12390,1,2,0:0:0:0:
364,192,12651,1,2,0:0:0:0:
472,224,12912,6,0,L|464:112,1,100,2|2,0:1|0:0,0:0:0:0:
356,92,13695,1,2,0:0:0:0:
364,192,13955,6,0,L|356:80,1,100,2|2,0:1|0:0,0:0:0:0:
248,60,14738,1,2,0:0:0:0:
256,160,14999,1,2,0:1:0:0:
256,160,15520,6,0,L|188:144,2,50,2|2|2,0:0|0:0|0:0,0:0:0:0:
456,24,16303,1,2,0:3:0:0:
248,60,17216,2,0,L|246:39,2,16.6666666666667,2|2|2,0:0|0:0|0:0,0:0:0:0:
372,64,19433,6,0,B|404:100|404:100|416:224,1,160,6|8,1:0|0:1,0:0:0:0:
318,332,20215,1,2,0:0:0:0:
318,332,20345,1,2,1:0:0:0:
318,332,20476,2,0,P|317:292|332:256,1,80,2|2,0:0|0:0,0:0:0:0:
296,120,20998,2,0,L|216:116,1,80,8|2,0:1|0:0,0:0:0:0:
69,270,21519,6,0,P|147:269|200:212,1,160,2|8,1:0|0:1,0:0:0:0:
114,101,22302,1,2,0:0:0:0:
114,101,22432,1,2,1:0:0:0:
114,101,22563,2,0,B|104:132|104:132|108:180,1,80,2|2,0:0|0:0,0:0:0:0:
292,240,23084,1,8,0:1:0:0:
284,144,23345,1,2,0:0:0:0:
208,286,23606,6,0,P|171:302|132:304,1,80,0|2,1:0|0:0,0:0:0:0:
383,263,24128,2,0,P|422:264|459:280,1,80,8|2,1:0|0:0,0:0:0:0:
304,344,24649,1,2,0:0:0:0:
304,344,24780,1,2,1:0:0:0:
304,344,24910,1,2,0:0:0:0:
244,160,25171,1,8,0:1:0:0:
384,224,25432,1,2,0:0:0:0:
179,263,25693,6,0,P|130:202|127:124,1,160,6|8,3:0|0:1,0:0:0:0:
292,244,26475,1,0,0:0:0:0:
388,304,26736,2,0,P|461:275|503:209,1,160,2|8,0:0|0:1,0:0:0:0:
289,86,27519,1,2,0:0:0:0:
289,86,27649,1,2,0:0:0:0:
289,86,27779,6,0,B|297:138|297:138|285:202|285:202|293:250,1,160,6|8,1:0|0:1,0:0:0:0:
200,141,28562,2,0,P|123:153|76:216,1,160,2|0,1:0|1:0,0:0:0:0:
148,360,29345,1,8,0:1:0:0:
184,252,29605,1,2,0:0:0:0:
392,292,29866,6,0,P|322:330|243:327,1,160,2|8,1:0|0:1,0:0:0:0:
460,224,30649,1,2,0:0:0:0:
460,224,30779,1,2,1:0:0:0:
460,224,30910,2,0,P|481:257|488:296,1,80,2|0,0:0|0:0,0:0:0:0:
300,232,31431,2,0,P|306:192|328:159,1,80,8|0,0:1|0:0,0:0:0:0:
443,65,31953,5,2,1:0:0:0:
320,128,32214,1,2,1:0:0:0:
180,48,32475,1,10,0:1:0:0:
312,100,32735,1,2,0:0:0:0:
312,100,32866,1,2,0:0:0:0:
312,100,32996,5,2,0:0:0:0:
360,17,33257,1,2,0:1:0:0:
396,149,33518,1,2,0:1:0:0:
443,65,33779,1,2,0:1:0:0:
312,100,34040,5,2,0:3:0:0:
184,80,36126,5,2,0:0:0:0:
340,260,38213,5,2,0:1:0:0:
172,312,40300,6,0,L|180:160,1,139.999995727539,0|2,3:0|0:0,0:0:0:0:
388,192,41082,2,0,L|396:344,1,139.999995727539,2|2,0:3|0:0,0:0:0:0:
288,280,41865,2,0,L|284:240,2,34.9999989318848,0|0|0,3:0|3:0|3:0,0:0:0:0:
272,140,42387,6,0,P|228:180|124:180,1,139.999995727539,0|2,3:0|0:0,0:0:0:0:
112,111,43169,2,0,P|66:163|73:230,1,139.999995727539,2|2,0:0|0:0,0:0:0:0:
8,284,43952,2,0,P|32:304|92:312,1,69.9999978637696,2|0,0:0|3:0,0:0:0:0:
112,308,44343,1,0,3:0:0:0:
112,308,44473,6,0,P|184:308|248:356,1,139.999995727539,0|2,3:0|0:0,0:0:0:0:
304,288,45256,2,0,B|336:312|336:312|460:308,1,139.999995727539,2|2,0:0|0:0,0:0:0:0:
448,224,46038,1,2,0:0:0:0:
460,140,46299,1,2,0:0:0:0:
366,7,46560,6,0,L|376:148,1,139.999995727539,0|2,3:0|0:0,0:0:0:0:
292,160,47343,1,2,0:0:0:0:
292,160,47473,1,2,0:0:0:0:
292,160,47603,2,0,L|212:156,1,69.9999978637696,2|0,0:0|3:0,0:0:0:0:
128,72,48125,2,0,L|198:76,1,69.9999978637696,2|0,0:0|3:0,0:0:0:0:
320,68,48647,6,0,B|332:32|332:32|336:-16,1,69.9999978637696,2|0,1:0|0:0,0:0:0:0:
120,184,49169,2,0,B|124:218|124:218|136:251,1,69.9999978637696,2|0,1:0|0:0,0:0:0:0:
292,160,49690,1,2,1:0:0:0:
292,160,49821,1,2,1:0:0:0:
292,160,49951,1,8,0:1:0:0:
280,256,50212,1,2,1:0:0:0:
280,256,50343,1,2,1:0:0:0:
280,256,50473,1,8,0:1:0:0:
223,334,50734,6,0,P|300:346|364:301,1,160,6|10,0:0|0:1,0:0:0:0:
456,320,51516,1,2,0:0:0:0:
368,204,51777,2,0,P|363:162|372:112,1,80,2|0,0:0|0:0,0:0:0:0:
272,116,52299,2,0,P|288:77|321:38,1,80,10|0,0:1|0:0,0:0:0:0:
144,88,52820,6,0,P|184:140|192:212,1,120,2|2,0:0|0:0,0:0:0:0:
193,192,53342,2,0,P|180:240|180:288,1,80,10|2,0:1|0:0,0:0:0:0:
272,252,53864,1,2,0:0:0:0:
272,252,53994,1,2,0:0:0:0:
272,252,54125,1,2,0:0:0:0:
80,260,54385,2,0,P|89:298|106:334,1,80,10|2,0:1|0:0,0:0:0:0:
272,252,54907,6,0,P|352:248|428:300,1,160,2|10,0:0|0:1,0:0:0:0:
508,168,55690,1,2,0:0:0:0:
508,168,55820,1,2,0:0:0:0:
508,168,55950,2,0,P|464:180|416:180,1,80,2|2,0:0|0:0,0:0:0:0:
511,36,56472,2,0,P|484:64|450:86,1,80,10|2,0:1|0:0,0:0:0:0:
224,116,56994,5,2,3:2:0:0:
336,24,57255,1,2,3:2:0:0:
352,120,57515,1,10,0:1:0:0:
216,20,57776,1,2,3:2:0:0:
80,128,58037,1,2,1:0:0:0:
224,116,58298,1,0,0:0:0:0:
96,32,58559,1,10,1:0:0:0:
96,32,58689,1,2,1:0:0:0:
96,32,58820,1,2,1:0:0:0:
64,220,59081,6,0,L|244:228,1,160,6|10,0:0|0:1,0:0:0:0:
176,324,59863,2,0,L|360:312,1,160,2|2,0:0|0:0,0:0:0:0:
432,308,60646,1,10,0:1:0:0:
476,152,60906,1,2,0:0:0:0:
476,152,61037,1,2,0:0:0:0:
476,152,61167,6,0,L|308:148,1,160,2|10,3:2|0:1,0:0:0:0:
153,187,61950,2,0,P|190:174|220:148,1,80,2|0,0:0|0:0,0:0:0:0:
212,52,62471,1,2,0:0:0:0:
316,148,62732,1,10,0:1:0:0:
220,148,62993,1,2,0:0:0:0:
361,61,63254,6,0,P|405:127|393:204,1,160,6|10,0:0|0:1,0:0:0:0:
451,323,64037,2,0,P|376:299|297:309,2,160,2|2|2,0:0|0:0|0:0,0:0:0:0:
428,152,65341,6,0,P|349:161|273:137,1,160,2|10,1:0|0:1,0:0:0:0:
296,232,66123,1,2,1:2:0:0:
296,232,66254,1,2,3:2:0:0:
181,158,66515,1,2,3:2:0:0:
181,158,66645,1,2,1:2:0:0:
201,252,66906,1,8,0:1:0:0:
201,252,67427,6,0,P|161:251|114:227,1,80,2|0,3:0|0:0,0:0:0:0:
264,110,67949,1,8,0:1:0:0:
296,262,68210,5,2,1:0:0:0:
296,262,68340,1,2,1:0:0:0:
296,262,68471,1,8,0:1:0:0:
181,158,68732,1,2,1:0:0:0:
181,158,68862,1,2,1:0:0:0:
181,158,68993,1,8,0:1:0:0:
335,175,69253,1,2,1:0:0:0:
335,175,69383,1,2,1:0:0:0:
335,175,69514,6,0,P|428:160|488:84,1,172.000002624512,6|8,1:0|0:1,0:0:0:0:
180,251,70297,2,0,P|96:241|35:182,1,172.000002624512,2|0,1:0|1:0,0:0:0:0:
284,268,71079,2,0,P|312:304|324:344,1,86.0000013122559,10|2,0:1|0:0,0:0:0:0:
80,276,71601,5,4,1:2:0:0:
228,144,71862,1,2,1:2:0:0:
184,296,72123,1,8,0:1:0:0:
24,148,72383,1,2,0:0:0:0:
24,148,72514,1,2,0:0:0:0:
24,148,72644,2,0,P|74:151|116:168,1,86.0000013122559,2|2,1:0|0:0,0:0:0:0:
376,224,73166,2,0,P|335:237|292:239,1,86.0000013122559,10|2,1:0|0:0,0:0:0:0:
236,1,73688,6,0,P|251:84|220:164,1,172.000002624512,2|8,1:3|0:1,0:0:0:0:
116,224,74470,1,2,0:0:0:0:
116,224,74601,1,2,1:0:0:0:
116,224,74731,2,0,B|120:312|120:312|144:356,1,129.000001968384,0|0,1:0|1:0,0:0:0:0:
139,347,75253,2,0,P|180:336|248:344,1,86.0000013122559,8|0,1:0|0:0,0:0:0:0:
452,260,75774,5,2,1:0:0:0:
248,232,76035,1,0,1:0:0:0:
396,352,76296,1,10,0:1:0:0:
272,128,76557,1,2,1:2:0:0:
223,337,76818,1,2,0:1:0:0:
452,260,77079,1,2,1:2:0:0:
284,150,77340,1,10,0:1:0:0:
116,284,77600,1,2,1:0:0:0:
116,284,77731,1,2,1:0:0:0:
116,284,77861,6,0,P|72:211|73:126,1,172.000002624512,6|10,1:0|0:1,0:0:0:0:
284,150,78644,2,0,P|246:169|204:176,1,86.0000013122559,2|2,1:0|0:0,0:0:0:0:
64,16,79165,2,0,P|106:22|144:41,1,86.0000013122559,2|10,1:0|1:0,0:0:0:0:
116,284,79687,1,2,0:0:0:0:
116,284,79818,1,2,0:0:0:0:
116,284,79948,5,2,1:2:0:0:
72,128,80209,1,2,1:2:0:0:
272,148,80470,1,8,0:1:0:0:
200,224,80730,2,0,B|172:180|172:180|164:48,1,172.000002624512,2|0,1:0|1:0,0:0:0:0:
460,92,81513,2,0,L|452:196,1,86.0000013122559,10|2,0:1|0:0,0:0:0:0:
276,340,82035,6,0,P|344:304|440:324,1,172.000002624512,2|8,1:3|0:1,0:0:0:0:
328,212,82817,2,0,L|321:126,1,86.0000013122559,0|0,1:0|0:0,0:0:0:0:
448,220,83339,1,2,0:0:0:0:
448,220,83469,1,2,0:0:0:0:
448,220,83600,1,10,0:1:0:0:
208,204,83861,1,10,0:1:0:0:
321,126,84121,6,0,L|324:160,1,21.500000328064,6|0,0:0|0:0,0:0:0:0:
0,276,84643,2,0,L|4:240,1,21.500000328064,6|0,0:0|0:0,0:0:0:0:
288,292,85165,5,0,1:0:0:0:
288,292,85295,1,0,1:0:0:0:
288,292,85426,2,0,L|272:240,1,43.0000006561279,8|0,0:1|3:0,0:0:0:0:
360,240,85686,1,0,1:0:0:0:
360,240,85817,1,0,1:0:0:0:
360,240,85947,2,0,L|352:184,1,43.0000006561279,8|0,0:1|3:0,0:0:0:0:
406,317,86208,6,0,B|444:284|444:284|452:140,1,172.000002624512,6|10,1:0|0:1,0:0:0:0:
80,104,86991,2,0,L|92:300,1,172.000002624512,2|0,1:0|1:0,0:0:0:0:
308,232,87773,2,0,L|222:224,1,86.0000013122559,10|2,0:1|0:0,0:0:0:0:
90,275,88295,5,4,1:2:0:0:
204,120,88556,1,2,1:2:0:0:
240,332,88817,1,8,0:1:0:0:
316,200,89077,1,2,0:0:0:0:
316,200,89208,1,2,0:0:0:0:
316,200,89338,2,0,P|359:201|415:181,1,86.0000013122559,2|2,1:0|0:0,0:0:0:0:
132,236,89860,2,0,P|90:224|48:225,1,86.0000013122559,10|2,0:1|0:0,0:0:0:0:
212,172,90382,6,0,P|227:89|196:9,1,172.000002624512,2|8,1:3|0:1,0:0:0:0:
132,236,91164,1,2,0:0:0:0:
132,236,91295,1,2,1:0:0:0:
132,236,91425,2,0,P|128:304|160:356,1,129.000001968384,0|0,1:0|1:0,0:0:0:0:
158,354,91947,2,0,L|267:351,1,86.0000013122559,8|0,1:0|0:0,0:0:0:0:
436,344,92468,5,2,1:0:0:0:
232,204,92729,1,0,1:0:0:0:
432,132,92990,1,10,0:1:0:0:
356,240,93251,1,2,1:2:0:0:
308,52,93512,1,2,0:1:0:0:
356,240,93773,1,2,1:2:0:0:
308,52,94034,1,10,0:1:0:0:
176,104,94294,1,2,1:0:0:0:
176,104,94425,1,2,1:0:0:0:
176,104,94555,6,0,P|96:92|-4:132,1,172.000002624512,6|10,1:0|0:1,0:0:0:0:
84,340,95338,2,0,L|91:254,1,86.0000013122559,2|2,1:0|0:0,0:0:0:0:
280,56,95859,2,0,L|288:161,1,86.0000013122559,2|10,1:0|1:0,0:0:0:0:
304,312,96381,1,2,0:0:0:0:
304,312,96512,1,2,0:0:0:0:
304,312,96642,5,2,1:2:0:0:
204,328,96903,1,2,1:2:0:0:
408,296,97164,1,8,0:1:0:0:
304,312,97424,2,0,B|308:124,1,172.000002624512,2|0,1:0|1:0,0:0:0:0:
104,288,98207,2,0,L|8:296,1,86.0000013122559,10|2,0:1|0:0,0:0:0:0:
116,40,98729,6,0,P|168:92|172:212,1,172.000002624512,2|8,1:3|0:1,0:0:0:0:
312,104,99511,2,0,L|400:112,1,86.0000013122559,0|0,1:0|0:0,0:0:0:0:
192,196,100033,1,2,0:0:0:0:
192,196,100163,1,2,0:0:0:0:
192,196,100294,1,10,0:1:0:0:
256,24,100555,1,10,0:1:0:0:
397,111,100815,6,0,P|407:152|408:195,1,86.0000013122559,2|2,1:0|1:0,0:0:0:0:
95,127,101337,2,0,P|95:85|106:43,1,86.0000013122559,10|2,0:1|0:0,0:0:0:0:
280,176,101859,5,2,0:0:0:0:
280,176,101989,1,2,0:0:0:0:
280,176,102120,2,0,L|284:232,1,43.0000006561279,10|0,0:1|0:0,0:0:0:0:
192,196,102380,1,2,0:0:0:0:
192,196,102511,1,2,0:0:0:0:
192,196,102641,2,0,L|184:268,1,43.0000006561279,10|0,0:1|0:0,0:0:0:0:
92,260,102902,6,0,P|179:271|239:339,1,172.000002624512,6|10,0:0|0:1,0:0:0:0:
455,203,103685,2,0,P|368:192|308:124,1,172.000002624512,2|0,1:0|1:0,0:0:0:0:
300,32,104467,1,10,0:1:0:0:
208,128,104728,1,2,0:0:0:0:
208,128,104858,1,2,0:0:0:0:
208,128,104989,5,2,0:0:0:0:
324,236,105250,1,2,0:0:0:0:
336,48,105510,1,10,0:1:0:0:
104,112,105771,5,2,1:2:0:0:
104,112,105902,1,2,3:2:0:0:
328,140,106163,1,2,3:2:0:0:
328,140,106293,1,2,1:2:0:0:
124,228,106554,1,10,0:1:0:0:
320,280,106815,1,2,0:0:0:0:
320,280,106945,1,2,0:0:0:0:
320,280,107076,5,6,3:0:0:0:
392,216,108119,1,0,1:0:0:0:
392,216,108249,1,0,1:0:0:0:
392,216,108380,2,0,L|396:160,1,43.0000006561279,8|0,0:1|3:0,0:0:0:0:
308,196,108641,1,0,1:0:0:0:
308,196,108771,1,0,1:0:0:0:
308,196,108901,2,0,L|304:140,1,43.0000006561279,8|0,0:1|3:0,0:0:0:0:
232,232,109162,6,0,P|166:267|60:252,1,160,6|8,1:0|0:1,0:0:0:0:
72,168,109945,1,2,0:0:0:0:
72,168,110075,1,2,1:0:0:0:
72,168,110206,2,0,L|64:84,1,80,2|2,0:0|0:0,0:0:0:0:
232,232,110728,2,0,L|228:312,1,80,8|2,0:1|0:0,0:0:0:0:
168,120,111249,6,0,B|208:92|208:92|328:84,1,160,2|8,1:0|0:1,0:0:0:0:
456,28,112032,1,2,0:0:0:0:
456,28,112162,1,2,1:0:0:0:
456,28,112293,2,0,B|462:107,1,80,2|2,0:0|0:0,0:0:0:0:
316,180,112814,1,8,0:1:0:0:
318,84,113075,1,2,0:0:0:0:
396,240,113336,6,0,P|320:224|232:256,1,160,0|10,1:0|0:1,0:0:0:0:
172,316,114118,1,2,0:0:0:0:
172,316,114249,1,2,0:0:0:0:
172,316,114379,6,0,P|132:328|76:324,1,80,0|0,1:0|1:0,0:0:0:0:
46,207,114901,2,0,P|81:226|120:236,1,80,0|0,1:0|1:0,0:0:0:0:
116,140,115422,1,2,1:0:0:0:
256,192,115683,12,0,119596,0:0:0:0:
