osu file format v14

[General]
AudioFilename: audio.mp3
AudioLeadIn: 0
PreviewTime: 60418
Countdown: 0
SampleSet: Soft
StackLeniency: 0.7
Mode: 1
LetterboxInBreaks: 0
WidescreenStoryboard: 1

[Editor]
Bookmarks: 16532,60418,134475,198932
DistanceSpacing: 0.9
BeatDivisor: 4
GridSize: 4
TimelineZoom: 1.6

[Metadata]
Title:Boku no Friend (the sub account Flip)
TitleUnicode:ぼくのフレンド
Artist:Miyuhan
ArtistUnicode:みゆはん
Creator:NeTsune
Version:Oni
Source:けものフレンズ
Tags:kemono friends ed ending
BeatmapID:1427040
BeatmapSetID:641188

[Difficulty]
HPDrainRate:6
CircleSize:4
OverallDifficulty:6
ApproachRate:8
SliderMultiplier:1.4
SliderTickRate:1

[Events]
//Background and Video events
0,0,"serval.jpg",0,0
//Break Periods
//Storyboard Layer 0 (Background)
//Storyboard Layer 1 (Fail)
//Storyboard Layer 2 (Pass)
//Storyboard Layer 3 (Foreground)
//Storyboard Sound Samples

[TimingPoints]
75.3863811297676,342.857142857143,4,2,0,50,1,0
60418,-100,4,2,0,50,0,1
90589,-100,4,2,0,50,0,0
134475,-100,4,2,0,50,0,1
164646,-100,4,2,0,50,0,0
198932,-100,4,2,0,50,0,1
229103,-100,4,2,0,50,0,0

[HitObjects]
256,192,2818,12,0,4189,0:0:0:0:
256,192,4532,5,0,0:0:0:0:
256,192,4875,1,0,0:0:0:0:
256,192,5046,1,0,0:0:0:0:
256,192,5132,1,0,0:0:0:0:
256,192,5218,1,8,0:0:0:0:
256,192,5303,1,0,0:0:0:0:
256,192,5389,1,8,0:0:0:0:
256,192,5475,1,8,0:0:0:0:
256,192,5561,1,0,0:0:0:0:
256,192,5732,1,0,0:0:0:0:
256,192,5818,1,0,0:0:0:0:
256,192,5903,1,8,0:0:0:0:
256,192,6075,1,8,0:0:0:0:
256,192,6246,1,0,0:0:0:0:
256,192,6418,1,0,0:0:0:0:
256,192,6589,1,8,0:0:0:0:
256,192,6761,1,0,0:0:0:0:
256,192,6932,1,0,0:0:0:0:
256,192,7103,1,0,0:0:0:0:
256,192,7189,1,0,0:0:0:0:
256,192,7275,1,8,0:0:0:0:
256,192,7446,1,8,0:0:0:0:
256,192,7618,1,0,0:0:0:0:
256,192,7961,1,8,0:0:0:0:
256,192,8303,1,0,0:0:0:0:
256,192,8475,1,0,0:0:0:0:
256,192,8561,1,0,0:0:0:0:
256,192,8646,1,8,0:0:0:0:
256,192,8818,1,8,0:0:0:0:
256,192,8989,1,4,0:0:0:0:
256,192,9332,1,12,0:0:0:0:
256,192,9675,1,8,0:0:0:0:
256,192,9846,1,8,0:0:0:0:
256,192,9932,1,0,0:0:0:0:
256,192,10018,1,8,0:0:0:0:
256,192,10189,1,8,0:0:0:0:
256,192,10361,1,4,0:0:0:0:
256,192,10703,1,12,0:0:0:0:
256,192,11046,1,0,0:0:0:0:
256,192,11218,1,0,0:0:0:0:
256,192,11389,1,8,0:0:0:0:
256,192,11561,1,8,0:0:0:0:
256,192,11732,1,0,0:0:0:0:
256,192,11903,1,0,0:0:0:0:
256,192,12075,1,8,0:0:0:0:
256,192,12246,1,0,0:0:0:0:
256,192,12418,1,0,0:0:0:0:
256,192,12932,1,8,0:0:0:0:
256,192,13446,1,0,0:0:0:0:
256,192,13789,1,0,0:0:0:0:
256,192,14132,1,0,0:0:0:0:
256,192,14475,1,0,0:0:0:0:
256,192,14818,1,0,0:0:0:0:
256,192,15161,1,0,0:0:0:0:
256,192,15503,1,0,0:0:0:0:
256,192,15846,1,0,0:0:0:0:
256,192,16018,1,8,0:0:0:0:
256,192,16103,1,8,0:0:0:0:
256,192,16189,1,8,0:0:0:0:
256,192,16532,1,0,0:0:0:0:
256,192,16703,1,0,0:0:0:0:
256,192,16875,1,8,0:0:0:0:
256,192,17046,1,0,0:0:0:0:
256,192,17218,1,0,0:0:0:0:
256,192,17389,1,0,0:0:0:0:
256,192,17561,1,8,0:0:0:0:
256,192,17732,1,0,0:0:0:0:
256,192,17818,1,8,0:0:0:0:
256,192,17903,1,0,0:0:0:0:
256,192,18075,1,0,0:0:0:0:
256,192,18246,1,8,0:0:0:0:
256,192,18418,1,8,0:0:0:0:
256,192,18589,1,0,0:0:0:0:
256,192,18761,1,0,0:0:0:0:
256,192,18932,1,8,0:0:0:0:
256,192,19103,1,8,0:0:0:0:
256,192,19189,1,0,0:0:0:0:
256,192,19275,1,0,0:0:0:0:
256,192,19446,1,0,0:0:0:0:
256,192,19618,1,8,0:0:0:0:
256,192,19789,1,0,0:0:0:0:
256,192,19961,1,0,0:0:0:0:
256,192,20132,1,0,0:0:0:0:
256,192,20303,1,8,0:0:0:0:
256,192,20475,1,8,0:0:0:0:
256,192,20646,1,0,0:0:0:0:
256,192,20818,1,0,0:0:0:0:
256,192,20989,1,8,0:0:0:0:
256,192,21161,1,8,0:0:0:0:
256,192,21246,1,8,0:0:0:0:
256,192,21332,1,8,0:0:0:0:
256,192,21503,1,0,0:0:0:0:
256,192,21675,1,8,0:0:0:0:
256,192,21846,1,8,0:0:0:0:
256,192,22018,1,0,0:0:0:0:
256,192,22189,1,0,0:0:0:0:
256,192,22361,1,8,0:0:0:0:
256,192,22532,1,8,0:0:0:0:
256,192,22703,1,0,0:0:0:0:
256,192,22875,1,0,0:0:0:0:
256,192,23046,1,8,0:0:0:0:
256,192,23218,1,0,0:0:0:0:
256,192,23389,1,0,0:0:0:0:
256,192,23561,1,8,0:0:0:0:
256,192,23646,1,0,0:0:0:0:
256,192,23732,1,0,0:0:0:0:
256,192,23903,1,8,0:0:0:0:
256,192,24418,1,8,0:0:0:0:
256,192,24761,1,0,0:0:0:0:
256,192,25018,1,0,0:0:0:0:
256,192,25103,1,8,0:0:0:0:
256,192,25275,1,8,0:0:0:0:
256,192,25618,1,0,0:0:0:0:
256,192,25789,1,8,0:0:0:0:
256,192,25961,1,0,0:0:0:0:
256,192,26132,1,0,0:0:0:0:
256,192,26303,1,0,0:0:0:0:
256,192,26475,1,8,0:0:0:0:
256,192,26646,1,0,0:0:0:0:
256,192,26818,1,8,0:0:0:0:
256,192,26989,1,8,0:0:0:0:
256,192,27161,1,8,0:0:0:0:
256,192,27246,1,8,0:0:0:0:
256,192,27332,1,8,0:0:0:0:
256,192,27418,1,8,0:0:0:0:
256,192,27503,1,0,0:0:0:0:
256,192,27675,1,0,0:0:0:0:
256,192,27846,1,8,0:0:0:0:
256,192,28018,1,8,0:0:0:0:
256,192,28189,1,0,0:0:0:0:
256,192,28361,1,8,0:0:0:0:
256,192,28446,1,8,0:0:0:0:
256,192,28532,1,8,0:0:0:0:
256,192,28703,1,8,0:0:0:0:
256,192,28875,1,0,0:0:0:0:
256,192,29046,1,0,0:0:0:0:
256,192,29218,1,8,0:0:0:0:
256,192,29389,1,8,0:0:0:0:
256,192,29561,1,0,0:0:0:0:
256,192,29732,1,0,0:0:0:0:
256,192,29903,1,8,0:0:0:0:
256,192,30075,1,0,0:0:0:0:
256,192,30246,1,0,0:0:0:0:
256,192,30418,1,0,0:0:0:0:
256,192,30503,1,0,0:0:0:0:
256,192,30589,1,8,0:0:0:0:
256,192,30761,1,0,0:0:0:0:
256,192,30932,1,0,0:0:0:0:
256,192,31103,1,0,0:0:0:0:
256,192,31275,1,8,0:0:0:0:
256,192,31446,1,8,0:0:0:0:
256,192,31618,1,0,0:0:0:0:
256,192,31961,1,8,0:0:0:0:
256,192,32132,1,0,0:0:0:0:
256,192,32303,1,0,0:0:0:0:
256,192,32475,1,8,0:0:0:0:
256,192,32561,1,0,0:0:0:0:
256,192,32646,1,8,0:0:0:0:
256,192,32818,1,8,0:0:0:0:
256,192,32989,1,0,0:0:0:0:
256,192,33161,1,0,0:0:0:0:
256,192,33332,1,8,0:0:0:0:
256,192,33503,1,8,0:0:0:0:
256,192,33675,1,0,0:0:0:0:
256,192,33846,1,0,0:0:0:0:
256,192,34018,1,8,0:0:0:0:
256,192,34189,1,8,0:0:0:0:
256,192,34361,1,0,0:0:0:0:
256,192,34532,1,0,0:0:0:0:
256,192,34703,1,8,0:0:0:0:
256,192,34875,1,0,0:0:0:0:
256,192,35046,1,8,0:0:0:0:
256,192,35389,1,0,0:0:0:0:
256,192,35732,1,0,0:0:0:0:
256,192,35903,1,0,0:0:0:0:
256,192,36075,1,0,0:0:0:0:
256,192,36246,1,0,0:0:0:0:
256,192,36418,1,0,0:0:0:0:
256,192,36589,1,0,0:0:0:0:
256,192,36761,1,0,0:0:0:0:
256,192,36932,1,0,0:0:0:0:
256,192,37103,2,0,L|256:132,4,35
256,192,37618,1,0,0:0:0:0:
256,192,37789,1,0,0:0:0:0:
256,192,37961,1,0,0:0:0:0:
256,192,38132,1,8,0:0:0:0:
256,192,38218,1,8,0:0:0:0:
256,192,38303,1,8,0:0:0:0:
256,192,38389,1,8,0:0:0:0:
256,192,38475,1,0,0:0:0:0:
256,192,39161,1,8,0:0:0:0:
256,192,39846,1,0,0:0:0:0:
256,192,40103,1,0,0:0:0:0:
256,192,40189,1,0,0:0:0:0:
256,192,40361,1,0,0:0:0:0:
256,192,40532,1,12,0:0:0:0:
256,192,40875,1,8,0:0:0:0:
256,192,41046,1,8,0:0:0:0:
256,192,41218,1,0,0:0:0:0:
256,192,41561,1,0,0:0:0:0:
256,192,41903,1,8,0:0:0:0:
256,192,42246,1,8,0:0:0:0:
256,192,42589,1,0,0:0:0:0:
256,192,42846,1,0,0:0:0:0:
256,192,42932,1,0,0:0:0:0:
256,192,43103,1,0,0:0:0:0:
256,192,43275,1,12,0:0:0:0:
256,192,43618,1,0,0:0:0:0:
256,192,43961,1,0,0:0:0:0:
256,192,44646,1,8,0:0:0:0:
256,192,45332,1,0,0:0:0:0:
256,192,45589,1,0,0:0:0:0:
256,192,45675,1,0,0:0:0:0:
256,192,45846,1,0,0:0:0:0:
256,192,46018,1,12,0:0:0:0:
256,192,46361,1,8,0:0:0:0:
256,192,46703,1,0,0:0:0:0:
256,192,47046,1,0,0:0:0:0:
256,192,47389,1,8,0:0:0:0:
256,192,47732,1,8,0:0:0:0:
256,192,48075,1,0,0:0:0:0:
256,192,48332,1,0,0:0:0:0:
256,192,48418,1,0,0:0:0:0:
256,192,48589,1,0,0:0:0:0:
256,192,48761,1,12,0:0:0:0:
256,192,49103,1,0,0:0:0:0:
256,192,49446,1,0,0:0:0:0:
256,192,50132,1,8,0:0:0:0:
256,192,50818,1,0,0:0:0:0:
256,192,51075,1,0,0:0:0:0:
256,192,51161,1,0,0:0:0:0:
256,192,51332,1,0,0:0:0:0:
256,192,51503,1,12,0:0:0:0:
256,192,51846,1,8,0:0:0:0:
256,192,52189,1,0,0:0:0:0:
256,192,52532,1,0,0:0:0:0:
256,192,52875,1,8,0:0:0:0:
256,192,53218,1,8,0:0:0:0:
256,192,53561,1,0,0:0:0:0:
256,192,53818,1,0,0:0:0:0:
256,192,53903,1,0,0:0:0:0:
256,192,54075,1,0,0:0:0:0:
256,192,54246,1,12,0:0:0:0:
256,192,54589,1,8,0:0:0:0:
256,192,54675,1,8,0:0:0:0:
256,192,54761,1,8,0:0:0:0:
256,192,54846,1,8,0:0:0:0:
256,192,54932,1,0,0:0:0:0:
256,192,55275,1,0,0:0:0:0:
256,192,55446,1,0,0:0:0:0:
256,192,55618,1,8,0:0:0:0:
256,192,55789,1,8,0:0:0:0:
256,192,55961,1,0,0:0:0:0:
256,192,56303,1,8,0:0:0:0:
256,192,56475,1,0,0:0:0:0:
256,192,56646,1,0,0:0:0:0:
256,192,56818,1,8,0:0:0:0:
256,192,57503,1,0,0:0:0:0:
256,192,57675,1,8,0:0:0:0:
256,192,57761,1,0,0:0:0:0:
256,192,57846,1,0,0:0:0:0:
256,192,57932,1,8,0:0:0:0:
256,192,58018,1,8,0:0:0:0:
256,192,58103,1,0,0:0:0:0:
256,192,58189,1,8,0:0:0:0:
256,192,58275,1,0,0:0:0:0:
256,192,58361,1,8,0:0:0:0:
256,192,58446,1,8,0:0:0:0:
256,192,58532,1,0,0:0:0:0:
256,192,58618,1,0,0:0:0:0:
256,192,58703,1,8,0:0:0:0:
256,192,58789,1,0,0:0:0:0:
256,192,58875,1,0,0:0:0:0:
256,192,58961,1,0,0:0:0:0:
256,192,59046,1,8,0:0:0:0:
256,192,59218,1,0,0:0:0:0:
256,192,59389,1,0,0:0:0:0:
256,192,59561,1,0,0:0:0:0:
256,192,59903,1,0,0:0:0:0:
256,192,60075,1,12,0:0:0:0:
256,192,60418,1,8,0:0:0:0:
256,192,60589,1,0,0:0:0:0:
256,192,60675,1,0,0:0:0:0:
256,192,60761,1,8,0:0:0:0:
256,192,60932,1,0,0:0:0:0:
256,192,61103,1,8,0:0:0:0:
256,192,61275,1,0,0:0:0:0:
256,192,61361,1,8,0:0:0:0:
256,192,61446,1,0,0:0:0:0:
256,192,61618,1,0,0:0:0:0:
256,192,61789,1,8,0:0:0:0:
256,192,61961,1,0,0:0:0:0:
256,192,62132,1,8,0:0:0:0:
256,192,62303,1,8,0:0:0:0:
256,192,62475,1,0,0:0:0:0:
256,192,62646,1,8,0:0:0:0:
256,192,62732,1,8,0:0:0:0:
256,192,62818,1,8,0:0:0:0:
256,192,62989,1,0,0:0:0:0:
256,192,63161,1,8,0:0:0:0:
256,192,63332,1,8,0:0:0:0:
256,192,63418,1,0,0:0:0:0:
256,192,63503,1,0,0:0:0:0:
256,192,63675,1,0,0:0:0:0:
256,192,63846,1,8,0:0:0:0:
256,192,64018,1,8,0:0:0:0:
256,192,64103,1,0,0:0:0:0:
256,192,64189,1,8,0:0:0:0:
256,192,64361,1,0,0:0:0:0:
256,192,64532,1,8,0:0:0:0:
256,192,64703,1,0,0:0:0:0:
256,192,64875,1,8,0:0:0:0:
256,192,65046,1,0,0:0:0:0:
256,192,65218,1,0,0:0:0:0:
256,192,65389,1,0,0:0:0:0:
256,192,65475,1,0,0:0:0:0:
256,192,65561,1,8,0:0:0:0:
256,192,65732,1,8,0:0:0:0:
256,192,65903,1,4,0:0:0:0:
256,192,66246,1,12,0:0:0:0:
256,192,66589,1,4,0:0:0:0:
256,192,66932,1,0,0:0:0:0:
256,192,67103,1,0,0:0:0:0:
256,192,67275,1,8,0:0:0:0:
256,192,67446,1,8,0:0:0:0:
256,192,67618,1,0,0:0:0:0:
256,192,67789,1,0,0:0:0:0:
256,192,67961,1,8,0:0:0:0:
256,192,68132,1,0,0:0:0:0:
256,192,68303,1,8,0:0:0:0:
256,192,68475,1,0,0:0:0:0:
256,192,68646,1,8,0:0:0:0:
256,192,68818,1,0,0:0:0:0:
256,192,68989,1,8,0:0:0:0:
256,192,69161,1,0,0:0:0:0:
256,192,69332,1,8,0:0:0:0:
256,192,69503,1,0,0:0:0:0:
256,192,69675,1,8,0:0:0:0:
256,192,69846,1,8,0:0:0:0:
256,192,70018,2,0,L|256:144,4,32.5
256,192,70532,1,0,0:0:0:0:
256,192,70703,1,0,0:0:0:0:
256,192,70875,1,0,0:0:0:0:
256,192,71046,1,8,0:0:0:0:
256,192,71132,1,8,0:0:0:0:
256,192,71218,1,8,0:0:0:0:
256,192,71303,1,8,0:0:0:0:
256,192,71389,1,0,0:0:0:0:
256,192,71561,1,8,0:0:0:0:
256,192,71646,1,0,0:0:0:0:
256,192,71732,1,8,0:0:0:0:
256,192,71903,1,0,0:0:0:0:
256,192,72075,1,0,0:0:0:0:
256,192,72246,1,0,0:0:0:0:
256,192,72418,1,8,0:0:0:0:
256,192,72589,1,8,0:0:0:0:
256,192,72761,1,0,0:0:0:0:
256,192,72932,1,0,0:0:0:0:
256,192,73018,1,0,0:0:0:0:
256,192,73103,1,8,0:0:0:0:
256,192,73275,1,8,0:0:0:0:
256,192,73446,1,0,0:0:0:0:
256,192,73618,1,0,0:0:0:0:
256,192,73789,1,8,0:0:0:0:
256,192,73961,1,0,0:0:0:0:
256,192,74132,1,0,0:0:0:0:
256,192,74303,1,8,0:0:0:0:
256,192,74389,1,8,0:0:0:0:
256,192,74475,1,8,0:0:0:0:
256,192,74646,1,0,0:0:0:0:
256,192,74818,1,8,0:0:0:0:
256,192,74989,1,8,0:0:0:0:
256,192,75161,1,0,0:0:0:0:
256,192,75332,1,0,0:0:0:0:
256,192,75503,1,8,0:0:0:0:
256,192,75589,1,0,0:0:0:0:
256,192,75675,1,8,0:0:0:0:
256,192,75761,1,8,0:0:0:0:
256,192,75846,1,0,0:0:0:0:
256,192,76018,1,8,0:0:0:0:
256,192,76189,1,0,0:0:0:0:
256,192,76361,1,0,0:0:0:0:
256,192,76532,1,8,0:0:0:0:
256,192,76703,1,0,0:0:0:0:
256,192,76875,1,8,0:0:0:0:
256,192,77046,1,0,0:0:0:0:
256,192,77218,1,8,0:0:0:0:
256,192,77389,1,0,0:0:0:0:
256,192,77561,1,8,0:0:0:0:
256,192,77732,1,8,0:0:0:0:
256,192,77903,1,8,0:0:0:0:
256,192,78075,1,8,0:0:0:0:
256,192,78246,1,0,0:0:0:0:
256,192,78418,1,0,0:0:0:0:
256,192,78589,1,8,0:0:0:0:
256,192,78761,1,8,0:0:0:0:
256,192,78932,1,0,0:0:0:0:
256,192,79103,1,0,0:0:0:0:
256,192,79275,1,8,0:0:0:0:
256,192,79446,1,0,0:0:0:0:
256,192,79618,1,8,0:0:0:0:
256,192,79789,1,0,0:0:0:0:
256,192,79961,1,8,0:0:0:0:
256,192,80132,1,8,0:0:0:0:
256,192,80303,1,0,0:0:0:0:
256,192,80475,1,0,0:0:0:0:
256,192,80646,1,8,0:0:0:0:
256,192,80818,1,8,0:0:0:0:
256,192,80989,1,0,0:0:0:0:
256,192,81161,1,8,0:0:0:0:
256,192,81332,1,0,0:0:0:0:
256,192,81503,1,8,0:0:0:0:
256,192,81675,1,0,0:0:0:0:
256,192,81846,1,0,0:0:0:0:
256,192,82018,1,8,0:0:0:0:
256,192,82189,1,8,0:0:0:0:
256,192,82361,1,0,0:0:0:0:
256,192,82532,1,0,0:0:0:0:
256,192,82703,1,0,0:0:0:0:
256,192,82875,1,0,0:0:0:0:
256,192,83046,1,8,0:0:0:0:
256,192,83218,1,0,0:0:0:0:
256,192,83389,1,8,0:0:0:0:
256,192,83561,1,0,0:0:0:0:
256,192,83732,1,0,0:0:0:0:
256,192,83903,1,0,0:0:0:0:
256,192,84075,1,0,0:0:0:0:
256,192,84246,1,0,0:0:0:0:
256,192,84418,1,8,0:0:0:0:
256,192,84589,1,0,0:0:0:0:
256,192,84761,1,8,0:0:0:0:
256,192,84932,1,0,0:0:0:0:
256,192,85103,1,0,0:0:0:0:
256,192,85275,1,0,0:0:0:0:
256,192,85446,1,8,0:0:0:0:
256,192,85618,1,8,0:0:0:0:
256,192,85789,1,0,0:0:0:0:
256,192,85961,1,0,0:0:0:0:
256,192,86132,1,8,0:0:0:0:
256,192,86303,1,0,0:0:0:0:
256,192,86475,1,0,0:0:0:0:
256,192,86989,1,8,0:0:0:0:
256,192,87503,1,8,0:0:0:0:
256,192,87846,1,0,0:0:0:0:
256,192,88361,1,8,0:0:0:0:
256,192,88875,1,8,0:0:0:0:
256,192,89218,1,0,0:0:0:0:
256,192,89561,1,0,0:0:0:0:
256,192,89903,1,8,0:0:0:0:
256,192,90075,1,0,0:0:0:0:
256,192,90246,1,0,0:0:0:0:
256,192,90418,1,0,0:0:0:0:
256,192,90503,1,0,0:0:0:0:
256,192,90589,1,8,0:0:0:0:
256,192,90761,1,8,0:0:0:0:
256,192,90846,1,8,0:0:0:0:
256,192,90932,1,0,0:0:0:0:
256,192,91103,1,0,0:0:0:0:
256,192,91275,1,0,0:0:0:0:
256,192,91446,1,0,0:0:0:0:
256,192,91618,1,8,0:0:0:0:
256,192,91789,1,8,0:0:0:0:
256,192,91961,1,0,0:0:0:0:
256,192,92132,1,0,0:0:0:0:
256,192,92218,1,0,0:0:0:0:
256,192,92303,1,8,0:0:0:0:
256,192,92475,1,8,0:0:0:0:
256,192,92646,1,0,0:0:0:0:
256,192,92818,1,0,0:0:0:0:
256,192,92989,1,8,0:0:0:0:
256,192,93161,1,8,0:0:0:0:
256,192,93332,1,0,0:0:0:0:
256,192,93503,1,8,0:0:0:0:
256,192,93589,1,8,0:0:0:0:
256,192,93675,1,8,0:0:0:0:
256,192,93846,1,0,0:0:0:0:
256,192,94018,1,8,0:0:0:0:
256,192,94103,1,8,0:0:0:0:
256,192,94189,1,0,0:0:0:0:
256,192,94275,1,0,0:0:0:0:
256,192,94361,1,8,0:0:0:0:
256,192,94532,1,8,0:0:0:0:
256,192,94703,1,0,0:0:0:0:
256,192,94875,1,0,0:0:0:0:
256,192,95046,1,8,0:0:0:0:
256,192,95218,1,8,0:0:0:0:
256,192,95389,1,0,0:0:0:0:
256,192,95561,1,0,0:0:0:0:
256,192,95732,1,8,0:0:0:0:
256,192,95903,1,0,0:0:0:0:
256,192,96075,1,0,0:0:0:0:
256,192,96246,1,0,0:0:0:0:
256,192,96332,1,0,0:0:0:0:
256,192,96418,1,8,0:0:0:0:
256,192,96589,1,0,0:0:0:0:
256,192,96761,1,0,0:0:0:0:
256,192,96932,1,0,0:0:0:0:
256,192,97103,1,8,0:0:0:0:
256,192,97275,1,0,0:0:0:0:
256,192,97446,1,0,0:0:0:0:
256,192,97618,1,0,0:0:0:0:
256,192,97789,1,8,0:0:0:0:
256,192,97961,1,8,0:0:0:0:
256,192,98475,1,8,0:0:0:0:
256,192,98818,1,0,0:0:0:0:
256,192,98989,1,8,0:0:0:0:
256,192,99075,1,8,0:0:0:0:
256,192,99161,1,0,0:0:0:0:
256,192,99332,1,0,0:0:0:0:
256,192,99675,1,0,0:0:0:0:
256,192,99846,1,8,0:0:0:0:
256,192,100018,1,0,0:0:0:0:
256,192,100103,1,8,0:0:0:0:
256,192,100189,1,0,0:0:0:0:
256,192,100361,1,0,0:0:0:0:
256,192,100532,1,8,0:0:0:0:
256,192,100703,1,8,0:0:0:0:
256,192,100875,1,0,0:0:0:0:
256,192,101046,1,0,0:0:0:0:
256,192,101218,1,8,0:0:0:0:
256,192,101303,1,8,0:0:0:0:
256,192,101389,1,8,0:0:0:0:
256,192,101475,1,8,0:0:0:0:
256,192,101561,1,0,0:0:0:0:
256,192,101732,1,0,0:0:0:0:
256,192,101903,1,8,0:0:0:0:
256,192,102075,1,0,0:0:0:0:
256,192,102246,1,0,0:0:0:0:
256,192,102418,1,0,0:0:0:0:
256,192,102589,1,8,0:0:0:0:
256,192,102761,1,8,0:0:0:0:
256,192,102932,1,0,0:0:0:0:
256,192,103103,1,0,0:0:0:0:
256,192,103189,1,0,0:0:0:0:
256,192,103275,1,8,0:0:0:0:
256,192,103446,1,0,0:0:0:0:
256,192,103618,1,0,0:0:0:0:
256,192,103789,1,0,0:0:0:0:
256,192,103961,1,8,0:0:0:0:
256,192,104132,1,0,0:0:0:0:
256,192,104303,1,8,0:0:0:0:
256,192,104475,1,8,0:0:0:0:
256,192,104561,1,0,0:0:0:0:
256,192,104646,1,8,0:0:0:0:
256,192,104818,1,0,0:0:0:0:
256,192,104989,1,0,0:0:0:0:
256,192,105161,1,0,0:0:0:0:
256,192,105332,1,8,0:0:0:0:
256,192,105503,1,8,0:0:0:0:
256,192,105675,1,0,0:0:0:0:
256,192,105846,1,0,0:0:0:0:
256,192,106018,1,8,0:0:0:0:
256,192,106189,1,0,0:0:0:0:
256,192,106361,1,8,0:0:0:0:
256,192,106532,1,8,0:0:0:0:
256,192,106618,1,8,0:0:0:0:
256,192,106703,1,8,0:0:0:0:
256,192,106875,1,0,0:0:0:0:
256,192,107046,1,0,0:0:0:0:
256,192,107218,1,0,0:0:0:0:
256,192,107389,1,8,0:0:0:0:
256,192,107561,1,8,0:0:0:0:
256,192,107732,1,0,0:0:0:0:
256,192,107903,1,0,0:0:0:0:
256,192,108075,1,8,0:0:0:0:
256,192,108246,1,0,0:0:0:0:
256,192,108418,1,0,0:0:0:0:
256,192,108589,1,0,0:0:0:0:
256,192,108761,1,8,0:0:0:0:
256,192,108932,1,0,0:0:0:0:
256,192,109103,1,8,0:0:0:0:
256,192,109446,1,0,0:0:0:0:
256,192,109789,1,0,0:0:0:0:
256,192,109960,1,0,0:0:0:0:
256,192,110132,1,0,0:0:0:0:
256,192,110303,1,0,0:0:0:0:
256,192,110475,1,0,0:0:0:0:
256,192,110646,1,0,0:0:0:0:
256,192,110818,1,0,0:0:0:0:
256,192,110989,1,0,0:0:0:0:
256,192,111160,2,0,L|256:132,4,35
256,192,111675,1,0,0:0:0:0:
256,192,111846,1,0,0:0:0:0:
256,192,112018,1,0,0:0:0:0:
256,192,112189,1,8,0:0:0:0:
256,192,112275,1,8,0:0:0:0:
256,192,112360,1,8,0:0:0:0:
256,192,112446,1,8,0:0:0:0:
256,192,112532,1,0,0:0:0:0:
256,192,113218,1,8,0:0:0:0:
256,192,113903,1,0,0:0:0:0:
256,192,114160,1,0,0:0:0:0:
256,192,114246,1,0,0:0:0:0:
256,192,114418,1,0,0:0:0:0:
256,192,114589,1,12,0:0:0:0:
256,192,114932,1,8,0:0:0:0:
256,192,115103,1,8,0:0:0:0:
256,192,115275,1,0,0:0:0:0:
256,192,115618,1,0,0:0:0:0:
256,192,115960,1,8,0:0:0:0:
256,192,116303,1,8,0:0:0:0:
256,192,116646,1,0,0:0:0:0:
256,192,116903,1,0,0:0:0:0:
256,192,116989,1,0,0:0:0:0:
256,192,117160,1,0,0:0:0:0:
256,192,117332,1,12,0:0:0:0:
256,192,117675,1,0,0:0:0:0:
256,192,118018,1,0,0:0:0:0:
256,192,118703,1,8,0:0:0:0:
256,192,119389,1,0,0:0:0:0:
256,192,119646,1,0,0:0:0:0:
256,192,119732,1,0,0:0:0:0:
256,192,119903,1,0,0:0:0:0:
256,192,120075,1,12,0:0:0:0:
256,192,120418,1,8,0:0:0:0:
256,192,120760,1,0,0:0:0:0:
256,192,121103,1,0,0:0:0:0:
256,192,121446,1,8,0:0:0:0:
256,192,121789,1,8,0:0:0:0:
256,192,122132,1,0,0:0:0:0:
256,192,122389,1,0,0:0:0:0:
256,192,122475,1,0,0:0:0:0:
256,192,122646,1,0,0:0:0:0:
256,192,122818,1,12,0:0:0:0:
256,192,123160,1,0,0:0:0:0:
256,192,123503,1,0,0:0:0:0:
256,192,124189,1,8,0:0:0:0:
256,192,124875,1,0,0:0:0:0:
256,192,125132,1,0,0:0:0:0:
256,192,125218,1,0,0:0:0:0:
256,192,125389,1,0,0:0:0:0:
256,192,125560,1,12,0:0:0:0:
256,192,125903,1,8,0:0:0:0:
256,192,126246,1,0,0:0:0:0:
256,192,126589,1,0,0:0:0:0:
256,192,126932,1,8,0:0:0:0:
256,192,127275,1,8,0:0:0:0:
256,192,127618,1,0,0:0:0:0:
256,192,127875,1,0,0:0:0:0:
256,192,127960,1,0,0:0:0:0:
256,192,128132,1,0,0:0:0:0:
256,192,128303,1,12,0:0:0:0:
256,192,128646,1,8,0:0:0:0:
256,192,128732,1,8,0:0:0:0:
256,192,128818,1,8,0:0:0:0:
256,192,128903,1,8,0:0:0:0:
256,192,128989,1,0,0:0:0:0:
256,192,129332,1,0,0:0:0:0:
256,192,129503,1,0,0:0:0:0:
256,192,129675,1,8,0:0:0:0:
256,192,129846,1,8,0:0:0:0:
256,192,130018,1,0,0:0:0:0:
256,192,130189,1,0,0:0:0:0:
256,192,130360,1,8,0:0:0:0:
256,192,130532,1,0,0:0:0:0:
256,192,130703,1,0,0:0:0:0:
256,192,130875,1,8,0:0:0:0:
256,192,131560,1,0,0:0:0:0:
256,192,131732,1,8,0:0:0:0:
256,192,131818,1,0,0:0:0:0:
256,192,131903,1,0,0:0:0:0:
256,192,131989,1,8,0:0:0:0:
256,192,132075,1,8,0:0:0:0:
256,192,132160,1,0,0:0:0:0:
256,192,132246,1,8,0:0:0:0:
256,192,132332,1,0,0:0:0:0:
256,192,132418,1,8,0:0:0:0:
256,192,132503,1,8,0:0:0:0:
256,192,132589,1,0,0:0:0:0:
256,192,132675,1,0,0:0:0:0:
256,192,132760,1,8,0:0:0:0:
256,192,132846,1,0,0:0:0:0:
256,192,132932,1,0,0:0:0:0:
256,192,133018,1,0,0:0:0:0:
256,192,133103,1,8,0:0:0:0:
256,192,133275,1,0,0:0:0:0:
256,192,133446,1,0,0:0:0:0:
256,192,133618,1,0,0:0:0:0:
256,192,133960,1,0,0:0:0:0:
256,192,134132,1,12,0:0:0:0:
256,192,134475,1,0,0:0:0:0:
256,192,134646,1,0,0:0:0:0:
256,192,134732,1,0,0:0:0:0:
256,192,134818,1,8,0:0:0:0:
256,192,134989,1,8,0:0:0:0:
256,192,135161,1,0,0:0:0:0:
256,192,135332,1,8,0:0:0:0:
256,192,135418,1,8,0:0:0:0:
256,192,135503,1,8,0:0:0:0:
256,192,135675,1,0,0:0:0:0:
256,192,135846,1,0,0:0:0:0:
256,192,136018,1,0,0:0:0:0:
256,192,136189,1,8,0:0:0:0:
256,192,136361,1,0,0:0:0:0:
256,192,136532,1,0,0:0:0:0:
256,192,136703,1,8,0:0:0:0:
256,192,136789,1,0,0:0:0:0:
256,192,136875,1,8,0:0:0:0:
256,192,137046,1,0,0:0:0:0:
256,192,137218,1,0,0:0:0:0:
256,192,137389,1,0,0:0:0:0:
256,192,137561,1,8,0:0:0:0:
256,192,137732,1,8,0:0:0:0:
256,192,137903,1,0,0:0:0:0:
256,192,138075,1,0,0:0:0:0:
256,192,138161,1,0,0:0:0:0:
256,192,138246,1,8,0:0:0:0:
256,192,138418,1,0,0:0:0:0:
256,192,138589,1,0,0:0:0:0:
256,192,138761,1,0,0:0:0:0:
256,192,138932,1,8,0:0:0:0:
256,192,139103,1,0,0:0:0:0:
256,192,139275,1,8,0:0:0:0:
256,192,139446,1,0,0:0:0:0:
256,192,139532,1,0,0:0:0:0:
256,192,139618,1,8,0:0:0:0:
256,192,139789,1,8,0:0:0:0:
256,192,139961,1,4,0:0:0:0:
256,192,140303,1,12,0:0:0:0:
256,192,140646,1,4,0:0:0:0:
256,192,140989,1,8,0:0:0:0:
256,192,141161,1,8,0:0:0:0:
256,192,141332,1,0,0:0:0:0:
256,192,141503,1,0,0:0:0:0:
256,192,141675,1,8,0:0:0:0:
256,192,141846,1,0,0:0:0:0:
256,192,142018,1,8,0:0:0:0:
256,192,142189,1,0,0:0:0:0:
256,192,142361,1,0,0:0:0:0:
256,192,142532,1,0,0:0:0:0:
256,192,142703,1,0,0:0:0:0:
256,192,142875,1,0,0:0:0:0:
256,192,143046,1,8,0:0:0:0:
256,192,143218,1,0,0:0:0:0:
256,192,143389,1,8,0:0:0:0:
256,192,143561,1,0,0:0:0:0:
256,192,143732,1,8,0:0:0:0:
256,192,143903,1,8,0:0:0:0:
256,192,144075,2,0,L|256:144,4,32.5
256,192,144589,1,0,0:0:0:0:
256,192,144761,1,0,0:0:0:0:
256,192,144932,1,0,0:0:0:0:
256,192,145103,1,8,0:0:0:0:
256,192,145189,1,8,0:0:0:0:
256,192,145275,1,8,0:0:0:0:
256,192,145361,1,8,0:0:0:0:
256,192,145446,1,0,0:0:0:0:
256,192,145618,1,8,0:0:0:0:
256,192,145703,1,0,0:0:0:0:
256,192,145789,1,8,0:0:0:0:
256,192,145961,1,0,0:0:0:0:
256,192,146132,1,0,0:0:0:0:
256,192,146303,1,0,0:0:0:0:
256,192,146389,1,0,0:0:0:0:
256,192,146475,1,8,0:0:0:0:
256,192,146646,1,8,0:0:0:0:
256,192,146818,1,0,0:0:0:0:
256,192,146989,1,0,0:0:0:0:
256,192,147161,1,8,0:0:0:0:
256,192,147332,1,8,0:0:0:0:
256,192,147503,1,0,0:0:0:0:
256,192,147675,1,8,0:0:0:0:
256,192,147761,1,8,0:0:0:0:
256,192,147846,1,8,0:0:0:0:
256,192,148018,1,0,0:0:0:0:
256,192,148189,1,0,0:0:0:0:
256,192,148361,1,0,0:0:0:0:
256,192,148446,1,0,0:0:0:0:
256,192,148532,1,8,0:0:0:0:
256,192,148703,1,8,0:0:0:0:
256,192,148789,1,0,0:0:0:0:
256,192,148875,1,8,0:0:0:0:
256,192,149046,1,0,0:0:0:0:
256,192,149218,1,8,0:0:0:0:
256,192,149389,1,0,0:0:0:0:
256,192,149561,1,0,0:0:0:0:
256,192,149646,1,0,0:0:0:0:
256,192,149732,1,8,0:0:0:0:
256,192,149818,1,8,0:0:0:0:
256,192,149903,1,8,0:0:0:0:
256,192,150075,1,0,0:0:0:0:
256,192,150246,1,0,0:0:0:0:
256,192,150418,1,0,0:0:0:0:
256,192,150589,1,8,0:0:0:0:
256,192,150761,1,8,0:0:0:0:
256,192,150932,1,0,0:0:0:0:
256,192,151103,1,0,0:0:0:0:
256,192,151275,1,8,0:0:0:0:
256,192,151446,1,0,0:0:0:0:
256,192,151618,1,8,0:0:0:0:
256,192,151789,1,0,0:0:0:0:
256,192,151961,1,0,0:0:0:0:
256,192,152132,1,0,0:0:0:0:
256,192,152303,1,0,0:0:0:0:
256,192,152475,1,0,0:0:0:0:
256,192,152646,1,8,0:0:0:0:
256,192,152818,1,0,0:0:0:0:
256,192,152989,1,8,0:0:0:0:
256,192,153161,1,0,0:0:0:0:
256,192,153332,1,8,0:0:0:0:
256,192,153503,1,8,0:0:0:0:
256,192,153675,1,8,0:0:0:0:
256,192,153846,1,0,0:0:0:0:
256,192,154018,1,8,0:0:0:0:
256,192,154189,1,0,0:0:0:0:
256,192,154361,1,8,0:0:0:0:
256,192,154532,1,0,0:0:0:0:
256,192,154703,1,8,0:0:0:0:
256,192,154875,1,8,0:0:0:0:
256,192,155046,1,8,0:0:0:0:
256,192,155218,1,0,0:0:0:0:
256,192,155389,1,8,0:0:0:0:
256,192,155561,1,0,0:0:0:0:
256,192,155732,1,8,0:0:0:0:
256,192,155903,1,0,0:0:0:0:
256,192,156075,1,0,0:0:0:0:
256,192,156246,1,0,0:0:0:0:
256,192,156418,1,8,0:0:0:0:
256,192,156589,1,0,0:0:0:0:
256,192,156761,1,8,0:0:0:0:
256,192,156932,1,8,0:0:0:0:
256,192,157103,1,0,0:0:0:0:
256,192,157275,1,0,0:0:0:0:
256,192,157446,1,8,0:0:0:0:
256,192,157618,1,8,0:0:0:0:
256,192,157789,1,8,0:0:0:0:
256,192,157961,1,8,0:0:0:0:
256,192,158132,1,0,0:0:0:0:
256,192,158303,1,0,0:0:0:0:
256,192,158475,1,8,0:0:0:0:
256,192,158646,1,8,0:0:0:0:
256,192,158818,1,8,0:0:0:0:
256,192,158989,1,8,0:0:0:0:
256,192,159161,1,0,0:0:0:0:
256,192,159332,1,0,0:0:0:0:
256,192,159503,1,8,0:0:0:0:
256,192,159675,1,8,0:0:0:0:
256,192,159846,1,0,0:0:0:0:
256,192,160018,1,0,0:0:0:0:
256,192,160189,1,8,0:0:0:0:
256,192,160361,1,8,0:0:0:0:
256,192,160532,1,8,0:0:0:0:
256,192,160703,1,0,0:0:0:0:
256,192,160875,1,8,0:0:0:0:
256,192,161046,1,0,0:0:0:0:
256,192,161218,1,8,0:0:0:0:
256,192,161389,1,8,0:0:0:0:
256,192,161561,1,8,0:0:0:0:
256,192,161732,1,8,0:0:0:0:
256,192,161903,1,8,0:0:0:0:
256,192,162075,1,0,0:0:0:0:
256,192,162246,1,8,0:0:0:0:
256,192,162418,1,0,0:0:0:0:
256,192,162589,1,8,0:0:0:0:
256,192,162761,1,0,0:0:0:0:
256,192,162932,1,0,0:0:0:0:
256,192,163103,1,0,0:0:0:0:
256,192,163275,1,8,0:0:0:0:
256,192,163446,1,0,0:0:0:0:
256,192,163618,1,8,0:0:0:0:
256,192,163789,1,0,0:0:0:0:
256,192,163961,1,0,0:0:0:0:
256,192,164132,1,0,0:0:0:0:
256,192,164218,1,0,0:0:0:0:
256,192,164303,1,8,0:0:0:0:
256,192,164475,1,0,0:0:0:0:
256,192,164561,1,8,0:0:0:0:
256,192,164646,1,8,0:0:0:0:
256,192,164989,8,0,167389,0:0:0:0:
256,192,167561,5,8,0:0:0:0:
256,192,167646,1,0,0:0:0:0:
256,192,167732,1,8,0:0:0:0:
256,192,167903,1,0,0:0:0:0:
256,192,168075,1,8,0:0:0:0:
256,192,168161,1,8,0:0:0:0:
256,192,168246,1,0,0:0:0:0:
256,192,168332,1,0,0:0:0:0:
256,192,168418,1,8,0:0:0:0:
256,192,168589,1,8,0:0:0:0:
256,192,168761,1,0,0:0:0:0:
256,192,168932,1,8,0:0:0:0:
256,192,169018,1,8,0:0:0:0:
256,192,169103,1,8,0:0:0:0:
256,192,169275,1,0,0:0:0:0:
256,192,169446,1,8,0:0:0:0:
256,192,169532,1,8,0:0:0:0:
256,192,169618,1,0,0:0:0:0:
256,192,169703,1,0,0:0:0:0:
256,192,169789,1,8,0:0:0:0:
256,192,169961,1,8,0:0:0:0:
256,192,170132,1,8,0:0:0:0:
256,192,170303,1,8,0:0:0:0:
256,192,170475,1,0,0:0:0:0:
256,192,170646,1,8,0:0:0:0:
256,192,170818,1,8,0:0:0:0:
256,192,170989,1,0,0:0:0:0:
256,192,171161,1,8,0:0:0:0:
256,192,171332,1,8,0:0:0:0:
256,192,171503,1,0,0:0:0:0:
256,192,171675,1,8,0:0:0:0:
256,192,171846,1,8,0:0:0:0:
256,192,172018,1,0,0:0:0:0:
256,192,172189,1,8,0:0:0:0:
256,192,172361,1,8,0:0:0:0:
256,192,172532,1,0,0:0:0:0:
256,192,172703,1,0,0:0:0:0:
256,192,172789,1,0,0:0:0:0:
256,192,172875,1,8,0:0:0:0:
256,192,173132,1,0,0:0:0:0:
256,192,173218,1,8,0:0:0:0:
256,192,173475,1,0,0:0:0:0:
256,192,173561,1,8,0:0:0:0:
256,192,173818,1,0,0:0:0:0:
256,192,173903,1,8,0:0:0:0:
256,192,174075,1,0,0:0:0:0:
256,192,174246,1,8,0:0:0:0:
256,192,174332,1,0,0:0:0:0:
256,192,174418,1,8,0:0:0:0:
256,192,174503,1,8,0:0:0:0:
256,192,174589,1,0,0:0:0:0:
256,192,174761,1,8,0:0:0:0:
256,192,174846,1,8,0:0:0:0:
256,192,174932,1,0,0:0:0:0:
256,192,175103,1,0,0:0:0:0:
256,192,175189,1,8,0:0:0:0:
256,192,175275,1,0,0:0:0:0:
256,192,175446,1,8,0:0:0:0:
256,192,175532,1,0,0:0:0:0:
256,192,175618,1,8,0:0:0:0:
256,192,176303,1,8,0:0:0:0:
256,192,176988,1,0,0:0:0:0:
256,192,177245,1,0,0:0:0:0:
256,192,177331,1,0,0:0:0:0:
256,192,177503,1,0,0:0:0:0:
256,192,177674,1,12,0:0:0:0:
256,192,178017,1,8,0:0:0:0:
256,192,178188,1,8,0:0:0:0:
256,192,178360,1,0,0:0:0:0:
256,192,178703,1,0,0:0:0:0:
256,192,179045,1,8,0:0:0:0:
256,192,179388,1,8,0:0:0:0:
256,192,179731,1,0,0:0:0:0:
256,192,179988,1,0,0:0:0:0:
256,192,180074,1,0,0:0:0:0:
256,192,180245,1,0,0:0:0:0:
256,192,180417,1,12,0:0:0:0:
256,192,180760,1,0,0:0:0:0:
256,192,181103,1,0,0:0:0:0:
256,192,181788,1,8,0:0:0:0:
256,192,182474,1,0,0:0:0:0:
256,192,182731,1,0,0:0:0:0:
256,192,182817,1,0,0:0:0:0:
256,192,182988,1,0,0:0:0:0:
256,192,183160,1,12,0:0:0:0:
256,192,183503,1,8,0:0:0:0:
256,192,183845,1,0,0:0:0:0:
256,192,184188,1,0,0:0:0:0:
256,192,184531,1,8,0:0:0:0:
256,192,184874,1,8,0:0:0:0:
256,192,185217,1,0,0:0:0:0:
256,192,185474,1,0,0:0:0:0:
256,192,185560,1,0,0:0:0:0:
256,192,185731,1,0,0:0:0:0:
256,192,185903,1,12,0:0:0:0:
256,192,186245,1,0,0:0:0:0:
256,192,186588,1,0,0:0:0:0:
256,192,187274,1,8,0:0:0:0:
256,192,187960,1,0,0:0:0:0:
256,192,188217,1,0,0:0:0:0:
256,192,188303,1,0,0:0:0:0:
256,192,188474,1,0,0:0:0:0:
256,192,188645,1,12,0:0:0:0:
256,192,188988,1,8,0:0:0:0:
256,192,189331,1,0,0:0:0:0:
256,192,189674,1,0,0:0:0:0:
256,192,190017,1,8,0:0:0:0:
256,192,190360,1,8,0:0:0:0:
256,192,190703,1,0,0:0:0:0:
256,192,190960,1,0,0:0:0:0:
256,192,191045,1,0,0:0:0:0:
256,192,191217,1,0,0:0:0:0:
256,192,191388,1,12,0:0:0:0:
256,192,191731,1,8,0:0:0:0:
256,192,191817,1,8,0:0:0:0:
256,192,191903,1,8,0:0:0:0:
256,192,191988,1,8,0:0:0:0:
256,192,192074,1,0,0:0:0:0:
256,192,192417,1,0,0:0:0:0:
256,192,192588,1,0,0:0:0:0:
256,192,192760,1,8,0:0:0:0:
256,192,192931,1,8,0:0:0:0:
256,192,193103,1,0,0:0:0:0:
256,192,193275,1,0,0:0:0:0:
256,192,193445,1,8,0:0:0:0:
256,192,193617,1,0,0:0:0:0:
256,192,193788,1,0,0:0:0:0:
256,192,193960,1,8,0:0:0:0:
256,192,194645,1,0,0:0:0:0:
256,192,194817,1,8,0:0:0:0:
256,192,194903,1,0,0:0:0:0:
256,192,194988,1,0,0:0:0:0:
256,192,195074,1,8,0:0:0:0:
256,192,195160,1,8,0:0:0:0:
256,192,195245,1,0,0:0:0:0:
256,192,195331,1,8,0:0:0:0:
256,192,195417,1,0,0:0:0:0:
256,192,195503,1,8,0:0:0:0:
256,192,195588,1,8,0:0:0:0:
256,192,195674,1,0,0:0:0:0:
256,192,195760,1,0,0:0:0:0:
256,192,195845,1,8,0:0:0:0:
256,192,195931,1,0,0:0:0:0:
256,192,196017,1,0,0:0:0:0:
256,192,196103,1,0,0:0:0:0:
256,192,196188,1,8,0:0:0:0:
256,192,196360,1,0,0:0:0:0:
256,192,196531,1,0,0:0:0:0:
256,192,196703,1,0,0:0:0:0:
256,192,197045,1,0,0:0:0:0:
256,192,197217,1,12,0:0:0:0:
256,192,197561,1,8,0:0:0:0:
256,192,197732,1,8,0:0:0:0:
256,192,197818,1,8,0:0:0:0:
256,192,197903,1,0,0:0:0:0:
256,192,197989,1,0,0:0:0:0:
256,192,198075,1,8,0:0:0:0:
256,192,198161,1,0,0:0:0:0:
256,192,198246,1,8,0:0:0:0:
256,192,198332,1,8,0:0:0:0:
256,192,198418,1,0,0:0:0:0:
256,192,198503,1,0,0:0:0:0:
256,192,198589,1,8,0:0:0:0:
256,192,198932,1,8,0:0:0:0:
256,192,199103,1,0,0:0:0:0:
256,192,199189,1,0,0:0:0:0:
256,192,199275,1,8,0:0:0:0:
256,192,199446,1,0,0:0:0:0:
256,192,199618,1,0,0:0:0:0:
256,192,199789,1,0,0:0:0:0:
256,192,199961,1,8,0:0:0:0:
256,192,200132,1,8,0:0:0:0:
256,192,200303,1,0,0:0:0:0:
256,192,200475,1,8,0:0:0:0:
256,192,200561,1,8,0:0:0:0:
256,192,200646,1,8,0:0:0:0:
256,192,200818,1,0,0:0:0:0:
256,192,200989,1,0,0:0:0:0:
256,192,201161,1,0,0:0:0:0:
256,192,201246,1,0,0:0:0:0:
256,192,201332,1,8,0:0:0:0:
256,192,201503,1,8,0:0:0:0:
256,192,201675,1,0,0:0:0:0:
256,192,201846,1,0,0:0:0:0:
256,192,201932,1,0,0:0:0:0:
256,192,202018,1,8,0:0:0:0:
256,192,202189,1,0,0:0:0:0:
256,192,202361,1,0,0:0:0:0:
256,192,202532,1,8,0:0:0:0:
256,192,202618,1,0,0:0:0:0:
256,192,202703,1,8,0:0:0:0:
256,192,202875,1,0,0:0:0:0:
256,192,203046,1,8,0:0:0:0:
256,192,203218,1,0,0:0:0:0:
256,192,203303,1,0,0:0:0:0:
256,192,203389,1,8,0:0:0:0:
256,192,203561,1,8,0:0:0:0:
256,192,203732,1,0,0:0:0:0:
256,192,203903,1,0,0:0:0:0:
256,192,204075,1,8,0:0:0:0:
256,192,204246,1,8,0:0:0:0:
256,192,204418,1,4,0:0:0:0:
256,192,204761,1,12,0:0:0:0:
256,192,205103,1,4,0:0:0:0:
256,192,205275,1,0,0:0:0:0:
256,192,205446,1,8,0:0:0:0:
256,192,205789,1,8,0:0:0:0:
256,192,205961,1,0,0:0:0:0:
256,192,206132,1,8,0:0:0:0:
256,192,206303,1,0,0:0:0:0:
256,192,206475,1,8,0:0:0:0:
256,192,206646,1,8,0:0:0:0:
256,192,206818,1,8,0:0:0:0:
256,192,206989,1,0,0:0:0:0:
256,192,207161,1,8,0:0:0:0:
256,192,207332,1,0,0:0:0:0:
256,192,207503,1,8,0:0:0:0:
256,192,207675,1,0,0:0:0:0:
256,192,207846,1,8,0:0:0:0:
256,192,208018,1,0,0:0:0:0:
256,192,208189,1,8,0:0:0:0:
256,192,208361,1,8,0:0:0:0:
256,192,208532,2,0,L|256:144,4,32.5
256,192,209046,1,0,0:0:0:0:
256,192,209217,1,0,0:0:0:0:
256,192,209389,1,0,0:0:0:0:
256,192,209560,1,8,0:0:0:0:
256,192,209646,1,8,0:0:0:0:
256,192,209732,1,8,0:0:0:0:
256,192,209817,1,8,0:0:0:0:
256,192,209903,1,0,0:0:0:0:
256,192,210075,1,8,0:0:0:0:
256,192,210161,1,0,0:0:0:0:
256,192,210246,1,8,0:0:0:0:
256,192,210418,1,8,0:0:0:0:
256,192,210589,1,0,0:0:0:0:
256,192,210761,1,0,0:0:0:0:
256,192,210932,1,8,0:0:0:0:
256,192,211103,1,8,0:0:0:0:
256,192,211275,1,0,0:0:0:0:
256,192,211446,1,0,0:0:0:0:
256,192,211532,1,0,0:0:0:0:
256,192,211618,1,8,0:0:0:0:
256,192,211789,1,8,0:0:0:0:
256,192,211961,1,0,0:0:0:0:
256,192,212132,1,0,0:0:0:0:
256,192,212303,1,8,0:0:0:0:
256,192,212475,1,0,0:0:0:0:
256,192,212646,1,0,0:0:0:0:
256,192,212818,1,8,0:0:0:0:
256,192,212903,1,8,0:0:0:0:
256,192,212989,1,8,0:0:0:0:
256,192,213161,1,0,0:0:0:0:
256,192,213332,1,0,0:0:0:0:
256,192,213503,1,0,0:0:0:0:
256,192,213675,1,8,0:0:0:0:
256,192,213846,1,8,0:0:0:0:
256,192,214018,1,8,0:0:0:0:
256,192,214103,1,8,0:0:0:0:
256,192,214189,1,0,0:0:0:0:
256,192,214275,1,0,0:0:0:0:
256,192,214361,1,8,0:0:0:0:
256,192,214532,1,8,0:0:0:0:
256,192,214703,1,0,0:0:0:0:
256,192,214875,1,0,0:0:0:0:
256,192,215046,1,8,0:0:0:0:
256,192,215218,1,8,0:0:0:0:
256,192,215389,1,0,0:0:0:0:
256,192,215561,1,0,0:0:0:0:
256,192,215732,1,8,0:0:0:0:
256,192,215903,1,8,0:0:0:0:
256,192,216075,1,0,0:0:0:0:
256,192,216246,1,0,0:0:0:0:
256,192,216418,1,8,0:0:0:0:
256,192,216589,1,0,0:0:0:0:
256,192,216761,1,8,0:0:0:0:
256,192,216932,1,0,0:0:0:0:
256,192,217103,1,8,0:0:0:0:
256,192,217275,1,8,0:0:0:0:
256,192,217446,1,0,0:0:0:0:
256,192,217618,1,0,0:0:0:0:
256,192,217789,1,8,0:0:0:0:
256,192,217961,1,8,0:0:0:0:
256,192,218132,1,0,0:0:0:0:
256,192,218303,1,0,0:0:0:0:
256,192,218475,1,8,0:0:0:0:
256,192,218646,1,8,0:0:0:0:
256,192,218817,1,0,0:0:0:0:
256,192,218989,1,0,0:0:0:0:
256,192,219160,1,8,0:0:0:0:
256,192,219332,1,8,0:0:0:0:
256,192,219503,1,0,0:0:0:0:
256,192,219675,1,8,0:0:0:0:
256,192,219846,1,0,0:0:0:0:
256,192,220017,1,8,0:0:0:0:
256,192,220189,1,0,0:0:0:0:
256,192,220360,1,0,0:0:0:0:
256,192,220532,1,8,0:0:0:0:
256,192,220703,1,8,0:0:0:0:
256,192,220875,1,0,0:0:0:0:
256,192,221046,1,0,0:0:0:0:
256,192,221217,1,0,0:0:0:0:
256,192,221389,1,0,0:0:0:0:
256,192,221560,1,8,0:0:0:0:
256,192,221732,1,0,0:0:0:0:
256,192,221903,1,8,0:0:0:0:
256,192,222075,1,0,0:0:0:0:
256,192,222246,1,0,0:0:0:0:
256,192,222417,1,0,0:0:0:0:
256,192,222589,1,0,0:0:0:0:
256,192,222760,1,0,0:0:0:0:
256,192,222932,1,8,0:0:0:0:
256,192,223103,1,0,0:0:0:0:
256,192,223275,1,8,0:0:0:0:
256,192,223446,1,0,0:0:0:0:
256,192,223617,1,0,0:0:0:0:
256,192,223789,1,0,0:0:0:0:
256,192,223960,1,8,0:0:0:0:
256,192,224132,1,8,0:0:0:0:
256,192,224303,1,0,0:0:0:0:
256,192,224475,1,0,0:0:0:0:
256,192,224646,1,8,0:0:0:0:
256,192,224817,1,0,0:0:0:0:
256,192,224989,1,0,0:0:0:0:
256,192,225503,1,8,0:0:0:0:
256,192,226017,1,8,0:0:0:0:
256,192,226360,1,0,0:0:0:0:
256,192,226875,1,8,0:0:0:0:
256,192,227389,1,8,0:0:0:0:
256,192,227732,1,0,0:0:0:0:
256,192,228075,1,0,0:0:0:0:
256,192,228418,1,8,0:0:0:0:
256,192,228589,1,8,0:0:0:0:
256,192,228761,1,0,0:0:0:0:
256,192,228932,1,0,0:0:0:0:
256,192,229103,1,12,0:0:0:0:
256,192,229618,1,0,0:0:0:0:
256,192,230132,1,12,0:0:0:0:
256,192,230646,1,0,0:0:0:0:
256,192,230989,1,0,0:0:0:0:
256,192,231161,1,12,0:0:0:0:
256,192,231332,1,12,0:0:0:0:
256,192,231503,1,12,0:0:0:0:
256,192,231675,1,12,0:0:0:0:
