osu file format v14

[General]
AudioFilename: audio.mp3
AudioLeadIn: 0
PreviewTime: 41347
Countdown: 0
SampleSet: Soft
StackLeniency: 0.7
Mode: 0
LetterboxInBreaks: 0
WidescreenStoryboard: 1

[Editor]
Bookmarks: 18811
DistanceSpacing: 1
BeatDivisor: 3
GridSize: 16
TimelineZoom: 2.599999

[Metadata]
Title:HAPPY!! Strange Friends (TV Size)
TitleUnicode:HAPPY!!ストレンジフレンズ (TV Size)
Artist:Miyu Tomita, Yu Sasahara, Lynn, Azumi Waki
ArtistUnicode:富田美憂, 篠原侑, Lynn, 和氣あず未
Creator:GfMRT
Version:Normal
Source:となりの吸血鬼さん
Tags:japanese pop 2018 fall anime ed ending Ms. Vampire who lives in my neighborhood Tonari no Kyūketsuki-san kyuuketsuki cutie ladies ソフィー・トワイライト Sophie Twilight 天野灯 Akari Amano 夏木ひなた Hinata Natsuki エリー Elly Flask Deppyforce MiyohashiKoori
BeatmapID:3051035
BeatmapSetID:966397

[Difficulty]
HPDrainRate:3.6
CircleSize:3.4
OverallDifficulty:4.3
ApproachRate:6
SliderMultiplier:1
SliderTickRate:1

[Events]
//Background and Video events
Video,0,"video.mp4"
0,0,"cd.jpg",0,0
//Break Periods
//Storyboard Layer 0 (Background)
//Storyboard Layer 1 (Fail)
//Storyboard Layer 2 (Pass)
//Storyboard Layer 3 (Foreground)
//Storyboard Layer 4 (Overlay)
//Storyboard Sound Samples

[TimingPoints]
27,283.018867924528,4,2,1,40,1,0
923,-100,4,2,1,29,0,0
970,-100,4,2,1,31,0,0
1017,-100,4,2,1,33,0,0
1064,-100,4,2,1,35,0,0
1111,-100,4,2,1,37,0,0
1159,283.018867924528,4,2,1,40,1,0
10215,-111.111111111111,4,2,1,33,0,0
18140,-111.111111111111,4,2,1,38,0,0
18423,-111.111111111111,4,2,1,36,0,0
18706,-111.111111111111,4,2,1,34,0,0
18989,-111.111111111111,4,2,1,32,0,0
19272,-111.111111111111,4,2,1,40,0,0
19555,-100,4,2,1,40,0,0
22668,-100,4,2,1,46,0,0
23800,-100,4,2,1,40,0,0
26630,-100,4,2,1,42,0,0
27196,-100,4,2,1,44,0,0
27762,-100,4,2,1,46,0,0
28328,-111.111111111111,4,2,1,40,0,0
28894,-111.111111111111,4,2,1,40,0,0
35121,-100,4,2,1,45,0,0
40781,-100,4,2,1,50,0,0
41677,-100,4,2,1,26,0,0
41913,-90.9090909090909,4,2,20,59,0,1
42008,-90.9090909090909,4,2,1,59,0,1
46442,-90.9090909090909,4,2,20,59,0,1
46536,-90.9090909090909,4,2,1,59,0,1
48706,-90.9090909090909,4,2,1,59,0,1
49838,-90.9090909090909,4,2,20,59,0,1
49932,-90.9090909090909,4,2,1,59,0,1
50404,-90.9090909090909,4,2,1,48,0,0
50687,-90.9090909090909,4,2,1,52,0,0
50970,-90.9090909090909,4,2,20,59,0,1
51064,-90.9090909090909,4,2,1,59,0,1
54366,-90.9090909090909,4,2,1,65,0,1
55498,-90.9090909090909,4,2,20,59,0,1
55592,-90.9090909090909,4,2,1,59,0,1
57667,-90.9090909090909,4,2,20,59,0,1
57762,-90.9090909090909,4,2,1,59,0,1
58800,-90.9090909090909,4,2,20,59,0,1
58894,-90.9090909090909,4,2,1,59,0,1
59932,-90.9090909090909,4,2,20,50,0,0
60026,-90.9090909090909,4,2,1,50,0,0
61158,-90.9090909090909,4,2,1,50,0,0
61441,-90.9090909090909,4,2,1,54,0,0
61725,-90.9090909090909,4,2,1,58,0,0
62008,-90.9090909090909,4,2,1,62,0,0
62291,-90.9090909090909,4,2,1,66,0,1
63423,-90.9090909090909,4,2,1,69,0,1
63611,-90.9090909090909,4,2,1,40,0,1
63706,-90.9090909090909,4,2,1,40,0,0
64555,-90.9090909090909,4,2,1,59,0,1
67951,-90.9090909090909,4,2,1,65,0,1
69083,-90.9090909090909,4,2,20,59,0,1
69177,-90.9090909090909,4,2,1,59,0,1
71252,-90.9090909090909,4,2,20,59,0,1
71347,-90.9090909090909,4,2,1,59,0,1
72385,-90.9090909090909,4,2,20,59,0,1
72479,-90.9090909090909,4,2,1,59,0,1
73517,-90.9090909090909,4,2,20,59,0,1
73611,-100,4,2,1,48,0,0
74649,-100,4,2,20,48,0,0
74743,-100,4,2,1,48,0,0
75781,-100,4,2,20,48,0,0
75875,-100,4,2,1,53,0,0
76724,-100,4,2,1,55,0,0
77007,-100,4,2,1,59,0,0
77290,-100,4,2,1,63,0,0
77574,-100,4,2,1,67,0,0
77857,-100,4,2,1,70,0,0
78140,-90.9090909090909,4,2,1,70,0,1
79272,-90.9090909090909,4,2,1,70,0,0
79555,-90.9090909090909,4,2,1,50,0,0
80404,-100,4,2,1,40,0,0
81819,-100,4,2,1,48,0,0
82668,-100,4,2,1,40,0,0
83800,-100,4,2,1,55,0,0
84366,-100,4,2,1,60,0,0
84932,-100,4,2,1,40,0,0
85215,-100,4,2,1,45,0,0
85498,-100,4,2,1,50,0,0
85781,-100,4,2,1,55,0,0
86064,-100,4,2,1,60,0,0
87196,-125,4,2,1,60,0,0
87291,-125,4,2,1,29,0,0

[Colours]
Combo1 : 82,213,255
Combo2 : 255,169,56
Combo3 : 247,236,118
Combo4 : 255,170,240

[HitObjects]
184,319,1159,6,0,P|230:295|272:312,1,100,6|8,3:2|2:0,0:0:0:0:
366,345,1725,2,0,L|354:237,1,100,2|8,3:2|2:0,0:0:0:0:
397,154,2291,1,2,3:2:0:0:
297,164,2574,1,8,3:2:0:0:
204,126,2857,2,0,P|171:82|116:106,1,100,10|8,3:2|3:2,0:0:0:0:
59,158,3423,6,0,B|59:295|96:200|90:354,1,200,6|2,3:2|2:0,0:0:0:0:
189,360,4272,1,8,3:2:0:0:
287,379,4555,2,0,P|334:372|355:329,1,100,2|8,3:2|3:2,0:0:0:0:
343,263,5026,2,0,P|277:251|212:235,1,133.333333333333,0|8,3:2|2:0,0:0:0:0:
115,213,5687,5,6,3:2:0:0:
147,118,5970,1,8,3:2:0:0:
245,102,6253,2,0,P|292:112|347:118,1,100,2|8,3:2|2:0,0:0:0:0:
427,63,6819,2,0,B|455:67|486:47|486:47|456:101|493:224|466:94|515:243|487:295,1,300,2|8,3:2|3:2,0:0:0:0:
426,355,7951,6,0,P|379:351|314:325,1,100,6|8,3:2|3:2,0:0:0:0:
237,373,8517,2,0,P|199:344|159:286,1,100,2|8,3:2|3:2,0:0:0:0:
180,203,9083,5,6,1:2:0:0:
180,203,9366,1,12,1:2:0:0:
273,238,9649,2,0,P|307:199|264:192,1,100,6|8,1:2|2:0,0:0:0:0:
214,121,10215,6,0,P|164:106|70:112,1,134.999995880127,6|0,3:2|3:2,0:0:0:0:
39,125,10781,1,2,3:2:0:0:
36,214,11064,1,8,2:0:0:0:
98,278,11347,2,0,P|148:263|242:269,1,134.999995880127,2|0,3:2|3:2,0:0:0:0:
272,282,11913,1,2,3:2:0:0:
356,314,12196,1,8,3:2:0:0:
446,319,12479,6,0,P|491:252|410:216,1,179.999994506836,2|2,3:2|2:0,0:0:0:0:
332,205,13328,1,8,3:2:0:0:
250,167,13611,2,0,P|255:116|275:59,1,89.9999972534181,2|8,3:2|3:2,0:0:0:0:
331,17,14177,1,2,3:2:0:0:
331,17,14460,1,8,3:2:0:0:
397,78,14743,6,0,P|409:121|406:216,1,134.999995880127,6|0,3:2|3:2,0:0:0:0:
382,248,15309,1,2,3:2:0:0:
292,241,15592,1,8,2:0:0:0:
224,181,15875,2,0,P|180:151|96:176,1,134.999995880127,2|0,3:2|3:2,0:0:0:0:
77,205,16442,1,2,3:2:0:0:
62,295,16725,1,8,3:2:0:0:
119,363,17008,6,0,B|180:396|208:372|235:358|305:364,1,179.999994506836,2|2,3:2|2:0,0:0:0:0:
384,371,17857,1,8,1:2:0:0:
449,309,18140,2,0,L|431:219,1,89.9999972534181,2|8,1:2|1:2,0:0:0:0:
458,135,18706,2,0,P|408:133|357:166,1,89.9999972534181,2|8,1:2|1:2,0:0:0:0:
304,213,19272,1,4,2:1:0:0:
204,224,19555,6,0,L|187:118,1,100,8|2,3:2|3:2,0:0:0:0:
5,43,20404,2,0,P|-7:80|0:144,1,100,2|8,3:2|3:2,0:0:0:0:
46,226,20970,2,0,P|51:274|35:328,1,100,2|8,2:3|2:0,0:0:0:0:
117,384,21536,1,4,2:1:0:0:
227,384,21819,6,0,L|246:271,1,100,8|2,3:2|3:2,0:0:0:0:
185,94,22668,2,0,P|219:83|284:89,1,100,2|8,3:2|3:2,0:0:0:0:
372,130,23234,2,0,P|416:135|471:119,1,100,2|8,2:3|2:0,0:0:0:0:
512,30,23800,5,6,2:0:0:0:
295,0,24366,2,0,L|280:102,1,100,2|8,3:2|3:2,0:0:0:0:
313,193,24932,2,0,P|262:196|205:164,1,100,2|8,3:2|3:2,0:0:0:0:
160,94,25498,1,2,2:0:0:0:
63,121,25781,1,8,2:0:0:0:
19,211,26064,6,0,P|67:290|147:243,1,200,6|2,2:0|3:2,0:0:0:0:
277,98,27196,2,0,P|317:14|401:52,1,200,6|10,1:2|1:2,0:0:0:0:
469,214,28328,5,6,1:2:0:0:
390,257,28611,1,8,1:2:0:0:
309,217,28894,2,0,P|267:202|206:207,1,89.9999972534181,2|8,1:2|2:0,0:0:0:0:
61,284,29743,2,0,L|69:382,2,89.9999972534181,8|2|8,3:2|3:2|3:2,0:0:0:0:
59,194,30592,5,6,1:2:0:0:
138,237,30875,1,8,1:2:0:0:
219,197,31158,2,0,P|261:182|322:187,1,89.9999972534181,2|8,1:2|2:0,0:0:0:0:
473,183,32008,2,0,L|484:79,2,89.9999972534181,8|2|8,3:2|3:2|3:2,0:0:0:0:
390,217,32857,5,6,1:2:0:0:
305,182,33140,1,8,1:2:0:0:
217,198,33423,2,0,P|174:213|130:212,1,89.9999972534181,2|8,1:2|2:0,0:0:0:0:
1,76,34272,2,0,P|45:67|94:78,1,89.9999972534181,8|2,3:2|3:2,0:0:0:0:
165,121,34838,1,8,3:2:0:0:
217,198,35121,6,0,L|236:304,1,100,6|8,3:2|2:0,0:0:0:0:
334,303,35687,2,0,L|351:204,1,100,2|8,3:2|2:0,0:0:0:0:
417,129,36253,1,2,1:2:0:0:
318,112,36536,1,8,1:2:0:0:
248,40,36819,2,0,P|201:7|147:5,1,100,2|8,1:2|1:2,0:0:0:0:
73,53,37385,6,0,L|92:165,1,100,4|8,2:1|2:0,0:0:0:0:
182,190,37951,2,0,L|163:302,1,100,2|8,2:0|2:0,0:0:0:0:
120,377,38517,5,2,3:2:0:0:
31,329,38800,2,0,P|21:282|47:226,2,100,8|2|8,1:2|1:2|1:2,0:0:0:0:
138,384,39649,6,0,P|265:350|354:371,1,200,2|2,3:0|3:0,0:0:0:0:
512,275,40781,1,6,1:2:0:0:
512,275,41064,1,12,1:2:0:0:
445,200,41347,2,0,L|322:216,1,100,6|8,1:2|2:0,0:0:0:0:
247,263,41913,6,0,P|206:228|152:267,1,110.000003356934,6|8,3:2|2:0,0:0:0:0:
57,287,42479,2,0,L|89:84,1,183.333338928223,2|0,3:2|3:2,0:0:0:0:
92,69,43045,1,2,3:2:0:0:
185,127,43328,1,8,3:2:0:0:
294,138,43611,2,0,P|346:123|394:96,1,110.000003356934,2|8,3:2|3:2,0:0:0:0:
492,47,44177,6,0,B|506:79|506:79|493:108|507:159,1,110.000003356934,6|8,1:2|2:0,0:0:0:0:
511,262,44743,1,2,3:2:0:0:
473,365,45026,2,0,P|432:340|383:337,1,73.3333355712891,8|8,3:2|3:2,0:0:0:0:
370,339,45309,6,0,P|312:352|275:308,1,110.000003356934,6|8,2:0|3:2,0:0:0:0:
269,240,45781,1,8,1:2:0:0:
325,145,46064,2,0,P|305:94|247:100,1,110.000003356934,8|0,1:2|2:0,0:0:0:0:
227,118,46442,5,6,3:2:0:0:
169,24,46725,1,8,3:2:0:0:
59,16,47008,2,0,L|71:147,1,110.000003356934,2|8,3:2|2:0,0:0:0:0:
33,197,47479,2,0,L|18:330,1,110.000003356934,8|0,3:2|3:2,0:0:0:0:
16,343,47857,1,8,1:2:0:0:
118,384,48140,1,2,1:2:0:0:
227,382,48423,2,0,P|279:357|305:368,1,73.3333355712891,8|0,2:0|2:0,0:0:0:0:
326,379,48706,6,0,P|338:325|343:270,1,110.000003356934,6|8,1:2|2:0,0:0:0:0:
338,190,49177,1,8,3:2:0:0:
447,177,49460,2,0,P|432:113|430:57,1,110.000003356934,8|8,3:2|2:0,0:0:0:0:
411,37,49838,2,0,B|341:-3|267:33|280:80|168:103|139:50|162:-3|204:-7|233:-7|251:4|251:25|222:57,1,330.000010070801,6|12,2:0|3:2,0:0:0:0:
222,139,50970,6,0,P|208:210|194:249,1,110.000003356934,6|8,3:2|2:0,0:0:0:0:
92,283,51536,2,0,P|74:230|65:176,1,110.000003356934,2|8,3:2|2:0,0:0:0:0:
85,68,52102,1,2,3:2:0:0:
185,113,52385,1,8,3:2:0:0:
267,40,52668,2,0,P|319:25|384:25,1,110.000003356934,2|8,3:2|3:2,0:0:0:0:
473,71,53234,6,0,B|470:136|470:136|466:176|433:198,1,110.000003356934,6|8,1:2|2:0,0:0:0:0:
356,226,53800,1,2,3:2:0:0:
273,154,54083,2,0,P|223:139|189:144,1,73.3333355712891,8|8,3:2|3:2,0:0:0:0:
166,148,54366,6,0,L|180:257,1,110.000003356934,4|8,2:1|3:2,0:0:0:0:
193,336,54838,2,0,P|133:358|84:327,2,110.000003356934,8|8|8,1:2|1:2|3:2,0:0:0:0:
227,322,55498,6,0,P|328:309|413:388,1,220.000006713867,6|2,3:2|3:2,0:0:0:0:
493,310,56347,1,8,2:0:0:0:
464,203,56630,1,6,3:2:0:0:
354,214,56913,2,0,P|318:200|288:174,1,73.3333355712891,8|0,3:2|3:2,0:0:0:0:
269,148,57196,2,0,P|210:107|94:101,1,183.333338928223,2|14,1:2|3:2,0:0:0:0:
67,113,57762,6,0,L|75:245,1,110.000003356934,4|8,3:0|3:2,0:0:0:0:
79,332,58328,1,2,1:2:0:0:
176,384,58611,2,0,P|212:370|242:344,1,73.3333355712891,8|14,2:0|3:2,0:0:0:0:
260,318,58894,6,0,P|319:277|380:267,1,110.000003356934,4|8,3:0|3:2,0:0:0:0:
465,273,59460,1,2,1:2:0:0:
512,174,59743,2,0,P|475:162|435:163,1,73.3333355712891,8|14,2:0|3:2,0:0:0:0:
405,172,60026,6,0,P|333:166|279:136,1,110.000003356934,4|8,1:0|3:2,0:0:0:0:
206,91,60592,1,2,3:2:0:0:
100,123,60875,1,8,3:2:0:0:
48,220,61158,6,0,L|67:340,1,110.000003356934,6|8,3:2|3:2,0:0:0:0:
167,369,61725,2,0,L|186:249,1,110.000003356934,6|8,3:2|3:2,0:0:0:0:
180,150,62291,6,0,P|241:163|270:185,1,73.3333355712891,6|0,1:2|2:0,0:0:0:0:
274,195,62574,1,12,1:2:0:0:
293,303,62857,2,0,P|349:273|370:245,1,73.3333355712891,6|0,1:2|2:0,0:0:0:0:
377,238,63140,1,12,1:2:0:0:
485,218,63423,5,4,2:1:0:0:
512,0,64555,6,0,P|459:17|405:26,1,110.000003356934,6|8,3:2|2:0,0:0:0:0:
327,103,65121,2,0,P|274:85|220:76,1,110.000003356934,2|8,3:2|2:0,0:0:0:0:
114,104,65687,1,2,3:2:0:0:
92,211,65970,1,8,3:2:0:0:
174,283,66253,2,0,P|226:265|280:256,1,110.000003356934,2|8,3:2|3:2,0:0:0:0:
389,266,66819,6,0,P|462:230|373:152,1,220.000006713867,6|2,1:2|3:2,0:0:0:0:
287,163,67668,2,0,P|246:153|213:134,1,73.3333355712891,8|8,3:2|3:2,0:0:0:0:
186,120,67951,6,0,L|172:229,1,110.000003356934,4|8,2:1|3:2,0:0:0:0:
143,303,68423,2,0,P|83:325|34:294,2,110.000003356934,8|8|8,1:2|1:2|3:2,0:0:0:0:
178,309,69083,6,0,P|228:385|320:316,1,220.000006713867,6|2,3:2|3:2,0:0:0:0:
411,268,69932,1,8,3:2:0:0:
402,158,70215,1,6,3:2:0:0:
390,49,70498,2,0,P|351:51|312:42,1,73.3333355712891,8|0,3:2|3:2,0:0:0:0:
282,33,70781,2,0,P|210:22|104:69,1,183.333338928223,2|14,1:2|3:2,0:0:0:0:
88,93,71347,6,0,L|96:225,1,110.000003356934,4|8,3:0|3:2,0:0:0:0:
100,312,71913,1,2,1:2:0:0:
184,383,72196,2,0,P|220:369|250:343,1,73.3333355712891,8|14,2:0|3:2,0:0:0:0:
270,319,72479,6,0,P|329:278|390:268,1,110.000003356934,4|8,3:0|3:2,0:0:0:0:
476,273,73045,1,2,1:2:0:0:
512,174,73328,2,0,P|474:163|434:167,1,73.3333355712891,8|14,2:0|3:2,0:0:0:0:
408,177,73611,6,0,P|361:151|298:155,1,100,4|8,1:0|3:2,0:0:0:0:
220,182,74177,1,2,1:2:0:0:
135,235,74460,2,0,P|120:202|118:166,1,66.6666666666667,8|14,2:0|3:2,0:0:0:0:
119,137,74743,6,0,P|107:72|74:26,1,100,4|8,1:0|3:2,0:0:0:0:
0,0,75309,1,2,1:2:0:0:
0,99,75592,2,0,P|13:146|22:168,1,66.6666666666667,8|14,2:0|3:2,0:0:0:0:
38,190,75875,6,0,P|111:169|157:166,1,100,4|8,1:0|3:2,0:0:0:0:
233,185,76442,1,2,3:2:0:0:
322,230,76725,1,8,3:2:0:0:
400,291,77008,6,0,L|414:181,1,100,6|8,3:2|3:2,0:0:0:0:
510,167,77574,2,0,L|496:57,1,100,6|8,3:2|3:2,0:0:0:0:
391,38,78140,6,0,P|330:57|294:52,1,73.3333355712891,6|0,1:2|2:0,0:0:0:0:
285,49,78423,1,12,1:2:0:0:
218,136,78706,2,0,P|157:117|121:122,1,73.3333355712891,6|0,1:2|2:0,0:0:0:0:
112,125,78989,1,12,1:2:0:0:
63,223,79272,5,6,2:1:0:0:
323,318,80404,6,0,P|277:294|235:311,1,100,6|8,3:2|2:0,0:0:0:0:
141,344,80970,2,0,L|153:236,1,100,2|8,3:2|2:0,0:0:0:0:
164,145,81536,1,2,3:2:0:0:
259,178,81819,2,0,P|291:173|325:145,1,66.6666666666667,8|0,3:2|3:2,0:0:0:0:
336,124,82102,2,0,P|369:80|424:104,1,100,10|8,3:2|3:2,0:0:0:0:
466,168,82668,6,0,B|466:305|429:210|434:363,1,200,6|2,1:2|2:0,0:0:0:0:
337,384,83517,1,8,2:0:0:0:
243,351,83800,2,0,P|265:279|292:241,1,100,6|8,3:2|3:2,0:0:0:0:
359,201,84366,2,0,P|307:164|243:159,1,100,6|8,1:2|2:0,0:0:0:0:
188,209,84932,6,0,P|141:205|76:179,1,100,2|8,3:2|2:0,0:0:0:0:
61,81,85498,2,0,P|108:85|173:111,1,100,2|8,2:0|3:2,0:0:0:0:
254,60,86064,5,6,3:2:0:0:
254,60,86347,1,8,3:2:0:0:
349,93,86630,2,0,L|336:270,1,166.666666666667,2|8,3:2|3:2,0:0:0:0:
317,287,87196,6,0,B|287:320|254:339|254:339|209:333|163:308|163:308|95:265|79:203|121:161|165:143|226:168|226:168|247:151|277:143,1,480
