osu file format v14

[General]
AudioFilename: audio.mp3
AudioLeadIn: 0
PreviewTime: 41347
Countdown: 0
SampleSet: Soft
StackLeniency: 0.7
Mode: 0
LetterboxInBreaks: 0
WidescreenStoryboard: 1

[Editor]
DistanceSpacing: 1
BeatDivisor: 1
GridSize: 16
TimelineZoom: 1.8

[Metadata]
Title:HAPPY!! Strange Friends (TV Size)
TitleUnicode:HAPPY!!ストレンジフレンズ (TV Size)
Artist:Miyu Tomita, Yu Sasahara, Lynn, Azumi Waki
ArtistUnicode:富田美憂, 篠原侑, Lynn, 和氣あず未
Creator:GfMRT
Version:Easy
Source:となりの吸血鬼さん
Tags:japanese pop 2018 fall anime ed ending Ms. Vampire who lives in my neighborhood Tonari no Kyūketsuki-san kyuuketsuki cutie ladies ソフィー・トワイライト Sophie Twilight 天野灯 Akari Amano 夏木ひなた Hinata Natsuki エリー Elly Flask Deppyforce MiyohashiKoori
BeatmapID:2052862
BeatmapSetID:966397

[Difficulty]
HPDrainRate:1.2
CircleSize:2.4
OverallDifficulty:2.8
ApproachRate:3.6
SliderMultiplier:0.849999999999999
SliderTickRate:1

[Events]
//Background and Video events
Video,0,"video.mp4"
0,0,"72269528.jpg",0,0
//Break Periods
//Storyboard Layer 0 (Background)
//Storyboard Layer 1 (Fail)
//Storyboard Layer 2 (Pass)
//Storyboard Layer 3 (Foreground)
//Storyboard Layer 4 (Overlay)
//Storyboard Sound Samples

[TimingPoints]
27,283.018867924528,4,2,1,40,1,0
923,-100,4,2,1,29,0,0
970,-100,4,2,1,31,0,0
1017,-100,4,2,1,33,0,0
1064,-100,4,2,1,35,0,0
1111,-100,4,2,1,37,0,0
1159,283.018867924528,4,2,1,40,1,0
10215,-100,4,2,1,33,0,0
18140,-100,4,2,1,38,0,0
18423,-100,4,2,1,36,0,0
18706,-100,4,2,1,34,0,0
18989,-100,4,2,1,32,0,0
19272,-100,4,2,1,40,0,0
22668,-100,4,2,1,46,0,0
23800,-100,4,2,1,40,0,0
26630,-100,4,2,1,42,0,0
27196,-100,4,2,1,44,0,0
27762,-100,4,2,1,46,0,0
28328,-100,4,2,1,40,0,0
35121,-100,4,2,1,45,0,0
40781,-100,4,2,1,50,0,0
41677,-100,4,2,1,26,0,0
41913,-100,4,2,20,59,0,1
42008,-100,4,2,1,59,0,1
44177,-100,4,2,1,59,0,1
46442,-100,4,2,20,59,0,1
46536,-100,4,2,1,59,0,1
49838,-100,4,2,20,59,0,1
49932,-100,4,2,1,59,0,1
50404,-100,4,2,1,48,0,0
50687,-100,4,2,1,52,0,0
50970,-100,4,2,20,59,0,1
51064,-100,4,2,1,59,0,1
53234,-100,4,2,1,59,0,1
54366,-100,4,2,1,65,0,1
55498,-100,4,2,20,59,0,1
55592,-100,4,2,1,59,0,1
57668,-100,4,2,20,59,0,1
57762,-100,4,2,1,59,0,1
58800,-100,4,2,20,59,0,1
58894,-100,4,2,1,59,0,1
59932,-100,4,2,20,50,0,0
60026,-100,4,2,1,50,0,0
61441,-100,4,2,1,54,0,0
61725,-100,4,2,1,58,0,0
62008,-100,4,2,1,62,0,0
62291,-100,4,2,1,66,0,1
63423,-100,4,2,1,69,0,1
63611,-100,4,2,1,40,0,1
63706,-100,4,2,1,40,0,0
64555,-100,4,2,1,59,0,1
67951,-100,4,2,1,65,0,1
69083,-100,4,2,20,59,0,1
69177,-100,4,2,1,59,0,1
71253,-100,4,2,20,59,0,1
71347,-100,4,2,1,59,0,1
72385,-100,4,2,20,59,0,1
72479,-100,4,2,1,59,0,1
73517,-100,4,2,20,59,0,1
73611,-100,4,2,1,48,0,0
74649,-100,4,2,20,48,0,0
74743,-100,4,2,1,48,0,0
75781,-100,4,2,20,48,0,0
75875,-100,4,2,1,53,0,0
76725,-100,4,2,1,55,0,0
77008,-100,4,2,1,59,0,0
77291,-100,4,2,1,63,0,0
77574,-100,4,2,1,67,0,0
77857,-100,4,2,1,70,0,0
78140,-100,4,2,1,70,0,1
79272,-100,4,2,1,70,0,0
79555,-100,4,2,1,50,0,0
80404,-100,4,2,1,40,0,0
81819,-100,4,2,1,48,0,0
82668,-100,4,2,1,40,0,0
83800,-100,4,2,1,55,0,0
84366,-100,4,2,1,60,0,0
84932,-100,4,2,1,40,0,0
85215,-100,4,2,1,45,0,0
85498,-100,4,2,1,50,0,0
85781,-100,4,2,1,55,0,0
86064,-100,4,2,1,60,0,0
87291,-100,4,2,1,29,0,0
88894,-100,4,2,1,29,0,0

[Colours]
Combo1 : 82,213,255
Combo2 : 255,169,56
Combo3 : 247,236,118
Combo4 : 255,170,240

[HitObjects]
78,344,1159,6,0,P|90:260|76:176,1,170,6|2,3:2|3:2,0:0:0:0:
239,126,2291,1,2,3:2:0:0:
286,196,2574,1,8,3:2:0:0:
366,219,2857,2,0,P|410:220|456:202,1,84.9999999999999,10|8,3:2|3:2,0:0:0:0:
497,137,3423,6,0,P|446:58|395:95,1,170,6|2,3:2|2:0,0:0:0:0:
319,119,4272,1,8,3:2:0:0:
243,79,4555,2,0,P|201:74|159:79,1,84.9999999999999,2|8,3:2|3:2,0:0:0:0:
140,162,5121,2,0,P|172:187|213:202,1,84.9999999999999,2|8,2:0|2:0,0:0:0:0:
293,232,5687,6,0,L|306:342,2,84.9999999999999,6|8|2,3:2|3:2|3:2,0:0:0:0:
451,169,6819,2,0,P|473:98|399:88,1,170,2|2,3:2|2:0,0:0:0:0:
241,153,7951,6,0,P|193:160|133:152,1,84.9999999999999,6|8,3:2|3:2,0:0:0:0:
72,164,8517,2,0,P|79:212|71:272,1,84.9999999999999,2|8,3:2|3:2,0:0:0:0:
52,329,9083,1,6,1:2:0:0:
117,383,9366,1,12,1:2:0:0:
200,366,9649,1,6,1:2:0:0:
286,219,10215,5,6,3:2:0:0:
451,262,10781,1,2,3:2:0:0:
493,97,11347,1,2,3:2:0:0:
328,55,11913,1,2,3:2:0:0:
286,219,12479,2,0,P|239:287|161:241,1,170,2|2,3:2|2:0,0:0:0:0:
130,184,13328,1,8,3:2:0:0:
136,99,13611,2,0,P|152:55|178:12,1,84.9999999999999,2|8,3:2|3:2,0:0:0:0:
256,26,14177,2,0,L|348:19,1,84.9999999999999,2|8,3:2|3:2,0:0:0:0:
416,58,14743,5,6,3:2:0:0:
477,215,15309,1,2,3:2:0:0:
316,271,15875,1,2,3:2:0:0:
256,114,16441,1,2,3:2:0:0:
86,130,17008,2,0,B|61:281|37:206|85:311,1,170,2|2,3:2|2:0,0:0:0:0:
143,345,17857,1,8,1:2:0:0:
223,320,18140,2,0,P|284:327|321:307,1,84.9999999999999,2|8,1:2|1:2,0:0:0:0:
325,237,18706,2,0,P|386:230|422:250,1,84.9999999999999,2|8,1:2|1:2,0:0:0:0:
472,290,19272,6,0,L|496:377,2,84.9999999999999,4|8|2,2:1|3:2|3:2,0:0:0:0:
305,320,20404,2,0,P|250:336|201:325,1,84.9999999999999,2|8,3:2|3:2,0:0:0:0:
208,249,20970,2,0,P|152:233|103:245,1,84.9999999999999,2|8,2:3|2:0,0:0:0:0:
60,290,21536,6,0,P|43:247|53:192,2,84.9999999999999,4|8|2,2:1|3:2|3:2,0:0:0:0:
224,332,22668,2,0,P|280:348|329:337,1,84.9999999999999,2|8,3:2|3:2,0:0:0:0:
318,261,23234,2,0,P|373:245|422:256,1,84.9999999999999,2|8,2:3|2:0,0:0:0:0:
477,280,23800,6,0,B|492:217|470:198|447:180|471:105,1,170,6|2,2:0|3:2,0:0:0:0:
486,31,24649,1,8,3:2:0:0:
404,55,24932,2,0,P|352:58|314:42,1,84.9999999999999,2|8,3:2|3:2,0:0:0:0:
242,16,25498,2,0,P|189:11|152:27,1,84.9999999999999,2|8,2:0|2:0,0:0:0:0:
93,76,26064,6,0,L|130:240,1,170,6|2,2:0|3:2,0:0:0:0:
300,244,27196,2,0,L|337:79,1,170,6|10,1:2|1:2,0:0:0:0:
184,3,28328,5,6,1:2:0:0:
100,17,28611,1,8,1:2:0:0:
16,34,28894,1,2,1:2:0:0:
76,282,29743,2,0,L|88:374,2,84.9999999999999,8|2|8,3:2|3:2|3:2,0:0:0:0:
145,232,30592,5,6,1:2:0:0:
229,247,30875,1,8,1:2:0:0:
312,263,31158,1,2,1:2:0:0:
247,16,32008,2,0,P|293:1|346:17,2,84.9999999999999,8|2|8,3:2|3:2|3:2,0:0:0:0:
181,70,32857,5,6,1:2:0:0:
170,154,33140,1,8,1:2:0:0:
160,238,33423,1,2,1:2:0:0:
413,209,34272,2,0,L|399:117,2,84.9999999999999,8|2|8,3:2|3:2|3:2,0:0:0:0:
488,249,35121,5,6,3:2:0:0:
376,374,35687,1,2,3:2:0:0:
207,345,36253,2,0,P|165:349|123:340,2,84.9999999999999,2|8|2,1:2|1:2|1:2,0:0:0:0:
259,276,37102,6,0,P|199:115|104:259,1,424.999999999999,8|2,1:2|3:2,0:0:0:0:
125,341,38800,2,0,P|168:351|217:343,2,84.9999999999999,8|2|8,1:2|1:2|1:2,0:0:0:0:
43,318,39649,5,2,3:0:0:0:
188,232,40215,1,2,3:0:0:0:
41,149,40781,1,6,1:2:0:0:
42,233,41064,1,12,1:2:0:0:
43,318,41347,1,6,1:2:0:0:
212,314,41913,6,0,P|211:262|206:216,1,84.9999999999999,6|8,3:2|2:0,0:0:0:0:
130,194,42479,2,0,P|131:142|136:96,1,84.9999999999999,2|8,3:2|2:0,0:0:0:0:
104,29,43045,2,0,P|54:34|4:30,2,84.9999999999999,2|8|2,3:2|3:2|3:2,0:0:0:0:
188,17,43894,1,8,3:2:0:0:
273,25,44177,2,0,P|290:108|301:193,1,170,6|2,1:2|3:2,0:0:0:0:
300,278,45026,1,8,3:2:0:0:
323,360,45309,2,0,P|365:359|404:344,1,84.9999999999999,6|8,2:0|3:2,0:0:0:0:
440,268,45875,2,0,P|417:231|385:203,1,84.9999999999999,2|8,2:0|2:0,0:0:0:0:
301,193,46442,6,0,L|207:207,1,84.9999999999999,6|8,3:2|3:2,0:0:0:0:
134,219,47008,1,2,3:2:0:0:
74,60,47574,2,0,L|169:74,1,84.9999999999999,6|8,3:2|1:2,0:0:0:0:
242,85,48140,1,2,1:2:0:0:
410,68,48706,6,0,L|422:152,1,84.9999999999999,6|8,1:2|2:0,0:0:0:0:
466,225,49272,2,0,L|452:310,1,84.9999999999999,2|8,2:0|2:0,0:0:0:0:
388,364,49838,2,0,P|321:358|304:332,1,84.9999999999999,6|8,2:0|3:2,0:0:0:0:
236,309,50404,1,2,1:2:0:0:
66,316,50970,6,0,P|71:251|83:213,1,84.9999999999999,6|8,3:2|2:0,0:0:0:0:
137,173,51536,2,0,P|209:167|237:179,1,84.9999999999999,2|8,3:2|2:0,0:0:0:0:
282,228,52102,2,0,L|291:325,2,84.9999999999999,2|8|2,3:2|3:2|3:2,0:0:0:0:
317,150,52951,1,8,3:2:0:0:
391,109,53234,2,0,P|478:115|480:204,1,170,6|2,1:2|3:2,0:0:0:0:
461,263,54083,1,8,3:2:0:0:
431,342,54366,6,0,P|389:349|353:369,1,84.9999999999999,4|8,2:1|3:2,0:0:0:0:
267,378,54932,1,2,2:0:0:0:
186,351,55215,1,8,2:0:0:0:
104,373,55498,2,0,P|23:366|62:223,1,255,6|8,3:2|2:0,0:0:0:0:
122,254,56630,2,0,P|161:257|206:244,1,84.9999999999999,6|8,3:2|3:2,0:0:0:0:
267,187,57196,1,2,1:2:0:0:
249,18,57762,6,0,L|349:-4,2,84.9999999999999,4|8|2,3:0|3:2|1:2,0:0:0:0:
177,65,58611,1,8,2:0:0:0:
100,103,58894,2,0,L|1:78,2,84.9999999999999,4|8|2,3:0|3:2|1:2,0:0:0:0:
259,192,60026,6,0,P|303:172|355:165,1,84.9999999999999,4|8,1:0|3:2,0:0:0:0:
421,183,60592,1,2,3:2:0:0:
429,267,60875,1,8,3:2:0:0:
375,332,61158,2,0,P|337:312|296:305,1,84.9999999999999,6|8,3:2|3:2,0:0:0:0:
211,301,61725,1,6,3:2:0:0:
201,216,62008,1,8,3:2:0:0:
164,139,62291,6,0,P|33:95|69:234,1,340,6|4,1:2|2:1,0:0:0:0:
394,313,64555,6,0,P|388:258|375:212,1,84.9999999999999,6|8,3:2|2:0,0:0:0:0:
324,165,65121,2,0,P|282:155|240:151,1,84.9999999999999,2|8,3:2|2:0,0:0:0:0:
171,201,65687,2,0,P|116:207|70:220,2,84.9999999999999,2|8|2,3:2|3:2|3:2,0:0:0:0:
216,273,66536,1,8,3:2:0:0:
282,327,66819,2,0,P|426:274|474:287,1,170,6|2,1:2|3:2,0:0:0:0:
478,201,67668,1,8,3:2:0:0:
442,123,67951,6,0,B|393:122|341:102,1,84.9999999999999,4|8,2:1|3:2,0:0:0:0:
281,72,68517,1,2,2:0:0:0:
195,71,68800,1,8,2:0:0:0:
111,55,69083,2,0,B|88:111|107:176|129:156|140:218|116:303,1,255,6|8,3:2|3:2,0:0:0:0:
183,355,70215,2,0,P|225:349|267:353,1,84.9999999999999,6|8,3:2|3:2,0:0:0:0:
334,302,70781,1,2,1:2:0:0:
228,169,71347,6,0,P|229:127|248:37,2,84.9999999999999,4|8|2,3:0|3:2|1:2,0:0:0:0:
168,229,72196,1,8,2:0:0:0:
90,263,72479,2,0,P|44:247|-4:242,2,84.9999999999999,4|8|2,3:0|3:2|1:2,0:0:0:0:
243,336,73611,2,0,P|315:365|337:279,1,170,4|2,1:0|1:2,0:0:0:0:
309,219,74460,1,8,2:0:0:0:
278,139,74743,2,0,P|310:69|381:99,1,170,4|2,1:0|1:2,0:0:0:0:
485,234,75875,6,0,P|490:275|477:355,1,84.9999999999999,4|8,1:0|3:2,0:0:0:0:
409,353,76442,1,2,3:2:0:0:
346,297,76725,1,8,3:2:0:0:
353,212,77008,2,0,P|371:167|405:129,1,84.9999999999999,6|8,3:2|3:2,0:0:0:0:
459,85,77574,1,6,3:2:0:0:
416,12,77857,1,8,3:2:0:0:
342,53,78140,2,0,B|295:-3|222:-14|171:23|152:99|180:154|223:170|283:112|306:231,1,340,6|6,1:2|2:1,0:0:0:0:
353,212,80404,5,6,3:2:0:0:
270,360,80970,1,2,3:2:0:0:
440,353,81536,2,0,P|426:310|402:250,1,84.9999999999999,2|8,3:2|3:2,0:0:0:0:
439,192,82102,1,10,3:2:0:0:
460,110,82385,1,8,3:2:0:0:
386,68,82668,6,0,B|351:101|311:107|311:107|256:84|216:81,1,170,6|2,1:2|2:0,0:0:0:0:
153,115,83517,1,8,2:0:0:0:
114,191,83800,2,0,P|35:217|22:135,1,170,6|6,3:2|1:2,0:0:0:0:
135,34,84932,6,0,P|170:14|218:10,1,84.9999999999999,2|8,3:2|2:0,0:0:0:0:
282,60,85498,2,0,P|319:77|368:75,1,84.9999999999999,2|8,2:0|3:2,0:0:0:0:
443,50,86064,1,6,3:2:0:0:
463,132,86347,1,8,3:2:0:0:
481,215,86630,2,0,L|458:348,1,84.9999999999999,2|8,3:2|3:2,0:0:0:0:
450,382,87196,5,0,0:0:0:0:
256,192,87291,12,0,88894,0:0:0:0:
