osu file format v14

[General]
AudioFilename: audio.mp3
AudioLeadIn: 0
PreviewTime: 41347
Countdown: 0
SampleSet: Soft
StackLeniency: 0.7
Mode: 0
LetterboxInBreaks: 0
WidescreenStoryboard: 0

[Editor]
Bookmarks: 18811
DistanceSpacing: 1.7
BeatDivisor: 3
GridSize: 16
TimelineZoom: 2.599999

[Metadata]
Title:HAPPY!! Strange Friends (TV Size)
TitleUnicode:HAPPY!!ストレンジフレンズ (TV Size)
Artist:Miyu Tomita, Yu Sasahara, Lynn, Azumi Waki
ArtistUnicode:富田美憂, 篠原侑, Lynn, 和氣あず未
Creator:GfMRT
Version:Cutie Vampires <3
Source:となりの吸血鬼さん
Tags:japanese pop 2018 fall anime ed ending Ms. Vampire who lives in my neighborhood Tonari no Kyūketsuki-san kyuuketsuki cutie ladies ソフィー・トワイライト Sophie Twilight 天野灯 Akari Amano 夏木ひなた Hinata Natsuki エリー Elly Flask Deppyforce MiyohashiKoori
BeatmapID:2022826
BeatmapSetID:966397

[Difficulty]
HPDrainRate:5.4
CircleSize:4.2
OverallDifficulty:8.7
ApproachRate:9.3
SliderMultiplier:2.5
SliderTickRate:1

[Events]
//Background and Video events
Video,0,"video.mp4"
0,0,"84496288.jpg",0,0
//Break Periods
//Storyboard Layer 0 (Background)
//Storyboard Layer 1 (Fail)
//Storyboard Layer 2 (Pass)
//Storyboard Layer 3 (Foreground)
//Storyboard Layer 4 (Overlay)
//Storyboard Sound Samples

[TimingPoints]
27,283.018867924528,4,2,1,40,1,0
498,-133.333333333333,4,2,1,40,0,0
923,-133.333333333333,4,2,1,29,0,0
970,-133.333333333333,4,2,1,31,0,0
1017,-133.333333333333,4,2,1,33,0,0
1064,-133.333333333333,4,2,1,35,0,0
1111,-133.333333333333,4,2,1,37,0,0
1159,283.018867924528,4,2,1,40,1,0
7951,-133.333333333333,4,2,1,40,0,0
8234,-111.111111111111,4,2,1,40,0,0
8517,-90.9090909090909,4,2,1,40,0,0
8800,-66.6666666666667,4,2,1,40,0,0
9649,-76.9230769230769,4,2,1,40,0,0
10215,-166.666666666667,4,2,1,33,0,0
17008,-133.333333333333,4,2,1,33,0,0
18140,-100,4,2,1,38,0,0
18423,-111.111111111111,4,2,1,36,0,0
18706,-125,4,2,1,34,0,0
18989,-142.857142857143,4,2,1,32,0,0
19272,-142.857142857143,4,2,1,40,0,0
19555,-125,4,2,1,40,0,0
22668,-100,4,2,1,46,0,0
23800,-125,4,2,1,40,0,0
26630,-125,4,2,1,42,0,0
27196,-125,4,2,1,44,0,0
27762,-100,4,2,1,46,0,0
28328,-111.111111111111,4,2,1,40,0,0
29177,-133.333333333333,4,2,1,40,0,0
30592,-111.111111111111,4,2,1,40,0,0
31442,-133.333333333333,4,2,1,40,0,0
32857,-111.111111111111,4,2,1,40,0,0
35121,-111.111111111111,4,2,1,45,0,0
38800,-100,4,2,1,45,0,0
40781,-100,4,2,1,50,0,0
41677,-100,4,2,1,26,0,0
41913,-90.9090909090909,4,2,20,59,0,1
42008,-90.9090909090909,4,2,1,59,0,1
46442,-90.9090909090909,4,2,20,59,0,1
46536,-90.9090909090909,4,2,1,59,0,1
49838,-90.9090909090909,4,2,20,59,0,1
49932,-90.9090909090909,4,2,1,59,0,1
50404,-90.9090909090909,4,2,1,48,0,0
50687,-90.9090909090909,4,2,1,52,0,0
50970,-90.9090909090909,4,2,20,59,0,1
51064,-90.9090909090909,4,2,1,59,0,1
54366,-90.9090909090909,4,2,1,65,0,1
55498,-90.9090909090909,4,2,20,59,0,1
55592,-90.9090909090909,4,2,1,59,0,1
57668,-90.9090909090909,4,2,20,59,0,1
57762,-90.9090909090909,4,2,1,59,0,1
58800,-90.9090909090909,4,2,20,59,0,1
58894,-90.9090909090909,4,2,1,59,0,1
59932,-90.9090909090909,4,2,20,50,0,0
60026,-90.9090909090909,4,2,1,50,0,0
61158,-100,4,2,1,50,0,0
61442,-90.9090909090909,4,2,1,54,0,0
61725,-83.3333333333333,4,2,1,58,0,0
62008,-76.9230769230769,4,2,1,62,0,0
62291,-71.4285714285714,4,2,1,66,0,1
63423,-100,4,2,1,69,0,1
63611,-100,4,2,1,40,0,1
63706,-133.333333333333,4,2,1,40,0,0
63989,-133.333333333333,4,2,1,40,0,0
64555,-90.9090909090909,4,2,1,59,0,1
67951,-90.9090909090909,4,2,1,65,0,1
69083,-90.9090909090909,4,2,20,59,0,1
69177,-90.9090909090909,4,2,1,59,0,1
71253,-90.9090909090909,4,2,20,59,0,1
71347,-90.9090909090909,4,2,1,59,0,1
72385,-90.9090909090909,4,2,20,59,0,1
72479,-90.9090909090909,4,2,1,59,0,1
73517,-90.9090909090909,4,2,20,59,0,1
73611,-90.9090909090909,4,2,1,48,0,0
74649,-90.9090909090909,4,2,20,48,0,0
74743,-90.9090909090909,4,2,1,48,0,0
75781,-90.9090909090909,4,2,20,48,0,0
75875,-90.9090909090909,4,2,1,53,0,0
76442,-111.111111111111,4,2,1,53,0,0
76725,-125,4,2,1,55,0,0
77008,-142.857142857143,4,2,1,59,0,0
77291,-111.111111111111,4,2,1,63,0,0
77574,-90.9090909090909,4,2,1,67,0,0
77857,-76.9230769230769,4,2,1,70,0,0
78140,-66.6666666666667,4,2,1,70,0,1
79555,-66.6666666666667,4,2,1,50,0,0
80404,-125,4,2,1,40,0,0
81819,-125,4,2,1,48,0,0
82668,-125,4,2,1,40,0,0
83800,-100,4,2,1,55,0,0
84366,-83.3333333333333,4,2,1,60,0,0
84932,-133.333333333333,4,2,1,40,0,0
85215,-117.647058823529,4,2,1,45,0,0
85498,-100,4,2,1,50,0,0
85781,-83.3333333333333,4,2,1,55,0,0
86064,-83.3333333333333,4,2,1,60,0,0
87196,-200,4,2,1,60,0,0
87291,-200,4,2,1,29,0,0

[Colours]
Combo1 : 82,213,255
Combo2 : 255,169,56
Combo3 : 247,236,118
Combo4 : 255,170,240

[HitObjects]
200,369,498,6,0,P|188:359|175:352,1,31.2500011920929,0|0,3:2|3:2,0:0:0:0:
187,315,593,2,0,P|187:356|211:375,1,62.5000023841859,2|0,3:2|0:0,0:0:0:0:
282,384,781,1,8,3:2:0:0:
282,384,876,2,0,P|304:379|325:375,5,31.2500011920929,8|0|0|0|8|0,2:0|2:0|2:0|2:0|3:2|2:0,0:0:0:0:
332,298,1159,6,0,P|299:296|352:234,1,166.666666666667,6|0,3:2|2:0,0:0:0:0:
337,221,1442,2,0,P|254:212|177:181,1,166.666666666667,8|0,2:0|2:0,0:0:0:0:
69,125,1725,2,0,P|102:123|49:61,1,166.666666666667,2|0,3:2|2:0,0:0:0:0:
63,48,2008,2,0,P|143:73|225:83,1,166.666666666667,8|0,2:0|2:0,0:0:0:0:
306,62,2291,5,2,3:2:0:0:
441,230,2479,1,0,2:0:0:0:
411,221,2574,2,0,P|418:156|454:50,1,166.666666666667,8|0,3:2|2:0,0:0:0:0:
512,149,2857,1,10,3:2:0:0:
498,322,3045,1,8,2:0:0:0:
399,346,3140,2,0,P|438:330|479:322,1,83.3333333333333,8|0,3:2|0:0,0:0:0:0:
365,328,3328,1,8,2:0:0:0:
267,288,3423,6,0,P|252:219|321:232,1,166.666666666667,6|0,3:2|2:0,0:0:0:0:
321,232,3706,2,0,P|239:222|160:196,1,166.666666666667,8|0,2:0|2:0,0:0:0:0:
158,83,3989,2,0,P|221:53|225:123,1,166.666666666667,2|0,2:0|2:0,0:0:0:0:
316,39,4272,2,0,P|234:48|159:83,1,166.666666666667,8|0,3:2|2:0,0:0:0:0:
3,176,4555,6,0,B|20:230|8:284|8:284|22:261|50:242,1,166.666666666667,2|0,3:2|2:0,0:0:0:0:
47,243,4838,1,8,3:2:0:0:
175,295,5026,1,0,3:2:0:0:
134,304,5121,1,2,2:0:0:0:
297,181,5309,1,0,3:2:0:0:
376,204,5404,2,0,P|422:242|454:164,1,166.666666666667,8|0,2:0|2:0,0:0:0:0:
351,374,5687,6,0,P|333:303|269:337,1,166.666666666667,6|0,3:2|2:0,0:0:0:0:
268,361,5970,2,0,P|261:278|212:212,1,166.666666666667,8|0,3:2|2:0,0:0:0:0:
134,304,6253,2,0,P|224:302|296:263,1,166.666666666667,2|0,3:2|2:0,0:0:0:0:
355,159,6536,1,8,2:0:0:0:
281,0,6725,1,0,2:0:0:0:
199,41,6819,6,0,P|209:112|275:83,1,166.666666666667,2|0,3:2|2:0,0:0:0:0:
212,212,7102,2,0,P|192:156|166:105,1,83.3333333333333,8|0,2:0|0:0,0:0:0:0:
56,198,7291,1,0,3:2:0:0:
50,239,7385,6,0,P|129:213|212:212,1,166.666666666667,2|0,2:0|3:2,0:0:0:0:
299,239,7668,1,8,3:2:0:0:
457,384,7857,1,0,3:2:0:0:
373,353,7951,6,0,P|379:293|396:228,1,125.000004768372,6|0,3:2|2:0,0:0:0:0:
276,384,8234,6,0,P|268:312|248:234,1,149.999995422363,8|0,3:2|2:0,0:0:0:0:
139,319,8517,6,0,P|147:231|172:137,1,183.333338928223,2|0,3:2|2:0,0:0:0:0:
15,377,8800,6,0,P|1:252|-28:132,1,250.000009536744,8|0,3:2|2:0,0:0:0:0:
310,132,9083,6,0,L|325:67,1,62.5000023841859,6|0,1:2|0:0,0:0:0:0:
313,136,9366,6,0,L|328:76,1,62.5000023841859,12|0,1:2|0:0,0:0:0:0:
92,48,9649,6,0,P|254:53|411:11,1,324.999985122681,6|8,1:2|2:0,0:0:0:0:
150,257,10215,6,0,P|94:223|71:298,1,149.999995422363,6|8,3:2|2:0,0:0:0:0:
169,290,10687,1,0,0:0:0:0:
169,290,10781,2,0,P|180:206|220:137,1,149.999995422363,2|8,3:2|2:0,0:0:0:0:
210,149,11253,1,0,0:0:0:0:
290,182,11347,2,0,P|346:148|369:223,1,149.999995422363,2|8,3:2|2:0,0:0:0:0:
271,215,11819,1,0,0:0:0:0:
271,215,11913,2,0,P|260:131|220:62,1,149.999995422363,2|8,3:2|3:2,0:0:0:0:
229,74,12385,1,0,0:0:0:0:
175,143,12479,6,0,B|145:120|137:77|137:77|124:191|124:191|117:231|55:221|58:179|90:171,1,299.999990844727,2|2,3:2|2:0,0:0:0:0:
88,171,13328,1,8,3:2:0:0:
213,268,13611,2,0,P|289:251|382:236,1,149.999995422363,2|8,3:2|3:2,0:0:0:0:
486,319,14177,2,0,P|473:375|463:327,1,149.999995422363,2|8,3:2|3:2,0:0:0:0:
424,176,14649,1,0,2:0:0:0:
339,153,14743,6,0,P|390:106|428:159,1,149.999995422363,6|8,3:2|2:0,0:0:0:0:
321,186,15215,1,0,0:0:0:0:
321,186,15309,2,0,P|313:111|279:45,1,149.999995422363,2|8,3:2|2:0,0:0:0:0:
279,45,15781,1,0,0:0:0:0:
226,125,15875,2,0,P|167:91|138:151,1,149.999995422363,2|8,3:2|2:0,0:0:0:0:
244,157,16347,1,0,0:0:0:0:
321,186,16442,2,0,P|371:174|371:211,1,99.9999969482423,2|0,3:2|2:0,0:0:0:0:
235,278,16725,2,0,B|213:263|203:240|203:240|200:265|184:285,1,99.9999969482423,8|0,3:2|2:0,0:0:0:0:
0,327,17008,6,0,P|59:329|127:354,1,125.000004768372,2|0,3:2|2:0,0:0:0:0:
150,373,17291,1,8,2:0:0:0:
385,231,17574,2,0,P|323:233|265:255,1,125.000004768372,2|0,2:0|2:0,0:0:0:0:
235,278,17857,1,8,1:2:0:0:
109,52,18045,1,0,2:0:0:0:
109,52,18140,6,0,P|124:122|186:86,1,166.666666666667,2|0,1:2|3:2,0:0:0:0:
301,138,18423,2,0,P|288:202|232:170,1,149.999995422363,8|0,1:2|3:2,0:0:0:0:
72,197,18706,2,0,B|90:226|90:259|90:259|107:230|139:213,1,133.333333333333,2|0,1:2|3:2,0:0:0:0:
235,278,18989,2,0,B|218:304|218:334|218:334|203:307|174:292,1,116.666663106283,8|0,1:2|3:2,0:0:0:0:
133,384,19272,5,4,2:1:0:0:
10,243,19555,2,0,P|76:237|138:213,1,133.333333333333,8|0,3:2|2:0,0:0:0:0:
200,81,19838,1,2,3:2:0:0:
359,201,20026,1,0,2:0:0:0:
358,201,20121,2,0,P|292:195|231:170,1,133.333333333333,8|0,2:0|2:0,0:0:0:0:
441,222,20404,6,0,P|420:292|358:257,1,133.333333333333,2|0,3:2|2:0,0:0:0:0:
235,278,20687,1,8,3:2:0:0:
318,100,20875,1,0,3:2:0:0:
320,82,20970,2,0,P|277:29|212:54,1,133.333333333333,2|0,2:3|3:2,0:0:0:0:
130,100,21253,2,0,P|96:95|49:82,2,66.6666666666667,8|0|0,2:0|0:0|2:0,0:0:0:0:
0,173,21536,5,4,2:1:0:0:
318,100,21819,2,0,P|340:190|362:235,1,133.333333333333,8|0,3:2|2:0,0:0:0:0:
436,310,22102,2,0,P|407:240|333:232,1,133.333333333333,2|0,3:2|2:0,0:0:0:0:
218,356,22385,2,0,P|304:321|353:313,1,133.333333333333,8|0,2:0|2:0,0:0:0:0:
124,371,22668,6,0,P|60:370|71:273,1,166.666666666667,2|0,3:2|2:0,0:0:0:0:
138,109,22951,2,0,P|142:154|161:213,1,83.3333333333333,8|0,3:2|0:0,0:0:0:0:
173,227,23140,1,0,3:2:0:0:
242,155,23234,2,0,P|306:138|340:137,2,83.3333333333333,2|0|0,2:3|0:0|3:2,0:0:0:0:
359,145,23517,2,0,P|363:100|382:41,1,83.3333333333333,8|0,2:0|0:0,0:0:0:0:
394,27,23706,1,0,2:0:0:0:
488,117,23800,6,0,P|424:137|358:145,1,133.333333333333,6|0,2:0|2:0,0:0:0:0:
278,248,24083,2,0,B|293:280|279:317|279:317|307:293|307:263,1,133.333333333333,8|0,2:0|2:0,0:0:0:0:
393,313,24366,6,0,P|329:334|263:342,1,133.333333333333,2|0,3:2|2:0,0:0:0:0:
149,254,24649,2,0,P|110:284|160:279,1,133.333333333333,8|0,3:2|2:0,0:0:0:0:
333,189,24932,6,0,P|319:123|293:62,1,133.333333333333,2|0,3:2|2:0,0:0:0:0:
278,247,25215,2,0,P|341:226|407:218,1,133.333333333333,8|0,3:2|2:0,0:0:0:0:
160,279,25498,2,0,P|173:213|199:152,1,133.333333333333,2|0,2:0|3:2,0:0:0:0:
215,337,25781,2,0,P|151:316|85:308,1,133.333333333333,8|0,2:0|2:0,0:0:0:0:
0,384,26064,5,6,2:0:0:0:
20,214,26253,1,0,2:0:0:0:
20,214,26347,2,0,P|81:181|36:133,1,133.333333333333,8|0,3:2|2:0,0:0:0:0:
65,311,26630,1,2,3:2:0:0:
210,201,26819,1,0,2:0:0:0:
210,201,26913,2,0,P|208:270|272:255,1,133.333333333333,8|0,2:0|2:0,0:0:0:0:
260,84,27196,6,0,P|178:91|113:46,1,133.333333333333,6|0,1:2|3:2,0:0:0:0:
71,77,27479,2,0,P|103:82|133:69,1,66.6666666666667,2|0,3:2|3:2,0:0:0:0:
206,8,27668,1,0,3:2:0:0:
296,64,27762,6,0,L|312:170,2,83.3333333333333,10|8|8,1:2|1:2|1:2,0:0:0:0:
418,6,28045,1,12,3:2:0:0:
461,235,28234,1,0,3:2:0:0:
509,155,28328,6,0,L|427:138,1,74.9999977111817,6|0,1:2|0:0,0:0:0:0:
512,130,28611,2,0,L|431:112,1,74.9999977111817,8|0,1:2|0:0,0:0:0:0:
180,129,28894,2,0,L|327:99,1,149.999995422363,2|0,1:2|2:0,0:0:0:0:
356,236,29177,2,0,P|312:202|282:249,1,125.000004768372,8|0,2:0|2:0,0:0:0:0:
234,335,29460,1,2,2:0:0:0:
71,199,29649,1,0,2:0:0:0:
58,101,29743,6,0,L|180:129,1,125.000004768372,8|0,3:2|2:0,0:0:0:0:
336,206,30026,2,0,P|305:160|262:195,1,125.000004768372,2|0,3:2|2:0,0:0:0:0:
191,273,30309,2,0,P|167:323|219:343,1,125.000004768372,8|0,3:2|2:0,0:0:0:0:
405,348,30592,6,0,L|486:331,1,74.9999977111817,6|0,1:2|0:0,0:0:0:0:
402,323,30875,2,0,L|483:306,1,74.9999977111817,8|0,1:2|0:0,0:0:0:0:
184,257,31158,2,0,L|20:223,1,149.999995422363,2|0,1:2|2:0,0:0:0:0:
104,112,31442,2,0,P|171:116|156:180,1,125.000004768372,8|0,2:0|2:0,0:0:0:0:
295,122,31725,2,0,P|307:77|277:118,1,125.000004768372,2|0,2:0|2:0,0:0:0:0:
299,308,32008,6,0,P|289:279|282:248,1,62.5000023841859,8|0,3:2|0:0,0:0:0:0:
279,223,32196,1,0,3:2:0:0:
184,257,32291,2,0,P|183:288|178:319,1,62.5000023841859,2|0,3:2|0:0,0:0:0:0:
173,343,32479,1,0,3:2:0:0:
119,211,32574,2,0,P|193:222|268:225,1,125.000004768372,8|0,3:2|2:0,0:0:0:0:
36,145,32857,6,0,L|25:62,1,74.9999977111817,6|0,1:2|0:0,0:0:0:0:
10,151,33140,2,0,L|0:68,1,74.9999977111817,8|0,1:2|0:0,0:0:0:0:
312,185,33423,2,0,L|333:19,1,149.999995422363,2|0,1:2|2:0,0:0:0:0:
150,27,33706,2,0,P|168:89|222:54,1,149.999995422363,8|0,2:0|2:0,0:0:0:0:
196,165,33989,2,0,P|186:91|149:26,1,149.999995422363,2|0,2:0|2:0,0:0:0:0:
58,31,34272,5,8,3:2:0:0:
19,175,34460,2,0,L|35:242,1,37.4999988555909,0|0,2:0|0:0,0:0:0:0:
51,159,34555,2,0,L|33:232,1,74.9999977111817,2|0,3:2|0:0,0:0:0:0:
131,225,34743,1,8,2:0:0:0:
165,209,34838,2,0,P|204:197|246:190,1,74.9999977111817,8|0,3:2|0:0,0:0:0:0:
328,194,35026,1,0,2:0:0:0:
428,252,35121,6,0,P|414:170|377:103,1,149.999995422363,6|0,3:2|2:0,0:0:0:0:
298,84,35404,2,0,P|296:27|383:55,1,149.999995422363,8|0,2:0|2:0,0:0:0:0:
240,232,35687,2,0,P|225:150|216:124,1,74.9999977111817,2|0,3:2|0:0,0:0:0:0:
148,136,35875,1,0,2:0:0:0:
96,201,35970,2,0,P|107:151|22:166,1,149.999995422363,8|0,2:0|2:0,0:0:0:0:
56,309,36253,6,0,P|127:302|96:230,1,149.999995422363,2|0,1:2|2:0,0:0:0:0:
69,331,36536,2,0,P|140:324|109:252,1,149.999995422363,8|0,1:2|2:0,0:0:0:0:
334,303,36819,2,0,P|263:296|294:224,1,149.999995422363,2|0,1:2|2:0,0:0:0:0:
357,314,37102,2,0,P|359:277|365:240,1,74.9999977111817,8|0,1:2|0:0,0:0:0:0:
470,319,37291,2,0,P|468:334|464:357,1,37.4999988555909,0|0,3:2|0:0,0:0:0:0:
450,365,37385,6,0,P|452:291|470:205,1,149.999995422363,4|0,2:1|2:0,0:0:0:0:
466,216,37668,2,0,P|398:213|439:145,1,149.999995422363,8|0,2:0|2:0,0:0:0:0:
424,38,37951,2,0,B|387:23|351:39|362:46|322:67|270:34,1,149.999995422363,2|0,2:0|2:0,0:0:0:0:
279,39,38234,2,0,P|290:104|224:104,1,149.999995422363,8|8,2:0|3:2,0:0:0:0:
178,20,38517,1,2,3:2:0:0:
81,249,38706,1,0,2:0:0:0:
28,329,38800,6,0,P|-4:262|66:240,1,166.666666666667,8|0,1:2|2:0,0:0:0:0:
54,356,39083,1,2,1:2:0:0:
353,267,39272,1,0,2:0:0:0:
255,221,39366,2,0,P|265:303|286:384,1,166.666666666667,8|0,1:2|2:0,0:0:0:0:
381,169,39649,6,0,P|472:125|445:220,1,250,2|8,3:0|2:0,0:0:0:0:
151,66,40215,2,0,P|60:22|87:117,1,250,2|8,3:0|2:0,0:0:0:0:
322,370,40781,6,0,P|276:301|255:221,1,166.666666666667,6|0,1:2|2:0,0:0:0:0:
81,340,41064,6,0,P|105:260|155:194,1,166.666666666667,12|0,1:2|2:0,0:0:0:0:
256,87,41347,6,0,P|203:100|174:98,1,83.3333333333333,6|0,1:2|0:0,0:0:0:0:
297,7,41536,1,8,3:2:0:0:
359,178,41630,2,0,L|366:137,5,41.6666666666667,8|0|0|0|8|0,2:0|2:0|2:0|2:0|3:2|2:0,0:0:0:0:
468,215,41913,6,0,P|445:149|493:26,1,183.333338928223,6|0,3:2|2:0,0:0:0:0:
504,15,42196,1,8,2:0:0:0:
375,96,42385,1,0,2:0:0:0:
280,0,42479,2,0,P|300:63|253:187,1,183.333338928223,2|0,3:2|2:0,0:0:0:0:
170,58,42762,2,0,P|130:15|159:73,1,183.333338928223,8|0,2:0|3:2,0:0:0:0:
86,85,43045,6,0,P|120:158|166:85,1,183.333338928223,2|0,3:2|2:0,0:0:0:0:
330,179,43328,2,0,P|295:252|248:179,1,183.333338928223,8|0,3:2|2:0,0:0:0:0:
71,238,43611,2,0,P|82:283|90:327,1,91.6666694641114,2|0,3:2|0:0,0:0:0:0:
93,359,43800,1,0,2:0:0:0:
203,377,43894,2,0,P|219:286|241:197,1,183.333338928223,8|0,3:2|2:0,0:0:0:0:
279,77,44177,5,6,1:2:0:0:
279,77,44225,6,0,P|334:161|241:197,1,229.166673660279,0|8,0:0|2:0,0:0:0:0:
17,35,44649,1,0,3:2:0:0:
51,47,44743,2,0,P|85:39|51:28,1,91.6666694641114,2|0,3:2|0:0,0:0:0:0:
141,96,44932,1,0,3:2:0:0:
222,88,45026,2,0,P|221:42|209:-8,1,91.6666694641114,8|0,3:2|0:0,0:0:0:0:
386,109,45215,6,0,P|378:217|287:144,1,275.000008392334,8|0,3:2|2:0,0:0:0:0:
425,129,45592,2,0,P|459:113|516:115,1,91.6666694641114,8|0,3:2|0:0,0:0:0:0:
301,295,45781,1,8,1:2:0:0:
270,285,45875,1,0,0:0:0:0:
218,22,46064,2,0,P|145:107|256:119,1,275.000008392334,8|0,1:2|2:0,0:0:0:0:
512,82,46442,6,0,P|514:175|501:267,1,183.333338928223,6|0,3:2|2:0,0:0:0:0:
501,264,46725,2,0,P|498:170|512:79,1,183.333338928223,8|0,3:2|2:0,0:0:0:0:
396,189,47008,2,0,B|315:195|355:274|235:264,1,183.333338928223,2|8,3:2|2:0,0:0:0:0:
163,321,47291,1,8,2:0:0:0:
257,119,47479,6,0,P|272:211|315:323,1,183.333338928223,8|0,3:2|0:0,0:0:0:0:
395,305,47762,1,0,3:2:0:0:
396,189,47857,2,0,P|312:200|237:268,1,183.333338928223,8|0,1:2|2:0,0:0:0:0:
174,337,48140,2,0,P|88:335|129:235,1,183.333338928223,2|0,1:2|2:0,0:0:0:0:
168,204,48423,1,8,2:0:0:0:
10,157,48611,1,0,2:0:0:0:
10,157,48706,6,0,P|56:151|96:130,1,91.6666694641114,6|0,1:2|0:0,0:0:0:0:
83,14,48894,1,8,3:2:0:0:
192,49,48989,2,0,P|146:45|102:34,1,91.6666694641114
266,95,49177,2,0,P|292:23|215:37,1,183.333338928223,8|0,3:2|0:0,0:0:0:0:
168,204,49460,2,0,P|182:137|196:13,1,183.333338928223,8|0,3:2|0:0,0:0:0:0:
276,207,49743,1,8,2:0:0:0:
312,305,49838,6,0,B|300:314|280:353|280:353|274:282|256:218,1,183.333338928223,6|0,2:0|2:0,0:0:0:0:
398,110,50121,1,8,3:2:0:0:
429,334,50309,1,0,3:2:0:0:
438,255,50404,5,2,1:2:0:0:
469,254,50498,1,2,1:2:0:0:
497,267,50592,1,8,1:2:0:0:
494,286,50687,5,12,3:2:0:0:
439,224,50781,1,12,3:2:0:0:
345,204,50875,1,12,3:2:0:0:
239,227,50970,6,0,P|234:154|138:143,1,183.333338928223,6|0,3:2|2:0,0:0:0:0:
42,300,51253,2,0,P|78:225|154:259,1,183.333338928223,8|0,2:0|2:0,0:0:0:0:
124,362,51536,2,0,P|125:270|115:180,1,183.333338928223,2|0,3:2|2:0,0:0:0:0:
10,167,51819,1,8,2:0:0:0:
137,7,52008,1,0,3:2:0:0:
174,83,52102,6,0,P|103:86|-19:66,1,183.333338928223,2|0,3:2|2:0,0:0:0:0:
263,60,52385,2,0,P|172:44|81:46,1,183.333338928223,8|0,3:2|2:0,0:0:0:0:
160,177,52668,2,0,P|245:189|275:186,1,91.6666694641114,2|0,3:2|0:0,0:0:0:0:
286,183,52857,1,0,2:0:0:0:
374,118,52951,2,0,P|450:69|455:162,1,183.333338928223,8|0,3:2|2:0,0:0:0:0:
424,294,53234,6,0,P|411:213|375:119,1,183.333338928223,6|0,1:2|2:0,0:0:0:0:
322,275,53517,1,8,2:0:0:0:
511,219,53706,1,0,3:2:0:0:
424,294,53800,2,0,P|358:294|402:207,1,183.333338928223,2|0,3:2|3:2,0:0:0:0:
319,382,54083,2,0,P|279:373|235:345,1,91.6666694641114,8|0,3:2|0:0,0:0:0:0:
30,335,54272,5,8,3:2:0:0:
116,366,54366,2,0,P|114:253|39:270,1,183.333338928223,4|0,2:1|2:0,0:0:0:0:
40,114,54649,2,0,P|83:103|139:75,1,91.6666694641114,8|0,3:2|0:0,0:0:0:0:
270,11,54838,1,8,1:2:0:0:
377,79,54932,2,0,P|287:98|203:133,1,183.333338928223,0|8,0:0|1:2,0:0:0:0:
492,146,55215,2,0,P|497:104|499:47,1,91.6666694641114,8|0,2:0|0:0,0:0:0:0:
383,212,55404,1,8,3:2:0:0:
286,199,55498,6,0,P|201:163|111:145,1,183.333338928223,6|0,3:2|2:0,0:0:0:0:
8,143,55781,2,0,P|63:163|96:190,1,91.6666694641114,8|0,2:0|0:0,0:0:0:0:
0,345,55970,1,0,2:0:0:0:
9,365,56064,1,2,3:2:0:0:
142,275,56253,1,0,3:2:0:0:
150,358,56347,6,0,P|240:322|238:397,1,183.333338928223,8|8,2:0|2:0,0:0:0:0:
251,377,56630,2,0,P|325:345|386:258,1,183.333338928223,6|0,3:2|2:0,0:0:0:0:
463,381,56913,1,8,3:2:0:0:
338,171,57102,1,0,3:2:0:0:
247,215,57196,2,0,P|242:165|206:32,1,183.333338928223,2|0,1:2|1:2,0:0:0:0:
194,16,57479,1,8,1:2:0:0:
475,13,57668,6,0,P|421:72|430:169,1,183.333338928223,14|0,3:2|0:0,0:0:0:0:
512,197,57951,1,0,3:2:0:0:
512,108,58045,2,0,P|457:90|317:60,1,183.333338928223,8|0,3:2|2:0,0:0:0:0:
247,215,58328,2,0,P|202:149|283:151,1,183.333338928223,2|0,1:2|2:0,0:0:0:0:
342,201,58611,1,8,2:0:0:0:
208,36,58800,6,0,P|235:124|247:215,1,183.333338928223,14|0,3:2|0:0,0:0:0:0:
42,183,59083,1,0,3:2:0:0:
94,109,59177,2,0,P|185:116|274:138,1,183.333338928223,8|0,3:2|2:0,0:0:0:0:
383,285,59460,2,0,P|419:214|341:201,1,183.333338928223,2|0,1:2|2:0,0:0:0:0:
291,301,59743,1,8,2:0:0:0:
510,380,59932,6,0,P|423:363|383:285,1,183.333338928223,14|0,3:2|0:0,0:0:0:0:
447,111,60215,1,0,3:2:0:0:
512,171,60309,2,0,P|510:261|481:348,1,183.333338928223,8|0,3:2|2:0,0:0:0:0:
328,383,60592,2,0,P|303:305|383:285,1,183.333338928223,2|0,3:2|2:0,0:0:0:0:
215,384,60875,2,0,P|109:363|27:334,1,183.333338928223,8|0,3:2|2:0,0:0:0:0:
139,197,61158,6,0,P|218:202|199:131,1,166.666666666667,6|0,3:2|2:0,0:0:0:0:
109,112,61442,2,0,P|37:120|80:41,1,183.333338928223,8|0,3:2|2:0,0:0:0:0:
204,301,61725,2,0,P|251:348|286:257,1,199.999993896485,6|0,3:2|2:0,0:0:0:0:
106,295,62008,2,0,P|18:314|50:224,1,216.666656748454,8|0,3:2|3:2,0:0:0:0:
313,155,62291,6,0,P|255:161|198:175,1,116.666663106283,6|0,1:2|0:0,0:0:0:0:
86,21,62479,1,0,2:0:0:0:
8,62,62574,2,0,P|125:64|239:38,1,233.333326212565,12|0,1:2|2:0,0:0:0:0:
238,39,62857,6,0,P|246:154|252:196,1,116.666663106283,6|0,1:2|0:0,0:0:0:0:
279,268,63045,1,0,2:0:0:0:
191,309,63140,2,0,P|139:292|137:237,1,116.666663106283,12|0,1:2|0:0,0:0:0:0:
331,64,63328,1,0,2:0:0:0:
397,170,63423,6,0,P|435:94|491:16,1,166.666666666667,4|0,2:1|2:0,0:0:0:0:
512,0,63706,6,0,P|509:73|512:133,1,125.000004768372,8|2,3:2|3:2,0:0:0:0:
492,153,63989,2,0,P|434:135|364:133,1,125.000004768372,2|0,3:2|3:2,0:0:0:0:
347,147,64272,1,8,2:0:0:0:
214,369,64460,1,0,3:2:0:0:
241,384,64555,6,0,P|264:318|216:195,1,183.333338928223,6|0,3:2|2:0,0:0:0:0:
205,184,64838,1,8,2:0:0:0:
334,265,65026,1,0,2:0:0:0:
429,169,65121,2,0,P|409:232|456:356,1,183.333338928223,2|0,3:2|2:0,0:0:0:0:
467,368,65404,2,0,P|476:311|400:351,1,183.333338928223,8|0,2:0|3:2,0:0:0:0:
305,185,65687,6,0,P|224:194|245:273,1,183.333338928223,2|0,3:2|2:0,0:0:0:0:
184,360,65970,2,0,P|264:350|243:271,1,183.333338928223,8|0,3:2|2:0,0:0:0:0:
129,262,66253,2,0,P|82:250|25:199,1,91.6666694641114,2|0,3:2|0:0,0:0:0:0:
29,135,66442,1,0,2:0:0:0:
129,42,66536,2,0,P|129:116|112:262,1,183.333338928223,8|0,3:2|2:0,0:0:0:0:
38,274,66819,5,6,1:2:0:0:
38,274,66866,6,0,P|101:247|169:234,1,137.500004196167,0|0,0:0|2:0,0:0:0:0:
90,356,67102,1,8,2:0:0:0:
296,275,67291,1,0,3:2:0:0:
333,359,67385,2,0,P|343:267|342:176,1,183.333338928223,2|0,3:2|3:2,0:0:0:0:
235,25,67668,2,0,P|233:70|230:122,1,91.6666694641114,8|0,3:2|0:0,0:0:0:0:
77,274,67857,5,8,3:2:0:0:
99,133,67951,2,0,P|64:60|0:108,1,183.333338928223,4|0,2:1|2:0,0:0:0:0:
53,293,68234,2,0,P|49:247|38:202,1,91.6666694641114,8|0,3:2|0:0,0:0:0:0:
54,330,68423,1,8,1:2:0:0:
183,325,68517,2,0,P|111:289|88:366,1,183.333338928223,0|8,0:0|1:2,0:0:0:0:
272,378,68800,2,0,P|288:320|313:258,1,91.6666694641114,8|0,2:0|0:0,0:0:0:0:
401,249,68989,5,8,3:2:0:0:
387,93,69083,2,0,B|310:89|332:168|190:117,1,183.333338928223,6|0,3:2|2:0,0:0:0:0:
132,80,69366,2,0,P|163:83|175:151,1,91.6666694641114,8|0,2:0|0:0,0:0:0:0:
14,20,69555,1,0,2:0:0:0:
5,0,69649,1,2,3:2:0:0:
22,146,69838,1,0,3:2:0:0:
105,180,69932,2,0,P|157:175|112:81,1,183.333338928223,8|8,3:2|2:0,0:0:0:0:
0,252,70215,6,0,P|33:178|100:224,1,183.333338928223,6|0,3:2|2:0,0:0:0:0:
31,333,70498,1,8,3:2:0:0:
241,228,70687,1,0,3:2:0:0:
243,316,70781,2,0,P|310:301|447:295,1,183.333338928223,2|0,1:2|1:2,0:0:0:0:
506,336,71064,1,8,1:2:0:0:
336,201,71253,6,0,P|320:291|330:382,1,183.333338928223,14|0,3:2|0:0,0:0:0:0:
512,248,71536,1,0,3:2:0:0:
511,153,71630,2,0,P|439:122|436:201,1,183.333338928223,8|0,3:2|2:0,0:0:0:0:
506,336,71913,2,0,P|415:350|329:381,1,183.333338928223,2|0,1:2|2:0,0:0:0:0:
224,350,72196,1,8,2:0:0:0:
184,61,72385,6,0,P|194:152|174:241,1,183.333338928223,14|0,3:2|0:0,0:0:0:0:
91,87,72668,1,0,3:2:0:0:
0,188,72762,2,0,P|7:266|81:228,1,183.333338928223,8|0,3:2|2:0,0:0:0:0:
285,156,73045,2,0,P|195:141|109:110,1,183.333338928223,2|0,1:2|2:0,0:0:0:0:
278,66,73328,1,8,2:0:0:0:
489,176,73517,6,0,P|476:266|472:358,1,183.333338928223,14|0,3:2|0:0,0:0:0:0:
383,384,73800,1,0,3:2:0:0:
272,315,73894,2,0,P|270:235|346:255,1,183.333338928223,8|0,3:2|2:0,0:0:0:0:
194,170,74177,1,2,1:2:0:0:
409,175,74366,1,0,2:0:0:0:
397,140,74460,1,8,2:0:0:0:
272,315,74649,6,0,P|191:275|103:294,1,183.333338928223,14|0,3:2|0:0,0:0:0:0:
43,364,74932,1,0,3:2:0:0:
175,367,75026,2,0,P|191:277|196:186,1,183.333338928223,8|0,3:2|2:0,0:0:0:0:
168,78,75309,1,2,1:2:0:0:
2,220,75498,1,0,2:0:0:0:
10,184,75592,1,8,2:0:0:0:
240,315,75781,6,0,P|315:297|268:236,1,183.333338928223,14|0,3:2|0:0,0:0:0:0:
179,244,76064,1,0,3:2:0:0:
122,171,76158,2,0,P|158:100|211:158,1,183.333338928223,8|0,3:2|2:0,0:0:0:0:
146,327,76442,2,0,P|95:338|98:255,1,149.999995422363,2|0,3:2|2:0,0:0:0:0:
268,237,76725,2,0,P|288:302|237:314,1,133.333333333333,8|0,3:2|2:0,0:0:0:0:
179,244,77008,6,0,P|165:204|146:253,1,116.666663106283,6|0,3:2|2:0,0:0:0:0:
203,121,77291,2,0,P|201:63|167:109,1,149.999995422363,8|0,3:2|2:0,0:0:0:0:
315,53,77574,2,0,P|362:1|294:16,1,183.333338928223,6|0,3:2|2:0,0:0:0:0:
455,78,77857,2,0,P|537:79|471:30,1,216.666656748454,8|0,3:2|3:2,0:0:0:0:
457,264,78140,6,0,P|391:258|362:181,1,125.000004768372,6|0,1:2|0:0,0:0:0:0:
221,257,78328,1,0,2:0:0:0:
243,340,78423,2,0,P|257:231|182:109,1,250.000009536744,12|0,1:2|2:0,0:0:0:0:
15,302,78706,6,0,P|-12:246|-6:185,1,125.000004768372,6|0,1:2|0:0,0:0:0:0:
73,102,78894,1,0,2:0:0:0:
106,225,78989,2,0,P|75:272|-8:303,1,125.000004768372,12|0,1:2|0:0,0:0:0:0:
111,198,79177,1,0,2:0:0:0:
221,257,79272,6,0,P|293:263|247:59,1,375.000014305115,6|8,2:1|3:2,0:0:0:0:
322,370,80404,6,0,P|309:305|321:234,1,133.333333333333,6|0,3:2|2:0,0:0:0:0:
320,240,80687,2,0,P|311:176|239:168,1,133.333333333333,8|0,2:0|2:0,0:0:0:0:
137,230,80970,2,0,P|149:165|138:94,1,133.333333333333,2|0,3:2|2:0,0:0:0:0:
140,99,81253,2,0,P|149:35|221:27,1,133.333333333333,8|0,2:0|2:0,0:0:0:0:
356,82,81536,6,0,P|297:113|251:161,1,133.333333333333,2|0,3:2|2:0,0:0:0:0:
221,257,81819,1,8,3:2:0:0:
419,328,82008,1,0,3:2:0:0:
419,328,82102,6,0,L|433:233,1,66.6666666666667,10|0,3:2|0:0,0:0:0:0:
428,262,82291,2,0,P|375:226|429:195,1,133.333333333333,8|0,3:2|0:0,0:0:0:0:
503,346,82574,1,8,3:2:0:0:
512,382,82668,6,0,P|467:360|375:355,1,133.333333333333,6|0,1:2|2:0,0:0:0:0:
384,353,82951,2,0,P|307:353|304:310,1,133.333333333333,8|0,3:2|3:2,0:0:0:0:
190,217,83234,2,0,P|204:281|173:338,1,133.333333333333,2|0,2:0|3:2,0:0:0:0:
152,354,83517,1,8,2:0:0:0:
3,298,83706,1,0,2:0:0:0:
26,268,83800,6,0,P|102:256|137:329,1,166.666666666667,6|0,3:2|3:2,0:0:0:0:
49,384,84083,1,8,3:2:0:0:
232,297,84272,1,0,2:0:0:0:
326,330,84366,2,0,P|336:231|364:135,1,199.999993896485,6|0,1:2|2:0,0:0:0:0:
254,86,84649,2,0,P|173:118|158:32,1,199.999993896485,8|0,2:0|3:2,0:0:0:0:
309,11,84932,6,0,P|381:31|437:34,1,125.000004768372,2|0,3:2|2:0,0:0:0:0:
254,86,85215,2,0,P|157:113|83:117,1,141.666669368744,8|0,2:0|2:0,0:0:0:0:
260,201,85498,2,0,P|365:230|446:234,1,166.666666666667,2|0,2:0|2:0,0:0:0:0:
232,322,85781,2,0,P|118:353|32:358,1,199.999993896485,8|0,3:2|3:2,0:0:0:0:
355,184,86064,6,0,L|364:130,1,49.9999984741211,6|0,3:2|0:0,0:0:0:0:
358,187,86347,6,0,L|367:138,1,49.9999984741211,8|0,3:2|0:0,0:0:0:0:
33,43,86630,6,0,L|75:265,1,199.999993896485,2|0,3:2|2:0,0:0:0:0:
155,57,86913,5,8,3:2:0:0:
168,46,87008,1,8,3:2:0:0:
191,35,87102,1,8,3:2:0:0:
233,29,87196,6,0,B|258:32|276:43|289:60|289:60|353:18|434:60|423:128|423:128|404:206|312:209|260:269|260:269|220:168|119:194|89:129|130:72|164:76|184:116|171:145|147:132,1,750,6|0,1:2|0:0,0:0:0:0:
