osu file format v14

[General]
AudioFilename: audio.mp3
AudioLeadIn: 0
PreviewTime: 184771
Countdown: 0
SampleSet: Soft
StackLeniency: 0.4
Mode: 0
LetterboxInBreaks: 0
WidescreenStoryboard: 0

[Editor]
Bookmarks: 10411,20445,27588,32588,38302,41874,48302,53302,54731,60624,64731,69017,77554,81874,95445,113302,135088,136160,161874,171874,180802
DistanceSpacing: 0.5
BeatDivisor: 4
GridSize: 16
TimelineZoom: 1.8

[Metadata]
Title:Gabriel Drop Kick
TitleUnicode:ガヴリールドロップキック
Artist:Miyu Tomita, Saori Onishi, Naomi Oozora, Kana Hanazawa
ArtistUnicode:富田美憂、大西沙織、大空直美、花澤香菜
Creator:Kirylln
Version:Master+
Source:ガヴリールドロップアウト
Tags:gabriel drop out op opening fv full version
BeatmapID:1246263
BeatmapSetID:588695

[Difficulty]
HPDrainRate:6
CircleSize:4
OverallDifficulty:8
ApproachRate:9.4
SliderMultiplier:3.59999990463257
SliderTickRate:1

[Events]
//Background and Video events
0,0,"809521.png",0,0
//Break Periods
//Storyboard Layer 0 (Background)
//Storyboard Layer 1 (Fail)
//Storyboard Layer 2 (Pass)
//Storyboard Layer 3 (Foreground)
//Storyboard Layer 4 (Overlay)
//Storyboard Sound Samples

[TimingPoints]
412,357.142857142857,4,2,1,50,1,0
769,-166.666666666667,4,2,1,50,0,0
2197,-100,4,2,1,50,0,0
3269,-1000,4,2,1,50,0,0
8983,-166.666666666667,4,2,1,50,0,0
9697,-125,4,2,1,50,0,0
10411,-83.3333333333333,4,2,1,50,0,0
12197,-125,4,2,1,50,0,0
12554,-71.4285714285714,4,2,1,50,0,0
12733,-100,4,2,1,50,0,0
12911,-166.666666666667,4,2,1,50,0,0
16126,-100,4,2,1,50,0,0
16483,-166.666666666667,4,2,1,50,0,0
17554,-333.333333333333,4,2,1,50,0,0
19161,-83.3333333333333,4,2,1,50,0,0
20054,-166.666666666667,4,2,1,50,0,0
24697,-1000,4,2,1,50,0,0
26661,-500,4,2,1,50,0,0
30411,-1000,4,2,1,50,0,0
32376,-500,4,2,1,50,0,0
33269,-166.666666666667,4,2,1,50,0,0
44697,-125,4,2,1,50,0,0
46126,-166.666666666667,4,2,1,50,0,0
47197,-333.333333333333,4,2,1,50,0,0
48447,-166.666666666667,4,2,1,50,0,0
48626,-83.3333333333333,4,2,1,50,0,0
48804,-62.5,4,2,1,50,0,0
49697,-100,4,2,1,50,0,0
57197,-166.666666666667,4,2,1,50,0,0
58626,-500,4,2,1,50,0,0
60590,357.142857142857,4,2,1,60,1,0
62197,357.142857142857,4,2,1,60,1,0
64697,357.142857142857,4,2,1,60,1,0
66125,-71.4285714285714,4,2,1,60,0,0
66393,-142.857142857143,4,2,1,60,0,0
66839,-62.5,4,2,1,60,0,0
67107,-125,4,2,1,60,0,0
67464,-55.5555555555556,4,2,1,60,0,0
67822,-166.666666666667,4,2,1,60,0,0
68179,-100,4,2,1,60,0,0
69697,-66.6666666666667,4,2,1,60,0,0
70411,-55.5555555555556,4,2,1,60,0,0
71839,-62.5,4,2,1,60,0,0
72107,-125,4,2,1,60,0,0
72554,-55.5555555555556,4,2,1,60,0,0
72822,-125,4,2,1,60,0,0
73179,-55.5555555555556,4,2,1,60,0,0
73536,-125,4,2,1,60,0,0
73982,-50,4,2,1,60,0,0
75054,-100,4,2,1,60,0,0
75411,-66.6666666666667,4,2,1,60,0,0
76125,-55.5555555555556,4,2,1,60,0,0
77554,-83.3333333333333,4,2,1,60,0,0
78268,-125,4,2,1,60,0,0
78536,-83.3333333333333,4,2,1,60,0,0
79697,-125,4,2,1,60,0,0
80054,-71.4285714285714,4,2,1,60,0,0
80411,-333.333333333333,4,2,1,60,0,0
80768,-125,4,2,1,60,0,0
81125,-250,4,2,1,60,0,0
81482,-100,4,2,1,60,0,0
81839,-125,4,2,1,60,0,0
82197,-100,4,2,1,60,0,0
82554,-83.3333333333333,4,2,1,60,0,0
82732,-71.4285714285714,4,2,1,60,0,0
82911,-55.5555555555556,4,2,1,60,0,0
83269,357.142857142857,3,2,1,50,1,0
83626,-500,3,2,1,50,0,0
86126,-83.3333333333333,3,2,1,50,0,0
113268,357.142857142857,4,2,1,50,1,0
132019,357.142857142857,4,2,1,50,1,0
133626,357.142857142857,4,2,1,50,1,0
136126,357.142857142857,4,2,1,50,1,0
177733,357.142857142857,4,2,1,60,1,0
179340,357.142857142857,4,2,1,60,1,0
181840,357.142857142857,4,2,1,60,1,0
201839,357.142857142857,3,2,1,50,1,0

[Colours]
Combo1 : 226,226,226
Combo2 : 255,255,142
Combo3 : 192,192,224
Combo4 : 255,162,162

[HitObjects]
144,96,769,6,0,B|179:131|172:186|172:186|188:96|154:31|111:10|46:41|45:72|41:135|13:176|58:295|119:341|119:341|28:239|103:148,1,809.999953823091
197,163,2197,6,0,B|249:276|104:371|104:371|194:334|289:203|268:144|283:65|292:27|223:-32|163:-20|100:48|90:163|90:163|101:94|164:73,1,989.999973773957
363,46,3269,6,0,P|379:39|401:33,1,35.9999990463257
512,208,3804,5,0,0:0:0:0:
432,240,3983,1,0,0:0:0:0:
378,307,4161,1,0,0:0:0:0:
409,227,4340,1,0,0:0:0:0:
397,142,4519,1,0,0:0:0:0:
398,275,4697,1,0,0:0:0:0:
398,275,4876,6,0,P|382:282|360:288,1,35.9999990463257
112,304,5411,2,0,P|128:297|150:291,1,35.9999990463257
48,32,6126,5,0,0:0:0:0:
256,112,6483,1,0,0:0:0:0:
80,160,6840,1,0,0:0:0:0:
160,48,7197,1,0,0:0:0:0:
64,144,7554,5,0,0:0:0:0:
480,64,8269,2,0,L|485:23,1,35.9999990463257
220,378,8983,6,0,P|398:323|512:176,1,377.999978450776
512,175,9697,2,0,P|415:234|4:202,1,503.99998664856
37,221,10411,6,0,P|91:206|151:157,1,107.999993843079
176,96,10590,1,0,0:0:0:0:
416,0,10769,6,0,P|362:15|302:64,1,107.999993843079
277,125,10948,1,0,0:0:0:0:
320,384,11126,6,0,P|280:344|253:271,1,107.999993843079
261,206,11305,1,0,0:0:0:0:
443,176,11483,1,0,0:0:0:0:
480,214,11572,1,0,0:0:0:0:
504,262,11661,1,0,0:0:0:0:
509,315,11751,1,0,0:0:0:0:
432,272,11840,5,0,0:0:0:0:
384,224,11929,1,0,0:0:0:0:
368,173,12019,1,0,0:0:0:0:
370,128,12108,1,0,0:0:0:0:
398,101,12197,6,0,P|425:82|455:40,1,71.9999980926514
208,142,12376,2,0,P|240:139|287:117,1,71.9999980926514
0,32,12554,2,0,P|49:54|134:63,1,125.999992816925
32,208,12733,2,0,P|82:188|148:135,1,89.9999976158143
108,361,12911,2,0,P|124:327|130:266,1,53.9999969215394
304,368,13090,1,0,0:0:0:0:
295,342,13179,1,0,0:0:0:0:
240,288,13269,5,0,0:0:0:0:
311,313,13358,1,0,0:0:0:0:
395,312,13447,1,0,0:0:0:0:
479,279,13536,1,0,0:0:0:0:
382,280,13626,5,0,0:0:0:0:
382,280,13670,2,0,L|339:259,1,26.9999984607697
368,173,13804,5,0,0:0:0:0:
368,173,13848,2,0,L|411:194,1,26.9999984607697
456,112,13983,5,0,0:0:0:0:
456,112,14027,2,0,L|467:87,1,26.9999984607697
400,16,14161,5,0,0:0:0:0:
400,16,14205,2,0,L|388:40,1,26.9999984607697
332,137,14340,2,0,L|344:113,1,26.9999984607697
256,32,14519,5,0,0:0:0:0:
208,128,14608,1,0,0:0:0:0:
160,224,14697,1,0,0:0:0:0:
160,224,14876,1,0,0:0:0:0:
256,224,15054,5,0,0:0:0:0:
341,218,15143,1,0,0:0:0:0:
427,213,15232,1,0,0:0:0:0:
352,16,15411,5,0,0:0:0:0:
418,170,15590,1,0,0:0:0:0:
487,325,15769,1,0,0:0:0:0:
453,248,15947,1,0,0:0:0:0:
208,368,16126,6,0,L|80:336,1,89.9999976158143
64,272,16304,2,0,L|16:256,1,44.9999988079071
192,16,16483,6,0,L|176:48,1,26.9999984607697
272,48,16661,2,0,L|256:80,1,26.9999984607697
448,128,16840,6,0,L|445:163,1,26.9999984607697
362,115,17018,2,0,L|359:150,1,26.9999984607697
160,224,17197,6,0,L|179:253,1,26.9999984607697
227,169,17375,2,0,L|246:198,1,26.9999984607697
368,336,17554,6,0,L|336:352,1,26.9999984607697
337,254,17732,2,0,L|304:270,1,26.9999984607697
272,384,17911,2,0,L|307:381,1,26.9999984607697
257,297,18089,2,0,L|292:294,1,26.9999984607697
496,336,18269,5,0,0:0:0:0:
480,304,18358,1,0,0:0:0:0:
464,272,18447,1,0,0:0:0:0:
400,144,18626,1,0,0:0:0:0:
320,0,18804,1,0,0:0:0:0:
112,112,18983,5,0,0:0:0:0:
110,95,19072,1,0,0:0:0:0:
64,160,19161,1,0,0:0:0:0:
169,144,19251,1,0,0:0:0:0:
103,62,19340,1,0,0:0:0:0:
480,242,19519,5,0,0:0:0:0:
354,262,19609,1,0,0:0:0:0:
400,144,19698,1,0,0:0:0:0:
437,377,19876,1,0,0:0:0:0:
464,80,20054,2,0,L|496:0,1,53.9999969215394
288,54,20233,2,0,L|321:98,1,53.9999969215394
437,377,20411,5,0,0:0:0:0:
5,256,20769,1,0,0:0:0:0:
352,0,21126,1,0,0:0:0:0:
5,256,21840,6,0,P|59:260|129:297,1,107.999993843079
62,148,22197,2,0,P|111:170|164:229,1,107.999993843079
152,66,22554,2,0,P|190:104|220:177,2,107.999993843079
294,122,23090,1,0,0:0:0:0:
265,20,23269,2,0,P|288:69|291:147,1,107.999993843079
378,121,23626,1,0,0:0:0:0:
385,15,23804,1,0,0:0:0:0:
378,121,23983,2,0,P|390:68|385:15,1,107.999993843079
456,148,24340,2,0,P|485:102|498:50,1,107.999993843079
155,348,24697,6,0,L|160:384,1,35.9999990463257
352,304,25233,1,0,0:0:0:0:
256,320,25411,1,0,0:0:0:0:
59,364,25590,1,0,0:0:0:0:
155,348,25768,1,0,0:0:0:0:
356,292,25947,2,0,L|351:256,1,35.9999990463257
384,384,26483,5,0,0:0:0:0:
384,176,26661,2,0,L|381:156,1,17.9999995231628
400,80,26840,1,0,0:0:0:0:
400,80,27019,1,0,0:0:0:0:
496,240,27197,2,0,L|493:220,1,17.9999995231628
496,0,27376,1,0,0:0:0:0:
501,64,27465,1,0,0:0:0:0:
507,129,27554,5,0,0:0:0:0:
454,105,27911,1,0,0:0:0:0:
176,128,28269,5,0,0:0:0:0:
256,64,28448,1,0,0:0:0:0:
161,27,28626,1,0,0:0:0:0:
193,67,28804,1,0,0:0:0:0:
80,128,28983,1,0,0:0:0:0:
144,352,29340,5,0,0:0:0:0:
159,251,29519,1,0,0:0:0:0:
64,288,29697,1,0,0:0:0:0:
64,288,30054,1,0,0:0:0:0:
512,96,30411,6,0,L|474:89,1,35.9999990463257
384,96,30947,1,0,0:0:0:0:
422,252,31126,2,0,L|416:288,1,35.9999990463257
432,368,31661,1,0,0:0:0:0:
432,368,31840,1,0,0:0:0:0:
256,192,32019,1,0,0:0:0:0:
336,208,32197,1,0,0:0:0:0:
112,192,32376,6,0,L|94:188,1,17.9999995231628
0,128,32554,1,0,0:0:0:0:
17,131,32643,1,0,0:0:0:0:
208,64,32822,1,0,0:0:0:0:
162,56,32911,1,0,0:0:0:0:
254,54,33001,1,0,0:0:0:0:
346,52,33090,1,0,0:0:0:0:
438,50,33179,1,0,0:0:0:0:
448,32,33269,6,0,L|456:144,1,107.999993843079
448,336,33626,1,0,0:0:0:0:
391,256,33804,1,0,0:0:0:0:
352,344,33983,1,0,0:0:0:0:
352,344,34161,1,0,0:0:0:0:
88,284,34340,5,0,0:0:0:0:
130,195,34519,1,0,0:0:0:0:
216,332,34697,1,0,0:0:0:0:
172,106,34876,1,0,0:0:0:0:
109,239,35054,1,0,0:0:0:0:
40,160,35233,1,0,0:0:0:0:
32,144,35322,1,0,0:0:0:0:
24,128,35411,5,0,0:0:0:0:
96,32,35590,1,0,0:0:0:0:
256,184,35769,2,0,L|264:104,1,53.9999969215394
296,0,35947,2,0,L|288:80,1,53.9999969215394
352,344,36126,5,0,0:0:0:0:
368,256,36304,1,0,0:0:0:0:
448,208,36483,1,0,0:0:0:0:
448,208,36661,1,0,0:0:0:0:
504,56,36840,6,0,L|496:120,1,53.9999969215394
464,192,37019,2,0,L|456:256,1,53.9999969215394
320,368,37197,2,0,L|328:304,1,53.9999969215394
366,178,37376,2,0,L|360:232,1,53.9999969215394
304,360,37554,1,0,0:0:0:0:
136,248,37733,5,0,0:0:0:0:
48,232,37911,1,0,0:0:0:0:
32,320,38090,1,0,0:0:0:0:
40,64,38269,2,0,L|33:117,1,53.9999969215394
40,344,38447,1,0,0:0:0:0:
72,0,38626,2,0,L|65:53,1,53.9999969215394
128,360,38804,1,0,0:0:0:0:
416,144,38983,6,0,P|365:125|312:127,1,107.999993843079
384,352,39340,1,0,0:0:0:0:
456,311,39519,1,0,0:0:0:0:
280,335,39697,2,0,P|330:353|383:351,1,107.999993843079
240,263,40054,1,0,0:0:0:0:
216,175,40233,1,0,0:0:0:0:
321,329,40411,6,0,P|273:304|239:262,1,107.999993843079
160,8,40769,1,0,0:0:0:0:
120,88,40947,1,0,0:0:0:0:
301,306,41126,2,0,P|272:260|264:208,1,107.999993843079
472,0,41483,2,0,P|500:45|509:98,1,107.999993843079
488,176,41840,1,0,0:0:0:0:
56,352,44340,5,0,0:0:0:0:
80,256,44429,1,0,0:0:0:0:
72,344,44519,1,0,0:0:0:0:
96,248,44608,1,0,0:0:0:0:
89,336,44697,6,0,L|248:320,1,143.999996185303
360,336,44965,1,0,0:0:0:0:
448,320,45054,2,0,L|333:331,1,71.9999980926514
320,208,45233,1,0,0:0:0:0:
408,200,45322,1,0,0:0:0:0:
504,176,45411,2,0,L|432:183,1,71.9999980926514
190,191,45590,5,0,0:0:0:0:
198,180,45679,2,0,L|194:133,2,35.9999990463257
256,48,45947,5,0,0:0:0:0:
372,104,46126,2,0,L|410:77,1,26.9999984607697
478,79,46304,2,0,L|516:52,1,26.9999984607697
393,45,46483,2,0,L|395:91,1,26.9999984607697
361,149,46661,2,0,L|363:195,1,26.9999984607697
432,93,46840,6,0,L|389:72,1,26.9999984607697
358,13,47018,2,0,L|315:-7,1,26.9999984607697
256,48,47197,6,0,L|229:50,1,26.9999984607697
151,15,47375,2,0,L|124:17,1,26.9999984607697
21,150,47554,6,0,L|44:135,1,26.9999984607697
152,112,47732,2,0,L|129:127,1,26.9999984607697
104,208,47911,1,0,0:0:0:0:
128,320,48090,6,0,L|139:295,1,26.9999984607697
221,221,48268,2,0,L|209:245,1,26.9999984607697
288,288,48447,2,0,L|309:349,1,53.9999969215394
384,288,48626,2,0,L|492:340,1,107.999993843079
448,192,48804,2,0,L|522:34,1,143.999996185303
256,0,48983,5,0,0:0:0:0:
0,56,49340,1,0,0:0:0:0:
196,109,49697,6,0,L|168:24,1,89.9999976158143
16,64,49876,2,0,L|44:149,1,89.9999976158143
200,312,50054,2,0,L|171:226,1,89.9999976158143
19,266,50233,2,0,L|47:351,1,89.9999976158143
336,344,50411,5,0,0:0:0:0:
512,280,50590,1,0,0:0:0:0:
416,248,50769,1,0,0:0:0:0:
424,264,50947,1,0,0:0:0:0:
344,8,51126,5,0,0:0:0:0:
392,152,51304,1,0,0:0:0:0:
440,56,51483,1,0,0:0:0:0:
296,104,51661,1,0,0:0:0:0:
0,128,51840,5,0,0:0:0:0:
144,80,52018,1,0,0:0:0:0:
56,48,52197,1,0,0:0:0:0:
64,56,52376,1,0,0:0:0:0:
104,344,52554,5,0,0:0:0:0:
56,200,52732,1,0,0:0:0:0:
192,368,52911,5,0,0:0:0:0:
305,267,53089,1,0,0:0:0:0:
160,312,53269,5,0,0:0:0:0:
184,224,53447,1,0,0:0:0:0:
320,256,53626,5,0,0:0:0:0:
348,150,53804,1,0,0:0:0:0:
144,312,53983,5,0,0:0:0:0:
172,206,54161,1,0,0:0:0:0:
336,256,54340,5,0,0:0:0:0:
369,128,54518,1,0,0:0:0:0:
64,232,54697,5,0,0:0:0:0:
352,256,54876,1,0,0:0:0:0:
0,64,55054,5,0,0:0:0:0:
368,256,55233,1,0,0:0:0:0:
312,0,55411,5,0,0:0:0:0:
256,384,55590,1,0,0:0:0:0:
480,0,55769,5,0,0:0:0:0:
424,384,55948,1,0,0:0:0:0:
472,320,56126,1,0,0:0:0:0:
176,256,56483,5,0,0:0:0:0:
120,176,56661,1,0,0:0:0:0:
96,168,56751,1,0,0:0:0:0:
72,160,56840,1,0,0:0:0:0:
104,80,57019,1,0,0:0:0:0:
216,144,57197,2,0,L|384:119,1,161.999990764618
392,104,57554,5,0,0:0:0:0:
224,128,57733,1,0,0:0:0:0:
323,225,57911,1,0,0:0:0:0:
292,6,58090,1,0,0:0:0:0:
336,304,58269,1,0,0:0:0:0:
408,264,58447,2,0,L|480:280,1,53.9999969215394
256,290,58626,2,0,L|200:325,1,53.9999985694885
210,319,58983,5,0,0:0:0:0:
32,288,59161,1,0,0:0:0:0:
120,256,59340,1,0,0:0:0:0:
256,56,59519,5,0,0:0:0:0:
77,24,59697,1,0,0:0:0:0:
149,84,59876,1,0,0:0:0:0:
432,232,60054,5,0,0:0:0:0:
383,84,60233,1,0,0:0:0:0:
280,200,60411,1,0,0:0:0:0:
488,376,60590,5,0,0:0:0:0:
512,160,60768,1,0,0:0:0:0:
432,232,60947,1,0,0:0:0:0:
189,325,61125,5,0,0:0:0:0:
221,110,61303,1,0,0:0:0:0:
280,200,61482,1,0,0:0:0:0:
0,200,61661,5,0,0:0:0:0:
162,234,61839,1,0,0:0:0:0:
109,76,62018,1,0,0:0:0:0:
48,368,62197,5,0,0:0:0:0:
384,344,62375,1,0,0:0:0:0:
312,280,62554,1,0,0:0:0:0:
445,52,62732,5,0,0:0:0:0:
181,140,62910,1,0,0:0:0:0:
109,76,63089,1,0,0:0:0:0:
512,248,63268,5,0,0:0:0:0:
487,171,63447,1,0,0:0:0:0:
384,344,63625,5,0,0:0:0:0:
445,52,63804,1,0,0:0:0:0:
312,280,63982,5,0,0:0:0:0:
277,43,64161,1,0,0:0:0:0:
224,256,64339,5,0,0:0:0:0:
155,129,64518,1,0,0:0:0:0:
133,263,64697,5,0,0:0:0:0:
48,256,64875,1,0,0:0:0:0:
32,260,64964,1,0,0:0:0:0:
23,271,65054,1,0,0:0:0:0:
8,352,65232,1,0,0:0:0:0:
40,272,65411,1,0,0:0:0:0:
48,152,65589,1,0,0:0:0:0:
24,8,65768,5,0,0:0:0:0:
328,192,65947,1,0,0:0:0:0:
384,176,66036,1,0,0:0:0:0:
440,160,66125,2,0,B|378:132|320:168|332:196|280:252|196:207,1,251.999985633851
336,272,66393,1,0,0:0:0:0:
210,213,66482,2,0,B|246:196|281:217|274:234|304:267|354:240,1,125.999992816925
424,312,66750,5,0,0:0:0:0:
512,272,66839,2,0,B|437:238|368:281|382:315|320:382|224:328,1,287.999992370606
96,328,67107,1,0,0:0:0:0:
40,272,67197,2,0,B|76:255|111:276|104:293|134:326|184:299,1,143.999996185303
208,96,67464,5,0,0:0:0:0:
184,0,67554,2,0,L|157:430,1,323.999981529237
323,249,67822,1,0,0:0:0:0:
312,168,67911,2,0,L|319:47,1,107.999993843079
158,233,68179,5,0,0:0:0:0:
158,233,68268,2,0,L|166:376,1,89.9999976158143
179,76,68447,1,0,0:0:0:0:
171,199,68536,1,0,0:0:0:0:
163,322,68625,1,0,0:0:0:0:
88,40,68804,1,0,0:0:0:0:
254,358,68982,1,0,0:0:0:0:
472,176,69339,6,0,B|460:113|523:93|521:121|585:102|587:29|544:-14|496:-8|457:9|463:75|484:68,1,269.999992847443
472,176,69697,2,0,B|450:115|386:129|402:152|337:168|298:106|314:47|359:28|401:23|429:84|407:88,1,270.000003147125
511,320,70054,1,0,0:0:0:0:
302,374,70232,5,0,0:0:0:0:
278,366,70322,1,0,0:0:0:0:
255,358,70411,2,0,B|173:390|28:329|52:213|52:213|76:228,1,323.999981529237
168,344,70679,2,0,B|94:295|61:141|170:94|170:94|171:122,1,323.999981529237
144,192,70947,2,0,B|151:149|194:122|248:123|248:123|215:152,1,161.999990764618
228,139,71125,1,0,0:0:0:0:
504,352,71304,6,0,L|480:160,1,161.999990764618
408,216,71482,2,0,L|432:408,1,161.999990764618
468,15,71839,6,0,P|326:40|211:181,1,287.999992370606
200,264,72107,1,0,0:0:0:0:
144,192,72197,2,0,P|72:179|15:108,1,143.999996185303
120,96,72464,5,0,0:0:0:0:
23,130,72554,2,0,P|137:150|259:340,1,323.999981529237
296,384,72822,1,0,0:0:0:0:
368,328,72911,2,0,P|457:343|522:307,1,143.999996185303
328,120,73179,5,0,0:0:0:0:
311,34,73268,2,0,B|257:116|304:192|342:177|416:245|356:351,1,323.999981529237
496,168,73536,1,0,0:0:0:0:
464,248,73625,2,0,B|490:206|467:168|448:176|411:142|441:89,1,143.999996185303
336,164,73893,5,0,0:0:0:0:
336,164,73982,2,0,B|306:209|332:251|353:242|393:280|361:338,1,179.999995231629
184,176,74161,1,0,0:0:0:0:
240,288,74250,1,0,0:0:0:0:
366,327,74339,1,0,0:0:0:0:
336,164,74518,1,0,0:0:0:0:
24,32,74697,1,0,0:0:0:0:
72,224,75054,6,0,B|81:252|87:186|48:169|0:163|-42:206|-40:279|23:298|21:270|84:290|72:353,1,269.999992847443
72,224,75411,2,0,B|49:243|77:183|119:188|163:207|179:266|141:328|76:312|92:289|27:275|6:335,1,269.999992847443
128,64,75768,1,0,0:0:0:0:
256,240,75947,1,0,0:0:0:0:
264,208,76036,1,0,0:0:0:0:
288,184,76125,6,0,B|431:156|456:16|456:16|436:60|352:80,1,323.999981529237
451,154,76393,2,0,B|477:167|517:139|517:139|425:248|287:201,1,323.999981529237
352,320,76661,2,0,B|420:340|476:280|476:280|439:291|423:273,1,161.999990764618
216,368,76839,1,0,0:0:0:0:
40,88,77018,6,0,L|32:288,1,161.999990764618
112,224,77197,2,0,L|120:24,1,161.999990764618
454,46,77554,6,0,L|230:94,1,215.999987686158
166,78,77822,1,0,0:0:0:0:
118,62,77911,2,0,L|6:126,1,107.999993843079
40,200,78089,2,0,L|152:136,1,107.999993843079
242,91,78268,6,0,L|382:121,1,143.999996185303
432,136,78536,1,0,0:0:0:0:
480,144,78625,2,0,L|208:256,1,215.999987686158
160,368,78982,6,0,L|32:344,2,107.999993843079
312,336,79250,1,0,0:0:0:0:
352,336,79339,2,0,L|480:360,1,107.999993843079
512,288,79518,2,0,L|384:264,1,107.999993843079
280,226,79697,6,0,L|20:256,1,215.999994277954
65,251,80054,2,0,L|460:103,1,377.999978450776
419,118,80411,6,0,L|427:26,1,80.9999953823091
426,37,80768,2,0,L|184:130,1,215.999994277954
224,114,81125,6,0,L|96:104,1,107.999997138977
116,105,81482,2,0,L|397:-3,1,269.999992847443
368,8,81839,6,0,P|395:42|402:73,1,71.9999980926514
328,96,82018,2,0,P|301:62|294:31,1,71.9999980926514
440,250,82197,6,0,P|476:296|486:338,1,89.9999976158143
408,370,82375,2,0,P|371:323|361:281,1,89.9999976158143
11,103,82554,6,0,P|75:93|122:107,1,107.999993843079
220,36,82732,2,0,P|297:66|338:111,1,125.999992816925
440,56,82911,2,0,P|491:120|509:221,1,161.999990764618
272,288,83089,2,0,P|220:223|202:122,1,161.999990764618
201,147,83269,1,0,0:0:0:0:
12,327,83626,6,0,P|40:333|87:367,2,71.9999980926514
408,370,84697,2,0,P|380:364|333:330,2,71.9999980926514
102,163,86126,6,0,B|64:132|43:72|67:4|142:4|165:110|165:110|148:61|112:59,1,323.999981529237
128,62,86483,1,0,0:0:0:0:
