osu file format v14

[General]
AudioFilename: audio.mp3
AudioLeadIn: 0
PreviewTime:53380
Countdown: 0
SampleSet: Soft
StackLeniency: 0.7
Mode: 0
LetterboxInBreaks: 0
WidescreenStoryboard: 1

[Editor]
Bookmarks:54937,90405,104000
DistanceSpacing: 1
BeatDivisor: 4
GridSize: 32
TimelineZoom: 1.6

[Metadata]
Title:Ikazuchi
TitleUnicode:雷
Artist:Miyo Takashiro
ArtistUnicode:高城みよ
Creator:Arushii09
Version:KennethBBG's Easy
Source:DEEMO II
Tags:artcore ambient orchestral piano folk japanese vocal videogame video game Rayark Inc. DEEMO2 female vocalist vgm kennethbbg aurorance iredi syndicate_ nilou -_nilou_-
BeatmapID:4012223
BeatmapSetID:1938528

[Difficulty]
HPDrainRate:2
CircleSize:3
OverallDifficulty:3
ApproachRate:4
SliderMultiplier:0.799999999999999
SliderTickRate:1

[Events]
//Background and Video events
0,0,"bg.jpg",0,0
//Break Periods
//Storyboard Layer 0 (Background)
//Storyboard Layer 1 (Fail)
//Storyboard Layer 2 (Pass)
//Storyboard Layer 3 (Foreground)
//Storyboard Layer 4 (Overlay)
//Storyboard Sound Samples

[TimingPoints]
2029,295.566502463054,3,2,1,40,1,0
12964,295.566502463054,5,2,1,60,1,0
14441,295.566502463054,3,2,1,60,1,0
21238,295.566502463054,3,2,1,60,1,0
26558,-100,3,2,2,40,0,0
41040,-100,3,2,2,45,0,0
51385,-100,3,2,2,55,0,0
54932,-100,3,2,1,70,0,1
69119,-100,3,2,1,75,0,1
90400,-100,3,2,1,60,0,0
91878,295.566502463054,3,2,1,60,1,0
98675,295.566502463054,3,2,1,60,1,0
103995,-100,3,2,1,40,0,0
105472,295.566502463054,3,2,1,40,1,0
111087,295.566502463054,3,2,1,40,1,0
114633,301.507537688442,3,2,1,40,1,0
115537,295.566502463054,3,2,1,40,1,0
116423,300,3,2,1,40,1,0
117173,333.333333333333,3,2,1,40,1,0
117339,315.78947368421,3,2,1,40,1,0
117654,352.941176470588,3,2,1,40,1,0
118006,333.333333333333,3,2,1,40,1,0
118506,326.086956521739,3,2,1,40,1,0

[Colours]
Combo1 : 151,133,241
Combo2 : 115,32,253
Combo3 : 74,78,210
Combo4 : 164,100,240

[HitObjects]
0,36,12964,6,0,L|25:199,1,159.99999999999986,10|2,2:0|2:0,2:0:0:0:
82,248,13850,2,0,P|120:227|175:236,1,79.99999999999991,10|2,2:0|1:2,2:0:0:0:
196,297,14441,1,10,2:0:0:0:
274,280,14736,2,0,P|295:242|286:187,1,79.99999999999991,2|2,2:0|2:0,2:0:0:0:
310,127,15327,2,0,L|291:14,2,79.99999999999991,10|2|2,2:0|1:2|2:0,2:0:0:0:
390,130,16214,1,10,2:0:0:0:
449,183,16509,6,0,P|470:221|461:276,1,79.99999999999991,2|2,2:0|2:0,2:0:0:0:
432,327,17101,2,0,L|545:346,2,79.99999999999991,10|2|2,2:0|1:2|1:2,2:0:0:0:
370,378,17987,2,0,P|294:355|252:377,1,119.99999999999987,10|10,2:0|2:0,2:0:0:0:
147,329,18874,2,0,P|163:272|139:219,1,119.99999999999987,10|10,2:0|2:0,2:0:0:0:
198,114,19761,6,0,P|236:93|291:102,1,79.99999999999991,10|2,2:0|2:0,2:0:0:0:
349,77,20352,2,0,L|330:-36,2,79.99999999999991,2|10|2,2:0|2:0|1:2,2:0:0:0:
375,152,21238,1,10,2:0:0:0:
338,222,21533,2,0,P|303:242|264:242,1,79.99999999999991,2|2,2:0|2:0,2:0:0:0:
189,214,22124,2,0,L|170:101,2,79.99999999999991,10|2|2,2:0|1:2|2:0,2:0:0:0:
129,267,23011,1,10,2:0:0:0:
173,333,23306,6,0,P|253:369|331:344,1,159.99999999999986,2|10,2:0|2:0,2:0:0:0:
391,315,24193,1,2,1:2:0:0:
374,236,24489,1,2,1:2:0:0:
446,201,24784,1,10,2:0:0:0:
433,81,25228,2,0,P|377:60|322:81,1,119.99999999999987,2|10,1:2|2:0,2:0:0:0:
261,132,25967,2,0,P|223:117|183:113,1,79.99999999999991,0|0,1:2|2:0,2:0:0:0:
124,59,26558,5,2,2:0:0:0:
18,179,27149,1,2,2:0:0:0:
22,258,27444,2,0,P|91:272|180:298,1,159.99999999999986,2|2,2:0|2:0,2:0:0:0:
230,356,28331,1,2,2:0:0:0:
245,196,28922,2,0,L|220:109,1,79.99999999999991,2|2,2:0|2:0,2:0:0:0:
357,32,29809,1,2,2:0:0:0:
390,105,30104,2,0,L|479:85,2,79.99999999999991,2|2|2,2:0|2:0|2:0,2:0:0:0:
344,171,30991,1,2,2:0:0:0:
437,304,31582,5,2,2:0:0:0:
380,360,31878,2,0,L|301:342,1,79.99999999999991,2|2,2:0|2:0,2:0:0:0:
225,319,32469,1,2,2:0:0:0:
236,239,32765,1,2,2:0:0:0:
260,80,33356,1,2,2:0:0:0:
188,44,33651,6,0,P|148:23|39:68,1,159.99999999999986,2|2,2:0|2:0,2:0:0:0:
8,129,34538,2,0,P|22:174|28:224,1,79.99999999999991,6|0,2:0|2:0,2:0:0:0:
11,284,35129,1,2,2:0:0:0:
49,353,35425,2,0,P|94:341|143:321,1,79.99999999999991,2|0,2:0|2:0,2:0:0:0:
203,309,36016,1,2,2:0:0:0:
176,157,36607,1,2,2:0:0:0:
209,84,36903,1,2,2:0:0:0:
260,22,37198,6,0,L|369:46,1,79.99999999999991,2|2,2:0|2:1,2:0:0:0:
378,108,37789,1,2,2:0:0:0:
458,106,38085,2,0,L|482:-3,2,79.99999999999991,6|2|2,2:0|2:1|2:0,2:0:0:0:
487,180,38971,2,0,P|428:231|352:219,1,159.99999999999986,2|8,2:1|2:0,2:0:0:0:
321,145,39858,2,0,L|204:168,1,119.99999999999987,8|8,2:0|2:0,2:0:0:0:
142,116,40597,1,8,2:0:0:0:
50,193,41040,2,0,P|69:248|82:298,1,79.99999999999991,2|2,2:1|2:0,2:0:0:0:
74,349,41632,6,0,P|19:368|-31:381,2,79.99999999999991,8|2|2,2:0|2:1|2:0,2:0:0:0:
153,358,42518,2,0,P|196:369|244:390,1,79.99999999999991,0|2,1:2|2:1,2:0:0:0:
279,320,43109,1,2,2:0:0:0:
249,245,43405,1,10,2:0:0:0:
209,175,43701,2,0,P|220:132|241:84,1,79.99999999999991,2|2,2:1|2:0,2:0:0:0:
275,30,44292,2,0,P|331:31|379:79,1,119.99999999999987,2|0,1:2|2:0,2:0:0:0:
434,177,45178,6,0,P|472:167|512:161,2,79.99999999999991,10|2|2,2:0|2:1|2:1,2:0:0:0:
356,197,46065,1,0,1:2:0:0:
277,214,46361,2,0,L|254:319,1,79.99999999999991,2|2,2:1|2:1,2:0:0:0:
222,363,46952,2,0,P|184:378|82:331,1,159.99999999999986,10|2,2:0|2:1,2:0:0:0:
66,172,48134,6,0,L|86:79,1,79.99999999999991,2|2,2:1|2:1,2:0:0:0:
89,13,48725,2,0,L|-4:33,2,79.99999999999991,10|2|2,2:0|2:1|2:1,2:0:0:0:
169,11,49612,2,0,L|288:28,1,119.99999999999987,2|2,1:2|2:0,2:0:0:0:
378,106,50499,2,0,L|365:205,1,79.99999999999991,10|2,2:0|2:1,2:0:0:0:
297,223,51090,1,2,2:1:0:0:
319,299,51385,6,0,P|397:313|472:341,1,159.99999999999986,10|2,2:0|1:2,2:0:0:0:
506,268,52272,2,0,L|491:176,1,79.99999999999991,10|2,2:0|1:2,2:0:0:0:
511,110,52863,1,10,2:0:0:0:
471,40,53159,5,14,2:0:0:0:
247,126,54045,5,10,2:0:0:0:
199,190,54341,2,0,P|159:178|103:170,1,79.99999999999991,14|14,2:0|2:0,2:0:0:0:
48,203,54932,6,0,P|45:250|79:292,1,79.99999999999991,14|2,2:0|1:2,2:0:0:0:
132,312,55523,1,2,2:0:0:0:
200,354,55819,2,0,L|279:343,1,79.99999999999991,10|10,1:2|2:0,2:0:0:0:
344,296,56410,1,10,2:0:0:0:
418,265,56705,2,0,L|435:399,2,119.99999999999987,10|10|10,2:0|2:0|2:0,2:0:0:0:
450,191,57888,1,2,2:0:0:0:
433,112,58183,1,10,2:0:0:0:
352,115,58479,6,0,P|305:110|256:161,1,119.99999999999987,10|10,2:0|2:0,2:0:0:0:
179,250,59366,2,0,L|90:231,1,79.99999999999991,10|0,2:0|1:2,2:0:0:0:
46,173,59957,2,0,L|65:84,1,79.99999999999991,0|10,1:2|2:0,2:0:0:0:
100,24,60548,1,2,2:0:0:0:
174,52,60843,1,10,2:0:0:0:
243,12,61139,6,0,L|332:31,1,79.99999999999991,10|10,2:0|2:0,2:0:0:0:
400,18,61730,1,10,2:0:0:0:
407,97,62026,2,0,P|452:92|515:146,2,119.99999999999987,10|10|10,2:0|2:0|2:0,2:0:0:0:
352,155,63208,2,0,L|188:123,1,159.99999999999986,2|10,2:0|2:0,2:0:0:0:
113,145,64095,2,0,L|94:234,1,79.99999999999991,2|2,2:0|2:0,2:0:0:0:
49,288,64686,5,10,2:0:0:0:
109,340,64981,2,0,L|198:321,1,79.99999999999991,10|10,2:0|2:0,2:0:0:0:
233,257,65572,2,0,P|272:261|306:282,1,79.99999999999991,10|2,2:0|1:2,2:0:0:0:
346,351,66164,1,2,2:0:0:0:
419,318,66459,6,0,L|404:219,1,79.99999999999991,10|0,2:0|1:2,2:0:0:0:
456,175,67050,1,10,2:0:0:0:
389,130,67346,2,0,B|290:111|331:155|222:147,1,159.99999999999986,10|2,2:0|2:0,2:0:0:0:
156,169,68233,1,10,2:0:0:0:
103,108,68528,1,10,2:0:0:0:
139,36,68824,1,10,2:0:0:0:
218,28,69119,6,0,P|265:25|307:59,1,79.99999999999991,14|2,2:0|1:2,2:0:0:0:
287,120,69710,1,2,2:0:0:0:
238,184,70006,2,0,L|248:263,1,79.99999999999991,10|0,2:0|1:2,2:0:0:0:
291,331,70597,1,2,1:2:0:0:
367,309,70893,6,0,L|501:326,2,119.99999999999987,10|10|10,2:0|2:0|2:0,2:0:0:0:
339,233,72075,1,10,2:0:0:0:
396,177,72371,1,10,2:0:0:0:
366,102,72666,6,0,P|319:107|270:56,1,119.99999999999987,10|10,2:0|2:0,2:0:0:0:
158,17,73553,2,0,L|69:36,1,79.99999999999991,10|0,2:0|1:2,2:0:0:0:
23,90,74144,2,0,L|42:179,1,79.99999999999991,0|8,1:2|2:0,2:0:0:0:
23,246,74735,1,2,2:0:0:0:
86,294,75031,1,2,1:2:0:0:
118,367,75326,6,0,L|196:350,1,79.99999999999991,10|0,2:0|1:2,2:0:0:0:
310,281,76213,2,0,P|348:325|347:383,2,119.99999999999987,10|8|10,2:0|2:0|2:0,2:0:0:0:
288,203,77395,2,0,L|307:114,1,79.99999999999991,10|2,2:0|1:2,2:0:0:0:
319,45,77986,5,10,2:0:0:0:
397,30,78282,2,0,L|475:46,1,79.99999999999991,0|10,1:2|2:0,2:0:0:0:
493,124,78873,1,10,2:0:0:0:
429,271,79464,5,10,2:0:0:0:
351,261,79760,2,0,P|317:239|277:235,1,79.99999999999991,10|2,2:0|1:2,2:0:0:0:
207,196,80351,1,2,2:0:0:0:
126,191,80646,6,0,L|111:92,1,79.99999999999991,10|2,2:0|1:2,2:0:0:0:
168,53,81237,1,10,2:0:0:0:
96,16,81533,2,0,P|57:6|19:17,1,79.99999999999991,10|0,2:0|1:2,2:0:0:0:
5,96,82124,1,2,1:2:0:0:
31,171,82420,6,0,L|15:266,1,79.99999999999991,10|8,2:0|2:0,2:0:0:0:
9,329,83011,1,10,2:0:0:0:
77,370,83306,2,0,L|192:348,1,79.99999999999991,10|0,2:0|1:2,2:0:0:0:
181,279,83898,1,2,2:0:0:0:
173,199,84193,6,0,L|186:110,1,79.99999999999991,10|2,2:0|2:0,2:0:0:0:
209,43,84784,1,10,2:0:0:0:
283,12,85080,2,0,L|371:29,1,79.99999999999991,10|0,2:0|1:2,2:0:0:0:
470,128,85967,5,10,2:0:0:0:
409,180,86262,1,2,1:2:0:0:
436,255,86558,1,10,2:0:0:0:
434,335,86853,6,0,L|536:356,2,79.99999999999991,10|8|10,2:0|2:0|2:0,2:0:0:0:
362,298,87740,2,0,B|265:312|295:339|216:357,1,159.99999999999986,10|10,2:0|2:0,2:0:0:0:
151,308,88627,5,10,2:0:0:0:
188,237,88922,1,10,2:0:0:0:
163,160,89218,1,10,2:0:0:0:
185,83,89513,2,0,P|238:98|289:101,1,79.99999999999991,10|10,2:0|2:0,2:0:0:0:
405,82,90400,6,0,P|397:154|450:240,1,159.99999999999986,10|2,2:0|2:0,2:0:0:0:
453,307,91287,2,0,P|415:328|360:319,1,79.99999999999991,10|2,2:0|1:2,2:0:0:0:
310,286,91878,1,10,2:0:0:0:
230,278,92173,2,0,L|144:296,1,79.99999999999991,2|2,2:0|2:0,2:0:0:0:
71,301,92764,2,0,L|52:414,2,79.99999999999991,10|2|2,2:0|1:2|2:0,2:0:0:0:
38,227,93651,1,10,2:0:0:0:
65,152,93946,6,0,P|104:152|138:172,1,79.99999999999991,2|2,2:0|2:0,2:0:0:0:
217,159,94538,2,0,L|198:46,2,79.99999999999991,10|2|2,2:0|1:2|1:2,2:0:0:0:
269,219,95424,2,0,P|325:235|378:211,1,119.99999999999987,10|10,2:0|2:0,2:0:0:0:
390,91,96311,2,0,P|336:66|280:83,1,119.99999999999987,10|10,2:0|2:0,2:0:0:0:
180,150,97198,6,0,L|87:138,1,79.99999999999991,10|2,2:0|2:0,2:0:0:0:
22,121,97789,2,0,L|3:8,2,79.99999999999991,2|10|2,2:0|2:0|1:2,2:0:0:0:
6,199,98675,1,10,2:0:0:0:
34,273,98970,2,0,P|68:293|107:293,1,79.99999999999991,2|2,2:0|2:0,2:0:0:0:
186,304,99561,2,0,L|205:417,2,79.99999999999991,10|2|2,2:0|1:2|2:0,2:0:0:0:
240,245,100448,1,10,2:0:0:0:
297,299,100743,6,0,P|377:335|455:310,1,159.99999999999986,2|10,2:0|2:0,2:0:0:0:
443,237,101630,1,2,1:2:0:0:
469,161,101926,1,2,1:2:0:0:
441,86,102221,1,10,2:0:0:0:
327,46,102665,6,0,P|306:100|326:156,1,119.99999999999987,2|10,1:2|2:0,2:0:0:0:
287,225,103404,2,0,P|247:229|209:243,1,79.99999999999991,0|0,1:2|2:0,2:0:0:0:
130,232,103995,1,2,2:0:0:0:
