osu file format v14

[General]
AudioFilename: audio.mp3
AudioLeadIn: 0
PreviewTime: 53380
Countdown: 0
SampleSet: Soft
StackLeniency: 0.5
Mode: 0
LetterboxInBreaks: 0
WidescreenStoryboard: 1

[Editor]
Bookmarks: 54937,90405,104000
DistanceSpacing: 1
BeatDivisor: 4
GridSize: 32
TimelineZoom: 1.8

[Metadata]
Title:Ikazuchi
TitleUnicode:雷
Artist:Miyo Takashiro
ArtistUnicode:高城みよ
Creator:Arushii09
Version:Insane
Source:DEEMO II
Tags:artcore ambient orchestral piano folk japanese vocal videogame video game Rayark Inc. DEEMO2 female vocalist vgm kennethbbg aurorance iredi syndicate_ nilou -_nilou_-
BeatmapID:4011018
BeatmapSetID:1938528

[Difficulty]
HPDrainRate:5
CircleSize:4
OverallDifficulty:8
ApproachRate:9
SliderMultiplier:1.6
SliderTickRate:1

[Events]
//Background and Video events
0,0,"bg.jpg",0,0
//Break Periods
//Storyboard Layer 0 (Background)
//Storyboard Layer 1 (Fail)
//Storyboard Layer 2 (Pass)
//Storyboard Layer 3 (Foreground)
//Storyboard Layer 4 (Overlay)
//Storyboard Sound Samples

[TimingPoints]
2029,295.566502463054,3,2,1,40,1,0
2029,-166.666666666667,3,2,1,40,0,0
12964,295.566502463054,5,2,1,60,1,0
13259,-111.111111111111,5,2,1,60,0,0
14441,295.566502463054,3,2,1,60,1,0
14736,-111.111111111111,3,2,1,60,0,0
21238,295.566502463054,3,2,1,60,1,0
21533,-111.111111111111,3,2,1,60,0,0
26558,-111.111111111111,3,2,2,40,0,0
27444,-166.666666666667,3,2,2,40,0,0
33651,-153.846153846154,3,2,2,40,0,0
34538,-142.857142857143,3,2,2,40,0,0
37494,-125,3,2,2,40,0,0
39858,-142.857142857143,3,2,2,40,0,0
40745,-200,3,2,2,40,0,0
41040,-125,3,2,2,45,0,0
51385,-125,3,2,2,55,0,0
54341,-111.111111111111,3,2,2,55,0,0
54932,-95.2380952380952,3,2,1,70,0,1
56705,-200,3,2,1,70,0,1
57149,-76.9230769230769,3,2,1,70,0,1
57592,-95.2380952380952,3,2,1,70,0,1
58479,-86.9565217391304,3,2,1,70,0,1
59366,-71.4285714285714,3,2,1,70,0,1
60843,-95.2380952380952,3,2,1,70,0,1
61139,-200,3,2,1,70,0,1
61730,-95.2380952380952,3,2,1,70,0,1
64686,-200,3,2,1,70,0,1
65572,-95.2380952380952,3,2,1,70,0,1
66459,-76.9230769230769,3,2,1,70,0,1
67050,-200,3,2,1,70,0,1
67346,-76.9230769230769,3,2,1,70,0,1
68528,-95.2380952380952,3,2,1,70,0,1
69119,-95.2380952380952,3,2,1,75,0,1
69415,-90.9090909090909,3,2,1,75,0,1
70006,-76.9230769230769,3,2,1,75,0,1
71779,-90.9090909090909,3,2,1,75,0,1
72666,-76.9230769230769,3,2,1,75,0,1
73257,-90.9090909090909,3,2,1,75,0,1
73553,-71.4285714285714,3,2,1,75,0,1
74735,-90.9090909090909,3,2,1,75,0,1
75326,-76.9230769230769,3,2,1,75,0,1
76213,-95.2380952380952,3,2,1,75,0,1
78873,-71.4285714285714,3,2,1,75,0,1
79464,-95.2380952380952,3,2,1,75,0,1
79760,-90.9090909090909,3,2,1,75,0,1
85080,-76.9230769230769,3,2,1,75,0,1
85671,-90.9090909090909,3,2,1,75,0,1
86853,-86.9565217391304,3,2,1,75,0,1
89809,-117.647058823529,3,2,1,75,0,1
90400,-117.647058823529,3,2,1,60,0,0
90696,-111.111111111111,3,2,1,60,0,0
91878,295.566502463054,3,2,1,60,1,0
92173,-111.111111111111,3,2,1,60,0,0
98675,295.566502463054,3,2,1,60,1,0
98970,-111.111111111111,3,2,1,60,0,0
103995,-111.111111111111,3,2,1,40,0,0
104290,-166.666666666667,3,2,1,40,0,0
105472,295.566502463054,3,2,1,40,1,0
105767,-166.666666666667,3,2,1,40,0,0
111087,295.566502463054,3,2,1,40,1,0
111382,-166.666666666667,3,2,1,40,0,0
114633,301.507537688442,3,2,1,40,1,0
114633,-166.666666666667,3,2,1,40,0,0
115537,295.566502463054,3,2,1,40,1,0
115537,-166.666666666667,3,2,1,40,0,0
116423,300,3,2,1,40,1,0
117023,-166.666666666667,3,2,1,40,0,0
117173,333.333333333333,3,2,1,40,1,0
117339,315.78947368421,3,2,1,40,1,0
117654,352.941176470588,3,2,1,40,1,0
118006,333.333333333333,3,2,1,35,1,0
118506,326.086956521739,3,2,1,30,1,0
118506,-200,3,2,1,30,0,0
123071,-200,3,2,1,5,0,0

[Colours]
Combo1 : 151,133,241
Combo2 : 115,32,253
Combo3 : 74,78,210
Combo4 : 164,100,240

[HitObjects]
33,365,2029,6,0,P|60:355|92:334,1,47.99999999999991,2|0,2:0|2:0,2:0:0:0:
109,258,2324,1,2,2:0:0:0:
16,224,2472,2,0,P|62:253|119:267,1,95.99999999999982,2|2,2:0|2:0,2:0:0:0:
167,365,2915,2,0,P|195:318|252:315,1,95.99999999999982,2|2,2:0|2:0,2:0:0:0:
324,334,3359,2,0,P|326:357|343:375,2,47.99999999999991,2|0|2,2:0|2:0|2:0,2:0:0:0:
306,230,3802,6,0,P|331:186|392:179,1,95.99999999999982,2|2,2:0|2:0,2:0:0:0:
501,216,4245,1,2,2:0:0:0:
472,308,4393,2,0,P|453:292|440:261,1,47.99999999999991,2|0,2:0|2:0,2:0:0:0:
337,381,4689,2,0,P|367:360|366:292,1,95.99999999999982,2|2,2:0|2:0,2:0:0:0:
248,297,5132,2,0,P|239:270|226:247,2,47.99999999999991,2|0|2,2:0|2:0|2:0,2:0:0:0:
273,169,5575,6,0,P|226:159|184:135,1,95.99999999999982,2|2,2:0|2:0,2:0:0:0:
157,45,6019,1,2,2:0:0:0:
85,75,6166,1,2,2:0:0:0:
61,151,6314,1,2,2:0:0:0:
140,208,6462,6,0,P|179:180|181:126,1,95.99999999999982,2|2,2:0|2:0,2:0:0:0:
157,45,6905,1,2,2:0:0:0:
248,80,7053,2,0,P|253:51|263:33,1,47.99999999999991,0|2,2:0|2:0,2:0:0:0:
354,128,7349,6,0,P|330:129|266:191,1,95.99999999999982,2|2,2:0|2:0,2:0:0:0:
324,289,7792,1,2,2:0:0:0:
394,253,7940,2,0,P|403:222|415:196,1,47.99999999999991,2|2,2:0|2:0,2:0:0:0:
321,298,8235,2,0,P|275:287|247:241,1,95.99999999999982,2|2,2:0|2:0,2:0:0:0:
139,209,8679,5,2,2:0:0:0:
91,270,8827,1,2,2:0:0:0:
146,326,8974,1,2,2:0:0:0:
236,251,9122,1,2,2:0:0:0:
173,128,10009,5,2,2:0:0:0:
236,251,10157,1,2,2:0:0:0:
109,179,10988,5,2,2:0:0:0:
319,246,11136,1,2,2:0:0:0:
256,192,11782,12,0,12817,2:0:0:0:
410,219,12964,5,10,2:0:0:0:
236,114,13259,2,0,P|249:153|257:195,1,72.00000000000009,2|2,2:0|1:2,2:0:0:0:
326,274,13555,1,2,2:0:0:0:
410,219,13702,1,2,1:2:0:0:
351,345,13850,2,0,P|318:329|283:321,1,72.00000000000009,10|0,2:0|2:0,2:0:0:0:
416,221,14146,2,0,P|449:205|484:197,1,72.00000000000009,2|0,1:2|2:0,2:0:0:0:
380,58,14441,5,10,2:0:0:0:
174,247,14736,6,0,P|140:230|101:221,2,72.00000000000009,2|2|2,2:0|1:2|2:0,2:0:0:0:
120,123,15179,1,2,2:0:0:0:
231,70,15327,1,10,2:0:0:0:
231,70,15401,1,2,2:0:0:0:
231,70,15475,1,2,2:0:0:0:
93,0,15623,2,0,P|109:33|159:42,1,72.00000000000009,2|2,1:2|1:2,2:0:0:0:
262,156,15918,2,0,P|288:115|368:103,1,108.00000000000011,2|0,2:0|2:0,2:0:0:0:
373,117,16214,5,10,2:0:0:0:
507,288,16509,6,0,P|470:294|430:314,1,72.00000000000009,2|2,2:0|1:2,2:0:0:0:
332,379,16805,1,2,2:0:0:0:
374,261,16953,1,2,1:2:0:0:
320,383,17101,2,0,P|285:360|249:353,1,72.00000000000009,10|0,2:0|2:0,2:0:0:0:
153,264,17396,2,0,P|152:299|166:333,1,72.00000000000009,2|0,1:2|2:0,2:0:0:0:
67,196,17692,2,0,P|36:212|13:241,1,72.00000000000009,2|0,1:2|2:0,2:0:0:0:
234,211,17987,5,10,2:0:0:0:
327,106,18283,5,0,1:2:0:0:
234,211,18431,2,0,P|220:168|200:126,1,72.00000000000009,10|0,2:0|2:0,2:0:0:0:
222,62,18726,5,0,1:2:0:0:
307,178,18874,2,0,P|327:137|343:93,1,72.00000000000009,10|0,2:0|2:0,2:0:0:0:
465,132,19170,5,0,1:2:0:0:
365,243,19317,2,0,P|461:259|519:341,1,180.00000000000017,10|0,2:0|2:0,2:0:0:0:
501,339,19761,5,10,2:0:0:0:
322,375,20056,2,0,P|315:339|299:307,2,72.00000000000009,2|2|2,2:0|1:2|2:0,2:0:0:0:
355,241,20500,1,2,1:2:0:0:
238,211,20647,2,0,P|219:256|216:299,1,72.00000000000009,10|0,2:0|2:0,2:0:0:0:
92,246,20943,2,0,P|121:284|157:309,1,72.00000000000009,2|0,1:2|2:0,2:0:0:0:
312,377,21238,5,10,2:0:0:0:
481,126,21533,6,0,P|442:137|410:157,2,72.00000000000009,2|2|2,2:0|1:2|2:0,2:0:0:0:
326,76,21976,1,2,1:2:0:0:
248,192,22124,1,10,2:0:0:0:
248,192,22198,1,0,2:0:0:0:
248,192,22272,1,2,2:0:0:0:
201,68,22420,2,0,P|214:32|223:-8,1,72.00000000000009,2|0,1:2|1:2,2:0:0:0:
61,83,22715,2,0,P|81:131|131:148,1,108.00000000000011,2|0,2:0|2:0,2:0:0:0:
155,130,23011,5,10,2:0:0:0:
322,189,23306,5,2,2:0:0:0:
245,268,23454,2,0,P|237:232|216:179,1,72.00000000000009,2|0,1:2|2:0,2:0:0:0:
323,275,23750,5,2,2:0:0:0:
379,106,23898,1,10,2:0:0:0:
453,326,24193,5,2,1:2:0:0:
508,247,24341,1,2,2:0:0:0:
429,179,24489,2,0,P|396:194|356:204,1,72.00000000000009,2|2,1:2|1:2,2:0:0:0:
209,76,24784,1,10,2:0:0:0:
0,384,25228,5,2,1:2:0:0:
47,302,25375,1,2,2:0:0:0:
143,260,25523,1,2,1:2:0:0:
234,329,25671,6,0,P|286:278|260:195,1,144.00000000000017,10|0,2:0|1:2,2:0:0:0:
429,130,26114,6,0,P|353:145|282:73,1,180.00000000000017,10|0,2:0|2:0,2:0:0:0:
290,64,26558,5,2,2:0:0:0:
147,123,27149,1,2,2:0:0:0:
39,77,27444,2,0,P|63:126|95:228,1,143.99999999999972,2|2,2:0|2:0,2:0:0:0:
22,293,28036,1,2,2:0:0:0:
194,384,28331,6,0,P|218:347|321:314,1,143.99999999999972,2|2,2:0|2:0,2:0:0:0:
385,384,28922,2,0,P|390:361|401:333,1,47.99999999999991,2|0,2:0|2:0,2:0:0:0:
338,237,29218,1,2,2:0:0:0:
512,96,29809,6,0,P|487:128|459:138,1,71.99999999999986,2|0,2:0|2:0,2:0:0:0:
446,131,30104,1,2,2:0:0:0:
351,67,30400,1,2,2:0:0:0:
282,148,30696,1,2,2:0:0:0:
136,112,30991,1,2,2:0:0:0:
7,275,31435,5,2,2:0:0:0:
64,208,31582,2,0,P|84:218|99:247,1,47.99999999999991,2|2,2:0|2:0,2:0:0:0:
182,357,31878,2,0,P|213:319|262:304,1,95.99999999999982,2|2,2:0|2:0,2:0:0:0:
388,126,32469,2,0,P|367:149|342:159,1,47.99999999999991,2|0,2:0|2:0,2:0:0:0:
237,68,32765,6,0,B|255:54|255:54|316:76,1,71.99999999999986,2|0,2:0|2:0,2:0:0:0:
307,83,33060,1,2,2:0:0:0:
243,147,33208,1,2,2:0:0:0:
262,225,33356,2,0,P|293:232|314:254,1,47.99999999999991,2|2,2:0|2:0,2:0:0:0:
438,290,33651,6,0,B|361:313|345:263|358:258|338:202|262:226,1,207.9999999999998,2|2,2:0|2:0,2:0:0:0:
176,174,34390,1,2,2:0:0:0:
216,314,34538,2,0,P|165:290|110:280,1,111.99999999999989,6|0,2:0|2:0,2:0:0:0:
16,202,34981,1,2,2:0:0:0:
95,148,35129,1,2,2:0:0:0:
0,24,35425,6,0,P|28:70|95:60,1,111.99999999999989,2|0,2:0|2:0,2:0:0:0:
168,8,35868,1,2,2:0:0:0:
231,82,36016,2,0,P|236:54|246:27,1,55.99999999999994,2|0,2:0|2:0,2:0:0:0:
356,0,36311,1,6,2:0:0:0:
512,196,36607,6,0,P|483:207|456:227,1,55.99999999999994,2|0,2:0|2:0,2:0:0:0:
398,321,36903,1,2,2:0:0:0:
278,365,37198,1,2,2:0:0:0:
302,174,37494,6,0,P|347:194|354:248,1,96,2|0,2:1|2:0,2:0:0:0:
350,247,37789,1,2,2:0:0:0:
278,365,38085,2,0,P|271:333|259:304,1,64,6|0,2:0|2:0,2:0:0:0:
157,234,38380,5,2,2:1:0:0:
80,274,38528,1,2,2:0:0:0:
138,348,38676,2,0,P|153:304|184:247,1,96,2|0,2:0|2:0,2:0:0:0:
239,218,38971,6,0,B|307:236|323:184|314:179|331:121|409:144,1,192,2|2,2:1|2:0,2:0:0:0:
498,213,39563,5,8,2:0:0:0:
453,83,39710,1,8,2:0:0:0:
490,217,39858,2,0,P|436:231|389:262,1,111.99999999999989,8|0,2:0|2:0,2:0:0:0:
302,321,40302,1,8,2:0:0:0:
239,217,40597,5,8,2:0:0:0:
303,328,40745,2,0,P|277:312|248:307,1,60,0|0,1:2|2:0,2:0:0:0:
175,337,41040,6,0,B|162:323|162:323|182:260,1,64,2|0,2:1|2:0,2:0:0:0:
313,231,41336,1,2,2:0:0:0:
125,158,41632,6,0,P|144:191|183:202,1,64,8|0,2:0|2:0,2:0:0:0:
267,102,41927,2,0,P|235:108|207:123,1,64,2|0,2:1|2:0,2:0:0:0:
119,60,42223,1,2,2:0:0:0:
239,217,42518,1,0,1:2:0:0:
427,279,42814,5,2,2:1:0:0:
468,201,42962,1,10,2:0:0:0:
365,146,43109,2,0,P|380:183|389:219,1,64,2|0,2:0|2:0,2:0:0:0:
505,274,43405,1,10,2:0:0:0:
315,384,43701,6,0,P|280:366|230:359,1,64,2|0,2:1|2:0,2:0:0:0:
187,275,43996,1,2,2:0:0:0:
263,103,44292,5,2,1:2:0:0:
105,217,44587,2,0,B|178:222|142:157|215:163,1,128,2|2,2:1|2:1,2:0:0:0:
276,206,45031,1,0,1:2:0:0:
187,87,45178,1,10,2:0:0:0:
187,87,45474,5,2,2:1:0:0:
239,31,45622,1,2,2:0:0:0:
318,71,45770,1,2,2:1:0:0:
347,163,45917,1,2,1:2:0:0:
453,105,46065,6,0,P|437:134|432:166,1,64,0|0,1:2|2:0,2:0:0:0:
501,277,46361,1,2,2:1:0:0:
347,163,46508,2,0,P|361:223|436:251,1,128,8|0,2:0|2:0,2:0:0:0:
505,73,46952,6,0,P|480:99|429:100,1,64,10|0,2:0|2:0,2:0:0:0:
335,0,47247,2,0,P|365:16|401:26,1,64,2|0,2:1|2:0,2:0:0:0:
347,163,47543,2,0,P|326:139|296:129,1,64,2|0,2:1|2:0,2:0:0:0:
177,218,47838,1,2,1:2:0:0:
0,25,48134,6,0,P|23:54|36:93,1,64,2|0,2:1|2:0,2:0:0:0:
154,98,48430,2,0,P|140:132|113:163,1,64,2|0,2:1|2:0,2:0:0:0:
0,244,48725,1,10,2:0:0:0:
152,376,49021,6,0,P|181:358|219:352,1,64,2|0,2:1|1:2,2:0:0:0:
276,269,49316,1,2,2:1:0:0:
276,269,49464,1,0,1:2:0:0:
389,338,49612,1,2,1:2:0:0:
512,144,49907,6,0,P|463:181|385:209,1,128,2|2,2:1|2:1,2:0:0:0:
292,133,50351,1,2,1:2:0:0:
362,293,50499,1,10,2:0:0:0:
123,248,50794,5,2,2:1:0:0:
123,248,50868,1,2,2:0:0:0:
123,248,50942,1,2,2:0:0:0:
195,303,51090,2,0,P|205:255|226:207,1,96,2|0,2:1|2:0,2:0:0:0:
223,198,51385,5,10,2:0:0:0:
86,153,51533,2,0,B|146:135|103:95|195:64,1,128,0|0,1:2|1:2,2:0:0:0:
295,142,51976,1,2,1:2:0:0:
420,40,52124,5,0,1:2:0:0:
420,40,52198,1,0,1:2:0:0:
420,40,52272,2,0,P|415:75|389:99,1,64,10|0,2:0|2:0,2:0:0:0:
223,198,52568,2,0,P|255:185|289:195,1,64,2|0,1:2|1:2,2:0:0:0:
418,288,52863,2,0,P|404:257|390:205,1,64,10|0,2:0|2:0,2:0:0:0:
336,0,53159,5,14,2:0:0:0:
336,0,53454,5,2,2:0:0:0:
238,46,53602,1,2,2:0:0:0:
266,141,53750,1,2,2:0:0:0:
383,182,53898,1,2,1:2:0:0:
295,287,54045,2,0,P|287:255|275:226,1,64,10|0,2:0|2:0,2:0:0:0:
384,384,54341,6,0,P|415:367|432:336,1,72.00000000000009,14|0,2:0|1:2,2:0:0:0:
464,120,54637,2,0,P|495:136|512:167,1,72.00000000000009,14|0,2:0|2:0,2:0:0:0:
295,287,54932,6,0,P|219:251|134:228,1,168.00000000000009,14|2,2:0|1:2,2:0:0:0:
224,105,55375,1,8,2:0:0:0:
99,19,55523,2,0,P|123:65|131:120,1,84.00000000000004,2|0,2:0|2:0,2:0:0:0:
327,149,55819,2,0,P|282:159|248:184,1,84.00000000000004,10|0,1:2|2:0,2:0:0:0:
115,304,56114,5,10,2:0:0:0:
51,168,56262,1,2,1:2:0:0:
119,311,56410,2,0,P|132:262|151:214,1,84.00000000000004,10|0,2:0|2:0,2:0:0:0:
18,361,56705,6,0,B|-1:382|-1:382|24:366|61:353,1,80.00000000000001,10|0,2:0|1:2,2:0:0:0:
191,148,57149,2,0,P|290:158|343:267,1,208.00000000000009,10|0,2:0|1:2,2:0:0:0:
449,102,57592,6,0,B|467:86|494:78|494:78|435:86,1,84.00000000000004,10|0,2:0|2:0,2:0:0:0:
343,244,57888,2,0,P|305:223|253:210,1,84.00000000000004,2|2,2:0|1:2,2:0:0:0:
258,221,58109,1,0,2:0:0:0:
258,221,58183,1,10,2:0:0:0:
354,149,58331,1,2,1:2:0:0:
475,322,58479,6,0,P|384:333|309:384,1,184.0000000000001,10|0,2:0|1:2,2:0:0:0:
89,233,58922,2,0,P|113:319|206:333,1,184.0000000000001,10|0,2:0|1:2,2:0:0:0:
263,176,59292,5,0,2:0:0:0:
263,176,59366,2,0,P|401:136|502:313,1,336.0000000000001,10|8,2:0|2:0,2:0:0:0:
365,384,59957,5,0,1:2:0:0:
324,299,60104,1,0,1:2:0:0:
419,188,60252,1,10,2:0:0:0:
215,377,60548,5,2,2:0:0:0:
72,328,60696,1,2,1:2:0:0:
207,384,60843,2,0,P|196:333|182:295,1,84.00000000000004,10|0,2:0|2:0,2:0:0:0:
294,179,61139,2,0,B|287:195|287:195|236:210,1,60,10|0,2:0|2:0,2:0:0:0:
220,196,61435,5,10,2:0:0:0:
172,75,61582,1,0,1:2:0:0:
100,148,61730,2,0,P|61:132|19:124,1,84.00000000000004,10|0,2:0|2:0,2:0:0:0:
285,12,62026,6,0,P|366:52|371:133,1,168.00000000000009,10|0,2:0|1:2,2:0:0:0:
258,317,62469,2,0,P|334:273|429:262,1,168.00000000000009,10|0,2:0|1:2,2:0:0:0:
497,384,62912,2,0,P|519:349|512:309,1,84.00000000000004,10|0,2:0|2:0,2:0:0:0:
389,182,63208,2,0,P|408:233|415:294,2,84.00000000000004,2|10|2,2:0|2:0|1:2,2:0:0:0:
341,327,63651,1,2,2:0:0:0:
183,218,63799,2,0,P|209:274|269:287,1,126.00000000000007,10|0,2:0|2:0,2:0:0:0:
279,275,64095,6,0,P|288:226|300:185,1,84.00000000000004,2|0,2:0|1:2,2:0:0:0:
341,107,64316,1,0,2:0:0:0:
341,107,64390,2,0,P|382:87|396:42,1,84.00000000000004,2|0,2:0|1:2,2:0:0:0:
196,0,64686,6,0,P|211:26|223:64,1,60,10|0,2:0|2:0,2:0:0:0:
200,75,64981,1,10,2:0:0:0:
121,50,65129,1,0,1:2:0:0:
61,129,65277,1,10,2:0:0:0:
126,222,65425,1,2,1:2:0:0:
43,346,65572,6,0,P|81:322|143:310,1,84.00000000000004,10|0,2:0|2:0,2:0:0:0:
209,183,65868,1,2,1:2:0:0:
349,253,66016,1,8,2:0:0:0:
349,253,66090,1,0,2:0:0:0:
349,253,66164,2,0,P|330:300|318:351,1,84.00000000000004,2|0,2:0|1:2,2:0:0:0:
503,252,66459,6,0,P|482:358|384:382,1,208.00000000000009,10|0,2:0|1:2,2:0:0:0:
221,295,66903,1,2,1:2:0:0:
321,332,67050,2,0,P|329:309|319:275,1,60,10|0,2:0|2:0,2:0:0:0:
241,379,67346,6,0,P|142:367|107:274,1,208.00000000000009,10|2,2:0|1:2,2:0:0:0:
206,151,67789,1,2,1:2:0:0:
115,262,67937,1,2,2:0:0:0:
43,198,68085,1,2,1:2:0:0:
221,295,68233,6,0,P|239:248|287:232,1,104.00000000000004,10|0,2:0|2:0,2:0:0:0:
339,82,68528,6,0,P|356:105|383:113,2,56.000000000000014,10|2|2,2:0|2:0|2:0,2:0:0:0:
405,198,68824,6,0,P|434:194|454:175,2,56.00000000000003,10|2|2,2:0|2:0|2:0,2:0:0:0:
477,69,69119,5,14,2:0:0:0:
309,0,69267,1,0,2:0:0:0:
309,0,69341,1,0,2:0:0:0:
309,0,69415,2,0,P|325:46|331:98,1,88,2|8,1:2|2:0,2:0:0:0:
148,149,69710,2,0,P|195:158|243:178,1,88,2|0,2:0|1:2,2:0:0:0:
156,53,69932,5,0,2:0:0:0:
156,53,70006,2,0,P|105:155|5:175,1,208.00000000000009,10|0,2:0|1:2,2:0:0:0:
170,285,70449,1,10,2:0:0:0:
63,384,70597,2,0,P|57:332|34:285,1,104.00000000000004,2|0,1:2|2:0,2:0:0:0:
268,313,70893,5,10,2:0:0:0:
378,154,71188,6,0,P|385:178|380:203,1,52.00000000000002,2|0,1:2|2:0,2:0:0:0:
269,323,71336,2,0,P|343:253|444:251,1,208.00000000000009,10|2,2:0|1:2,2:0:0:0:
512,84,71779,6,0,P|488:130|447:142,1,88,10|0,2:0|1:2,2:0:0:0:
271,64,72075,5,10,2:0:0:0:
338,31,72223,1,0,1:2:0:0:
252,170,72371,5,10,2:0:0:0:
194,122,72518,1,0,2:0:0:0:
0,131,72666,6,0,P|44:41|144:29,1,208.00000000000003,10|0,2:0|1:2,2:0:0:0:
186,233,73109,1,10,2:0:0:0:
186,233,73183,1,0,2:0:0:0:
186,233,73257,2,0,P|212:206|205:144,1,88,2|0,2:0|1:2,2:0:0:0:
460,296,73553,6,0,P|366:156|196:166,1,336.0000000000001,10|10,2:0|2:0,2:0:0:0:
290,269,74144,1,0,1:2:0:0:
186,233,74292,1,2,2:0:0:0:
95,332,74439,1,8,2:0:0:0:
143,2,74735,6,0,P|162:43|175:96,1,88,2|8,2:0|2:0,2:0:0:0:
273,116,74957,1,0,2:0:0:0:
273,116,75031,2,0,P|288:77|337:57,1,88,2|8,1:2|2:0,2:0:0:0:
416,293,75326,6,0,P|351:206|231:211,1,208.00000000000009,10|0,2:0|1:2,2:0:0:0:
207,325,75770,1,10,2:0:0:0:
320,373,75917,1,2,2:0:0:0:
320,373,75991,1,2,2:0:0:0:
320,373,76065,1,2,1:2:0:0:
189,234,76213,6,0,P|230:227|257:198,1,84.00000000000004,10|0,2:0|2:0,2:0:0:0:
208,74,76508,2,0,P|233:107|273:115,1,84.00000000000004,2|8,1:2|2:0,2:0:0:0:
362,184,76730,1,0,2:0:0:0:
362,184,76804,2,0,P|393:152|434:143,1,84.00000000000004,2|0,2:0|1:2,2:0:0:0:
512,217,77100,1,10,2:0:0:0:
257,197,77395,5,10,2:0:0:0:
276,114,77543,1,0,1:2:0:0:
129,59,77691,5,2,1:2:0:0:
148,142,77838,1,8,2:0:0:0:
34,217,77986,6,0,P|126:240|191:311,1,168.00000000000009,10|0,2:0|1:2,2:0:0:0:
321,241,78430,1,2,1:2:0:0:
245,384,78577,2,0,P|256:340|278:292,1,84.00000000000004,10|2,2:0|1:2,2:0:0:0:
445,192,78873,6,0,P|437:246|390:275,1,112.00000000000004,10|0,2:0|2:0,2:0:0:0:
255,198,79169,1,10,2:0:0:0:
255,198,79242,1,2,2:0:0:0:
255,198,79316,1,2,1:2:0:0:
363,100,79464,2,0,P|347:138|337:179,1,84.00000000000004,10|0,2:0|2:0,2:0:0:0:
234,37,79760,6,0,P|232:84|274:113,1,88,10|0,2:0|2:0,2:0:0:0:
396,24,80055,1,2,1:2:0:0:
512,123,80203,1,8,2:0:0:0:
512,123,80277,1,0,2:0:0:0:
512,123,80351,2,0,P|458:141|415:166,1,88,2|0,2:0|1:2,2:0:0:0:
308,282,80646,6,0,P|280:242|235:236,1,88,10|0,2:0|2:0,2:0:0:0:
118,366,80942,2,0,P|76:341|27:333,1,88,2|0,1:2|1:2,2:0:0:0:
0,172,81237,1,10,2:0:0:0:
123,218,81385,1,0,1:2:0:0:
1,165,81533,6,0,P|82:137|114:51,1,176,10|0,2:0|1:2,2:0:0:0:
299,109,81976,1,10,2:0:0:0:
299,109,82050,1,0,2:0:0:0:
299,109,82124,2,0,P|275:69|217:59,1,88,2|0,1:2|1:2,2:0:0:0:
123,218,82420,2,0,P|165:197|218:190,1,88,10|0,2:0|1:2,2:0:0:0:
313,298,82715,5,8,2:0:0:0:
341,210,82863,1,8,2:0:0:0:
454,162,83011,2,0,P|430:211|420:254,1,88,10|0,2:0|2:0,2:0:0:0:
303,349,83306,6,0,B|193:369|247:271|135:295,1,176,10|0,2:0|1:2,2:0:0:0:
15,384,83750,1,8,2:0:0:0:
15,384,83824,1,0,2:0:0:0:
15,384,83898,2,0,P|53:350|58:298,1,88,2|0,2:0|1:2,2:0:0:0:
0,188,84193,5,10,2:0:0:0:
76,237,84341,1,2,2:0:0:0:
145,129,84489,5,2,2:0:0:0:
171,251,84637,1,2,1:2:0:0:
324,243,84784,6,0,P|279:264|240:314,1,88,10|0,2:0|2:0,2:0:0:0:
222,67,85080,6,0,P|283:149|414:142,1,208.00000000000009,10|0,2:0|1:2,2:0:0:0:
507,36,85523,1,10,2:0:0:0:
507,36,85597,1,0,2:0:0:0:
507,36,85671,2,0,P|486:79|472:141,1,88,2|0,2:0|1:2,2:0:0:0:
512,257,85967,6,0,P|481:211|434:204,1,88,10|0,2:0|2:0,2:0:0:0:
323,330,86262,1,2,1:2:0:0:
266,257,86410,1,8,2:0:0:0:
154,225,86558,2,0,P|174:279|180:331,1,88,10|0,2:0|2:0,2:0:0:0:
345,232,86853,6,0,P|357:319|289:373,1,184.0000000000001,10|8,2:0|2:0,2:0:0:0:
101,307,87297,1,2,1:2:0:0:
215,283,87444,1,10,2:0:0:0:
143,151,87592,1,10,2:0:0:0:
345,232,87740,6,0,P|257:221|231:136,1,184.00000000000009,10|10,2:0|2:0,2:0:0:0:
338,23,88183,1,2,1:2:0:0:
434,168,88331,1,10,2:0:0:0:
301,110,88479,1,10,2:0:0:0:
140,0,88627,6,0,P|164:50|181:120,1,92.00000000000007,10|0,2:0|1:2,2:0:0:0:
238,249,88922,1,10,2:0:0:0:
264,68,89070,1,10,2:0:0:0:
109,171,89218,1,10,2:0:0:0:
357,244,89366,1,10,2:0:0:0:
357,244,89439,1,0,2:0:0:0:
357,244,89513,1,10,2:0:0:0:
360,251,89809,6,0,B|271:234|255:301|266:303|250:377|148:349,1,238.00000000000088,10|0,2:0|2:0,2:0:0:0:
155,336,90400,1,10,2:0:0:0:
265,73,90696,6,0,P|249:113|241:159,1,72.00000000000009,2|2,2:0|1:2,2:0:0:0:
163,220,90991,1,2,2:0:0:0:
73,141,91139,1,2,1:2:0:0:
2,253,91287,2,0,P|33:234|67:223,1,72.00000000000009,10|0,2:0|2:0,2:0:0:0:
106,68,91582,2,0,P|141:76|173:93,1,72.00000000000009,2|0,1:2|2:0,2:0:0:0:
302,201,91878,5,10,2:0:0:0:
498,58,92173,6,0,P|459:74|429:93,2,72.00000000000007,2|2|2,2:0|1:2|2:0,2:0:0:0:
369,16,92616,1,2,2:0:0:0:
311,130,92764,1,10,2:0:0:0:
311,130,92838,1,2,2:0:0:0:
311,130,92912,1,2,2:0:0:0:
405,254,93060,2,0,P|385:283|353:298,1,72.00000000000007,2|2,1:2|1:2,2:0:0:0:
213,207,93355,2,0,P|173:170|96:183,1,108.00000000000011,2|0,2:0|2:0,2:0:0:0:
102,200,93651,5,10,2:0:0:0:
0,0,93946,6,0,P|18:31|30:73,1,72.00000000000009,2|2,2:0|1:2,2:0:0:0:
102,200,94242,1,2,2:0:0:0:
158,92,94390,1,2,1:2:0:0:
282,161,94538,2,0,P|312:142|349:132,1,72.00000000000009,10|0,2:0|2:0,2:0:0:0:
406,279,94833,2,0,P|414:244|432:211,1,72.00000000000009,2|0,1:2|2:0,2:0:0:0:
512,13,95129,2,0,P|461:25|436:86,1,108.00000000000011,2|0,1:2|2:0,2:0:0:0:
463,91,95424,5,10,2:0:0:0:
304,0,95572,2,0,P|273:17|237:28,1,72.00000000000009,2|0,2:0|1:2,2:0:0:0:
118,170,95868,2,0,P|144:123|204:117,1,108.00000000000011,10|0,2:0|2:0,2:0:0:0:
217,138,96163,5,0,1:2:0:0:
315,277,96311,1,10,2:0:0:0:
315,277,96385,1,0,2:0:0:0:
315,277,96459,2,0,P|357:261|372:218,1,72.00000000000009,0|0,2:0|1:2,2:0:0:0:
196,333,96754,2,0,B|99:347|138:235|26:270,1,180.00000000000017,10|0,2:0|2:0,2:0:0:0:
29,284,97198,5,10,2:0:0:0:
217,138,97493,2,0,P|199:103|185:42,2,72.00000000000009,2|2|2,2:0|1:2|2:0,2:0:0:0:
91,76,97937,1,2,1:2:0:0:
43,192,98084,2,0,P|71:170|105:157,1,72.00000000000009,10|0,2:0|2:0,2:0:0:0:
204,298,98380,2,0,P|198:262|204:226,1,72.00000000000009,2|0,1:2|2:0,2:0:0:0:
359,314,98675,5,10,2:0:0:0:
512,83,98970,6,0,P|473:104|427:113,2,72.00000000000007,2|2|2,2:0|1:2|2:0,2:0:0:0:
432,202,99413,1,2,1:2:0:0:
301,172,99561,1,10,2:0:0:0:
301,172,99635,1,2,2:0:0:0:
301,172,99709,1,2,1:2:0:0:
357,322,99857,2,0,P|379:302|380:247,1,72.00000000000007,2|0,1:2|1:2,2:0:0:0:
207,183,100152,2,0,P|228:242|268:257,1,108.0000000000001,2|0,2:0|2:0,2:0:0:0:
286,242,100448,5,10,2:0:0:0:
364,47,100743,5,2,2:0:0:0:
248,106,100891,2,0,P|216:89|178:81,1,72.00000000000007,2|0,1:2|2:0,2:0:0:0:
72,0,101187,5,2,2:0:0:0:
109,164,101335,1,10,2:0:0:0:
0,376,101630,5,2,1:2:0:0:
70,288,101778,1,2,2:0:0:0:
162,360,101926,2,0,P|192:340|228:328,1,72.00000000000007,2|2,1:2|1:2,2:0:0:0:
294,182,102221,5,10,2:0:0:0:
512,384,102665,5,2,1:2:0:0:
465,288,102812,1,2,2:0:0:0:
364,248,102960,1,2,1:2:0:0:
297,341,103108,6,0,P|245:290|271:207,1,144.00000000000017,10|0,2:0|1:2,2:0:0:0:
397,149,103551,6,0,P|481:128|512:47,1,180.00000000000017,10|0,2:0|2:0,2:0:0:0:
503,32,103995,5,2,2:0:0:0:
371,248,104290,2,0,P|355:234|319:224,1,47.99999999999991,2|2,2:0|2:0,2:0:0:0:
225,286,104586,1,2,2:0:0:0:
162,228,104734,1,2,2:0:0:0:
223,153,104881,2,0,P|217:129|207:107,1,47.99999999999991,2|0,2:0|2:0,2:0:0:0:
98,83,105177,1,2,2:0:0:0:
311,7,105472,5,2,2:0:0:0:
465,196,105767,6,0,P|472:173|489:148,2,47.99999999999991,2|2|2,2:0|2:0|2:0,2:0:0:0:
365,113,106210,1,2,2:0:0:0:
400,255,106358,2,0,P|396:245|385:235,2,23.999999999999954,2|2|2,2:0|2:0|2:0,2:0:0:0:
282,215,106654,1,2,2:0:0:0:
230,284,106802,1,2,2:0:0:0:
263,352,106949,1,2,2:0:0:0:
163,331,107097,1,0,2:0:0:0:
310,288,107245,5,2,2:0:0:0:
209,105,107540,6,0,P|187:115|164:122,1,47.99999999999991,2|2,2:0|2:0,2:0:0:0:
69,186,107836,1,2,2:0:0:0:
11,114,107984,1,2,2:0:0:0:
72,51,108132,2,0,P|81:86|96:112,1,47.99999999999991,2|0,2:0|2:0,2:0:0:0:
210,116,108427,2,0,P|184:141|169:167,1,47.99999999999991,2|0,2:0|2:0,2:0:0:0:
270,230,108723,2,0,P|309:206|352:200,1,71.99999999999986,2|0,2:0|2:0,2:0:0:0:
341,186,109018,5,2,2:0:0:0:
289,83,109166,1,2,2:0:0:0:
125,246,109462,6,0,P|171:255|212:280,1,95.99999999999982,2|2,2:0|2:0,2:0:0:0:
316,363,109905,5,2,2:0:0:0:
290,291,110053,1,2,2:0:0:0:
385,338,110201,1,2,2:0:0:0:
246,383,110348,5,2,2:0:0:0:
318,193,110644,5,2,2:0:0:0:
482,46,110939,5,2,2:0:0:0:
446,184,111087,1,2,2:0:0:0:
206,79,111382,6,0,P|236:89|259:104,1,47.99999999999991,2|2,2:0|2:0,2:0:0:0:
318,193,111678,1,2,2:0:0:0:
378,128,111825,1,2,2:0:0:0:
449,190,111973,2,0,P|426:197|404:208,1,47.99999999999991,2|0,2:0|2:0,2:0:0:0:
347,316,112269,1,2,2:0:0:0:
212,250,112564,1,2,2:0:0:0:
33,384,112860,5,2,2:0:0:0:
78,121,113155,6,0,P|92:150|97:171,2,47.99999999999991,2|2|2,2:0|2:0|2:0,2:0:0:0:
179,185,113599,1,2,2:0:0:0:
57,244,113747,1,2,2:0:0:0:
292,366,114042,5,2,2:0:0:0:
268,283,114190,1,2,2:0:0:0:
401,224,114338,5,2,2:0:0:0:
373,340,114486,1,2,2:0:0:0:
486,383,114633,6,0,B|503:372|503:372|481:291,1,95.9999999999998,2|2,2:0|2:0,2:0:0:0:
259,195,115537,6,0,P|211:176|194:134,2,95.99999999999982,2|2|2,2:0|2:0|2:0,2:0:0:0:
314,17,116423,1,2,2:0:0:0:
77,177,116873,5,2,2:0:0:0:
121,260,117023,2,0,P|146:244|172:239,1,48.3199985351563,2|2,2:0|2:0,2:0:0:0:
289,329,117339,5,2,2:0:0:0:
347,214,117654,5,2,2:0:0:0:
489,144,118006,5,2,2:0:0:0:
314,17,118506,6,0,P|310:13|300:9,2,13.333333333333334,2|0|2,2:0|2:0|2:0,2:0:0:0:
256,192,118669,12,0,123071,2:0:0:0:
