osu file format v14

[General]
AudioFilename: audio.mp3
AudioLeadIn: 0
PreviewTime: 53380
Countdown: 0
SampleSet: Soft
StackLeniency: 0.5
Mode: 0
LetterboxInBreaks: 0
WidescreenStoryboard: 1

[Editor]
Bookmarks: 54937,90405,104000
DistanceSpacing: 1
BeatDivisor: 4
GridSize: 32
TimelineZoom: 1.8

[Metadata]
Title:Ikazuchi
TitleUnicode:雷
Artist:Miyo Takashiro
ArtistUnicode:高城みよ
Creator:Arushii09
Version:Fulmination
Source:DEEMO II
Tags:artcore ambient orchestral piano folk japanese vocal videogame video game Rayark Inc. DEEMO2 female vocalist vgm kennethbbg aurorance iredi syndicate_ nilou -_nilou_-
BeatmapID:4007369
BeatmapSetID:1938528

[Difficulty]
HPDrainRate:6
CircleSize:4.2
OverallDifficulty:9
ApproachRate:9.5
SliderMultiplier:1.8
SliderTickRate:1

[Events]
//Background and Video events
0,0,"bg.jpg",0,0
//Break Periods
//Storyboard Layer 0 (Background)
//Storyboard Layer 1 (Fail)
//Storyboard Layer 2 (Pass)
//Storyboard Layer 3 (Foreground)
//Storyboard Layer 4 (Overlay)
//Storyboard Sound Samples

[TimingPoints]
2029,295.566502463054,3,2,1,40,1,0
2029,-166.666666666667,3,2,1,40,0,0
12964,295.566502463054,5,2,1,60,1,0
14441,295.566502463054,3,2,1,60,1,0
21238,295.566502463054,3,2,1,60,1,0
26483,-100,3,2,1,5,0,0
26558,-166.666666666667,3,2,2,40,0,0
30030,-166.666666666667,3,2,2,5,0,0
30104,-166.666666666667,3,2,2,40,0,0
32765,-125,3,2,2,40,0,0
33356,-166.666666666667,3,2,2,40,0,0
34538,-142.857142857143,3,2,2,40,0,0
37494,-100,3,2,2,40,0,0
38085,-142.857142857143,3,2,2,40,0,0
38971,-125,3,2,2,40,0,0
40745,-200,3,2,2,40,0,0
41040,-125,3,2,2,45,0,0
51385,-125,3,2,2,55,0,0
51533,-111.111111111111,3,2,2,55,0,0
52863,-100,3,2,2,55,0,0
54637,-71.4285714285714,3,2,2,55,0,0
54932,-90.9090909090909,3,2,1,70,0,1
56410,-125,3,2,1,70,0,1
56705,-200,3,2,1,70,0,1
57149,-66.6666666666667,3,2,1,70,0,1
57592,-90.9090909090909,3,2,1,70,0,1
59366,-58.8235294117647,3,2,1,70,0,1
60843,-90.9090909090909,3,2,1,70,0,1
61139,-200,3,2,1,70,0,1
61730,-125,3,2,1,70,0,1
62026,-90.9090909090909,3,2,1,70,0,1
64095,-111.111111111111,3,2,1,70,0,1
64686,-333.333333333333,3,2,1,70,0,1
65572,-90.9090909090909,3,2,1,70,0,1
66459,-66.6666666666667,3,2,1,70,0,1
67050,-200,3,2,1,70,0,1
67346,-66.6666666666667,3,2,1,70,0,1
68233,-90.9090909090909,3,2,1,70,0,1
69119,-83.3333333333333,3,2,1,75,0,1
70006,-62.5,3,2,1,75,0,1
70449,-83.3333333333333,3,2,1,75,0,1
70893,-200,3,2,1,75,0,1
71188,-66.6666666666667,3,2,1,75,0,1
71779,-83.3333333333333,3,2,1,75,0,1
72666,-66.6666666666667,3,2,1,75,0,1
73405,-83.3333333333333,3,2,1,75,0,1
73553,-58.8235294117647,3,2,1,75,0,1
74439,-83.3333333333333,3,2,1,75,0,1
76213,-90.9090909090909,3,2,1,75,0,1
77100,-125,3,2,1,75,0,1
77838,-90.9090909090909,3,2,1,75,0,1
77986,-71.4285714285714,3,2,1,75,0,1
78873,-66.6666666666667,3,2,1,75,0,1
79760,-90.9090909090909,3,2,1,75,0,1
81533,-71.4285714285714,3,2,1,75,0,1
82420,-90.9090909090909,3,2,1,75,0,1
83306,-83.3333333333333,3,2,1,75,0,1
85080,-66.6666666666667,3,2,1,75,0,1
85671,-90.9090909090909,3,2,1,75,0,1
86558,-200,3,2,1,75,0,1
86853,-90.9090909090909,3,2,1,75,0,1
87740,-83.3333333333333,3,2,1,75,0,1
89513,-200,3,2,1,75,0,1
89809,-90.9090909090909,3,2,1,75,0,1
90400,-100,3,2,1,60,0,0
91878,295.566502463054,3,2,1,60,1,0
96902,-83.3333333333333,3,2,1,60,0,0
97198,-100,3,2,1,60,0,0
98675,295.566502463054,3,2,1,60,1,0
103995,-100,3,2,1,40,0,0
104290,-166.666666666667,3,2,1,40,0,0
105472,295.566502463054,3,2,1,40,1,0
105472,-166.666666666667,3,2,1,40,0,0
111087,295.566502463054,3,2,1,40,1,0
111382,-166.666666666667,3,2,1,40,0,0
114633,301.507537688442,3,2,1,40,1,0
114633,-166.666666666667,3,2,1,40,0,0
115537,295.566502463054,3,2,1,40,1,0
115537,-166.666666666667,3,2,1,40,0,0
116423,300,3,2,1,40,1,0
116423,-166.666666666667,3,2,1,40,0,0
117173,333.333333333333,3,2,1,40,1,0
117339,315.78947368421,3,2,1,40,1,0
117654,352.941176470588,3,2,1,40,1,0
118006,333.333333333333,3,2,1,35,1,0
118506,326.086956521739,3,2,1,30,1,0
118506,-200,3,2,1,30,0,0
123071,-200,3,2,1,5,0,0

[Colours]
Combo1 : 151,133,241
Combo2 : 115,32,253
Combo3 : 74,78,210
Combo4 : 164,100,240

[HitObjects]
111,356,2029,6,0,P|103:326|67:302,1,53.9999999999999,2|0,2:0|2:0,2:0:0:0:
0,376,2324,1,2,2:0:0:0:
72,226,2472,2,0,P|20:252|6:310,1,108,2|2,2:0|2:0,2:0:0:0:
176,383,2915,2,0,P|226:352|288:336,1,108,2|2,2:0|2:0,2:0:0:0:
354,254,3359,2,0,P|379:279|413:285,2,53.9999999999999,2|0|2,2:0|2:0|2:0,2:0:0:0:
346,150,3802,5,2,2:0:0:0:
283,186,3950,1,0,2:0:0:0:
227,105,4097,5,2,2:0:0:0:
150,52,4245,1,2,2:0:0:0:
76,161,4393,2,0,P|101:198|114:237,1,80.9999999999998,2|0,2:0|2:0,2:0:0:0:
123,245,4689,6,0,P|156:197|208:191,1,108,2|2,2:0|2:0,2:0:0:0:
164,333,5132,2,0,P|190:339|213:352,2,53.9999999999999,2|0|2,2:0|2:0|2:0,2:0:0:0:
284,253,5575,6,0,P|308:242|330:227,1,53.9999999999999,2|0,2:0|2:0,2:0:0:0:
461,314,5871,1,2,2:0:0:0:
424,248,6019,1,2,2:0:0:0:
402,154,6166,1,2,2:0:0:0:
485,94,6314,1,2,2:0:0:0:
315,142,6462,6,0,P|261:117|202:105,1,108,2|2,2:0|2:0,2:0:0:0:
288,10,6905,1,2,2:0:0:0:
380,84,7053,2,0,P|387:58|399:33,1,53.9999999999999,0|2,2:0|2:0,2:0:0:0:
205,107,7349,6,0,P|181:93|171:69,1,53.9999999999999,2|0,2:0|2:0,2:0:0:0:
324,144,7644,1,2,2:0:0:0:
265,203,7792,1,2,2:0:0:0:
281,320,7940,1,2,2:0:0:0:
192,234,8088,1,2,2:0:0:0:
69,189,8235,2,0,P|102:244|118:300,1,108,2|2,2:0|2:0,2:0:0:0:
177,138,8679,5,2,2:0:0:0:
275,96,8827,1,2,2:0:0:0:
192,234,8974,1,2,2:0:0:0:
342,281,9122,1,2,2:0:0:0:
342,281,10009,5,2,2:0:0:0:
509,227,10157,1,2,2:0:0:0:
376,38,10988,5,2,2:0:0:0:
446,332,11136,1,2,2:0:0:0:
256,192,11782,12,0,12817,2:0:0:0:
56,365,12964,6,0,P|126:310|230:279,1,180,10|2,2:0|2:0,2:0:0:0:
104,216,13407,1,2,1:2:0:0:
225,279,13555,1,2,2:0:0:0:
294,129,13702,1,2,1:2:0:0:
444,77,13850,2,0,P|416:117|404:162,1,90,10|0,2:0|2:0,2:0:0:0:
212,193,14146,2,0,P|232:237|265:270,1,90,2|0,1:2|2:0,2:0:0:0:
512,384,14441,6,0,P|447:333|354:305,1,180,10|2,2:0|2:0,2:0:0:0:
454,233,14884,1,2,1:2:0:0:
341,308,15032,1,2,2:0:0:0:
270,172,15179,1,2,2:0:0:0:
128,95,15327,1,10,2:0:0:0:
128,95,15401,1,2,2:0:0:0:
128,95,15475,1,2,2:0:0:0:
315,114,15623,5,2,1:2:0:0:
275,182,15771,1,2,1:2:0:0:
236,24,15918,5,2,2:0:0:0:
278,196,16066,1,2,1:2:0:0:
47,196,16214,6,0,P|131:223|203:310,1,180,10|2,2:0|2:0,2:0:0:0:
278,196,16657,1,2,1:2:0:0:
199,299,16805,1,2,2:0:0:0:
357,213,16953,1,2,1:2:0:0:
442,370,17101,6,0,P|410:338|362:326,1,90,10|0,2:0|2:0,2:0:0:0:
255,157,17396,2,0,P|211:168|179:199,1,90,2|0,1:2|2:0,2:0:0:0:
367,326,17692,2,0,P|381:271|416:188,1,135,2|0,1:2|2:0,2:0:0:0:
358,105,17987,6,0,P|416:88|463:17,1,135,10|0,2:0|2:0,2:0:0:0:
456,19,18283,1,0,1:2:0:0:
410,198,18431,1,10,2:0:0:0:
349,111,18578,1,0,2:0:0:0:
203,64,18726,1,0,1:2:0:0:
418,207,18874,6,0,P|368:221|291:277,1,135,10|0,2:0|2:0,2:0:0:0:
234,240,19170,1,0,1:2:0:0:
468,108,19317,6,0,P|380:74|308:0,1,180,10|0,2:0|2:0,2:0:0:0:
218,105,19687,5,0,2:0:0:0:
215,117,19761,2,0,P|136:129|36:200,1,180,10|2,2:0|2:0,2:0:0:0:
0,73,20204,1,2,1:2:0:0:
39,187,20352,1,2,2:0:0:0:
179,246,20500,1,2,1:2:0:0:
28,378,20647,6,0,P|66:350|115:339,1,90,10|0,2:0|2:0,2:0:0:0:
200,163,20943,2,0,P|243:181|277:218,1,90,2|0,1:2|2:0,2:0:0:0:
474,14,21238,6,0,P|400:38|389:157,1,180,10|2,2:0|2:0,2:0:0:0:
512,227,21681,1,2,1:2:0:0:
411,268,21829,1,2,2:0:0:0:
332,374,21976,1,2,1:2:0:0:
283,188,22124,5,10,2:0:0:0:
283,188,22198,1,0,2:0:0:0:
283,188,22272,1,2,2:0:0:0:
404,341,22420,5,2,1:2:0:0:
276,312,22568,1,0,1:2:0:0:
360,215,22715,5,2,2:0:0:0:
332,374,22863,1,0,1:2:0:0:
112,276,23011,6,0,P|159:265|200:252,2,90,10|0|2,2:0|1:2|2:0,2:0:0:0:
275,321,23454,1,2,1:2:0:0:
272,329,23750,5,2,2:0:0:0:
358,140,23898,2,0,P|404:154|445:160,1,90,10|0,2:0|2:0,2:0:0:0:
303,257,24193,5,2,1:2:0:0:
226,108,24341,1,2,2:0:0:0:
108,177,24489,1,2,1:2:0:0:
200,232,24637,1,2,1:2:0:0:
34,384,24784,6,0,P|87:323|205:316,1,180,10|0,2:0|2:0,2:0:0:0:
301,363,25228,1,2,1:2:0:0:
312,217,25375,5,2,2:0:0:0:
383,94,25523,1,2,1:2:0:0:
512,215,25671,2,0,P|481:256|419:260,1,90,10|0,2:0|2:0,2:0:0:0:
305,319,25967,1,0,1:2:0:0:
246,73,26114,6,0,B|225:161|291:177|296:159|366:174|350:272,1,225,10|0,2:0|2:0,2:0:0:0:
305,319,26558,6,0,P|250:329|220:386,1,108,2|0,2:0|2:0,2:0:0:0:
230,384,27001,1,0,2:0:0:0:
113,298,27149,2,0,P|129:322|152:330,1,53.9999999999999,2|0,2:0|2:0,2:0:0:0:
225,183,27444,2,0,P|163:205|94:221,1,135,2|0,2:0|2:0,2:0:0:0:
87,230,27888,1,2,2:0:0:0:
146,117,28036,2,0,P|119:110|94:99,1,53.9999999999999,2|0,2:0|2:0,2:0:0:0:
200,5,28331,6,0,P|215:56|243:102,1,108,2|2,2:0|2:0,2:0:0:0:
341,157,28774,1,2,2:0:0:0:
290,226,28922,2,0,P|309:201|352:189,1,53.9999999999999,2|0,2:0|2:0,2:0:0:0:
467,233,29218,1,2,2:0:0:0:
511,42,29809,6,0,P|460:66|425:76,1,80.9999999999998,2|0,2:0|2:0,2:0:0:0:
423,74,30104,1,2,2:0:0:0:
331,20,30400,1,2,2:0:0:0:
243,102,30696,1,2,2:0:0:0:
89,0,30991,1,2,2:0:0:0:
243,102,31435,5,2,2:0:0:0:
166,138,31582,1,2,2:0:0:0:
113,234,31730,1,2,2:0:0:0:
221,314,31878,2,0,P|267:283|333:267,1,108,2|2,2:0|2:0,2:0:0:0:
384,124,32469,2,0,P|407:137|432:146,1,53.9999999999999,2|0,2:0|2:0,2:0:0:0:
512,328,32765,6,0,P|492:282|435:268,1,108,2|0,2:0|2:0,2:0:0:0:
427,275,33060,1,2,2:0:0:0:
341,334,33208,1,2,2:0:0:0:
411,369,33356,2,0,P|437:373|462:384,1,53.9999999999999,2|2,2:0|2:0,2:0:0:0:
321,248,33651,6,0,P|255:214|260:113,1,162,2|0,2:0|2:0,2:0:0:0:
356,48,34242,1,2,2:0:0:0:
445,16,34390,1,2,2:0:0:0:
504,169,34538,6,0,P|453:133|386:124,1,126,6|0,2:0|2:0,2:0:0:0:
254,47,34981,1,2,2:0:0:0:
314,171,35129,2,0,P|282:183|252:219,1,62.9999999999999,2|0,2:0|2:0,2:0:0:0:
122,323,35425,6,0,P|64:301|39:245,1,126,2|0,2:0|2:0,2:0:0:0:
134,125,35868,1,2,2:0:0:0:
65,155,36016,2,0,P|99:146|133:128,1,62.9999999999999,2|0,2:0|2:0,2:0:0:0:
244,32,36311,6,0,P|230:63|221:106,1,62.9999999999999,6|0,2:0|2:0,2:0:0:0:
349,226,36607,2,0,P|326:198|281:193,1,62.9999999999999,2|0,2:0|2:0,2:0:0:0:
123,133,36903,6,0,P|133:189|170:208,1,94.4999999999999,2|0,2:0|2:0,2:0:0:0:
174,207,37198,1,2,2:0:0:0:
455,221,37494,6,0,P|392:241|367:301,1,135,2|0,2:1|2:0,2:0:0:0:
377,314,37789,1,2,2:0:0:0:
239,268,38085,6,0,P|192:258|173:203,1,94.4999999999999,6|0,2:0|2:0,2:0:0:0:
174,207,38380,1,2,2:1:0:0:
174,207,38528,1,2,2:0:0:0:
285,89,38676,2,0,P|243:118|239:170,1,94.4999999999999,2|0,2:0|2:0,2:0:0:0:
244,176,38971,6,0,P|337:119|449:109,1,216,2|2,2:1|2:0,2:0:0:0:
512,214,39563,1,8,2:0:0:0:
380,60,39710,1,8,2:0:0:0:
463,283,39858,6,0,L|486:97,1,180,8|0,2:0|2:0,2:0:0:0:
400,143,40302,2,0,L|383:265,1,108,8|0,2:0|2:0,2:0:0:0:
312,275,40597,5,8,2:0:0:0:
216,174,40745,2,0,L|281:159,1,67.5,0|0,1:2|2:0,2:0:0:0:
207,163,41040,6,0,L|134:142,1,72,2|0,2:1|2:0,2:0:0:0:
83,84,41336,1,2,2:0:0:0:
173,315,41632,6,0,P|196:285|252:273,1,72,8|0,2:0|2:0,2:0:0:0:
290,158,41927,2,0,P|320:181|332:237,1,72,2|0,2:1|2:0,2:0:0:0:
228,383,42223,2,0,P|197:363|163:351,1,72,2|0,2:0|2:0,2:0:0:0:
117,244,42518,1,0,1:2:0:0:
33,123,42814,5,2,2:1:0:0:
121,251,42962,1,10,2:0:0:0:
252,129,43109,2,0,P|237:95|228:61,1,72,2|0,2:0|2:0,2:0:0:0:
431,169,43405,6,0,P|416:201|384:216,1,72,10|0,2:0|2:0,2:0:0:0:
285,0,43701,2,0,P|317:14|332:46,1,72,2|0,2:1|2:0,2:0:0:0:
281,208,43996,2,0,P|246:217|214:234,1,72,2|0,2:0|2:0,2:0:0:0:
149,61,44292,6,0,P|85:41|43:16,1,108,2|0,1:2|2:0,2:0:0:0:
2,31,44587,2,0,P|2:94|91:125,1,144,2|2,2:1|2:1,2:0:0:0:
234,68,45031,1,0,1:2:0:0:
163,255,45178,6,0,P|216:202|298:219,1,144,10|2,2:0|2:1,2:0:0:0:
410,296,45622,1,2,2:0:0:0:
362,158,45770,1,2,2:1:0:0:
234,68,45917,1,2,1:2:0:0:
362,0,46065,2,0,P|349:35|344:69,1,72,0|0,1:2|2:0,2:0:0:0:
410,296,46361,6,0,P|414:269|424:235,1,36,2|0,2:1|2:0,2:0:0:0:
495,163,46508,2,0,P|426:174|332:219,1,144,8|0,2:0|2:0,2:0:0:0:
301,312,46878,1,0,2:0:0:0:
301,312,46952,2,0,P|268:289|215:283,1,72,10|0,2:0|2:0,2:0:0:0:
174,118,47247,2,0,P|137:135|105:177,1,72,2|0,2:1|2:0,2:0:0:0:
301,312,47543,2,0,P|287:262|278:195,1,108,2|0,2:1|2:0,2:0:0:0:
308,129,47838,2,0,P|340:131|365:170,1,72,2|0,1:2|2:0,2:0:0:0:
197,254,48134,6,0,P|160:240|117:236,1,72,2|0,2:1|2:0,2:0:0:0:
303,321,48430,2,0,P|340:307|383:303,1,72,2|0,2:1|2:0,2:0:0:0:
462,101,48725,2,0,P|397:95|381:178,1,144,10|2,2:0|2:1,2:0:0:0:
491,290,49169,1,0,1:2:0:0:
422,384,49316,2,0,P|412:349|396:317,1,72,2|0,2:1|1:2,2:0:0:0:
229,200,49612,6,0,P|174:214|102:252,1,108,2|0,1:2|2:0,2:0:0:0:
72,287,49907,1,2,2:1:0:0:
116,154,50055,1,2,2:0:0:0:
116,154,50129,1,0,2:0:0:0:
116,154,50203,1,2,2:1:0:0:
236,79,50351,1,2,1:2:0:0:
34,25,50499,2,0,P|67:37|99:56,1,72,10|0,2:0|2:0,2:0:0:0:
198,150,50794,2,0,P|183:171|183:201,1,36,2|2,2:1|2:0,2:0:0:0:
108,205,50942,2,0,P|119:227|145:243,1,36,2|0,2:0|2:0,2:0:0:0:
237,316,51090,6,0,P|277:266|346:270,1,108,2|0,2:1|2:0,2:0:0:0:
382,312,51385,5,10,2:0:0:0:
274,115,51533,2,0,P|350:133|378:236,1,162,0|0,1:2|1:2,2:0:0:0:
237,316,51976,1,2,1:2:0:0:
438,384,52124,5,0,1:2:0:0:
438,384,52198,1,0,1:2:0:0:
438,384,52272,2,0,P|423:338|412:291,1,81.0000000000001,10|0,2:0|2:0,2:0:0:0:
247,247,52568,2,0,P|272:216|302:187,1,81.0000000000001,2|0,1:2|1:2,2:0:0:0:
0,57,52863,6,0,P|23:121|36:186,1,135,10|0,2:0|2:0,2:0:0:0:
102,247,53159,5,14,2:0:0:0:
102,247,53454,5,2,2:0:0:0:
249,134,53602,1,2,2:0:0:0:
417,211,53750,5,2,2:0:0:0:
251,44,53898,1,2,1:2:0:0:
182,326,54045,5,10,2:0:0:0:
240,279,54193,1,0,2:0:0:0:
111,139,54341,6,0,B|53:148|43:86|43:86|75:63|68:26,1,135,14|0,2:0|2:0,2:0:0:0:
187,195,54637,2,0,P|259:183|312:277,1,189,14|0,2:0|2:0,2:0:0:0:
357,382,54932,6,0,P|417:340|407:266,1,148.5,14|0,2:0|2:0,2:0:0:0:
317,291,55228,1,2,1:2:0:0:
137,384,55375,1,8,2:0:0:0:
137,384,55449,1,0,2:0:0:0:
137,384,55523,2,0,P|169:308|251:315,1,148.5,2|0,2:0|2:0,2:0:0:0:
357,382,55819,6,0,P|314:356|325:284,1,99,10|0,1:2|2:0,2:0:0:0:
512,226,56114,1,10,2:0:0:0:
388,162,56262,1,2,1:2:0:0:
506,0,56410,2,0,P|458:24|405:66,1,108,10|0,2:0|2:0,2:0:0:0:
253,53,56705,6,0,P|267:82|297:96,1,67.5,10|0,2:0|2:0,2:0:0:0:
312,87,57001,1,0,1:2:0:0:
512,354,57149,6,0,P|448:250|295:248,1,270,10|0,2:0|1:2,2:0:0:0:
231,384,57518,1,0,2:0:0:0:
231,384,57592,2,0,P|261:343|245:282,1,99,10|0,2:0|2:0,2:0:0:0:
95,312,57888,1,2,2:0:0:0:
157,159,58036,5,2,1:2:0:0:
157,159,58109,1,0,2:0:0:0:
157,159,58183,1,10,2:0:0:0:
224,0,58331,1,2,1:2:0:0:
401,201,58479,6,0,P|354:216|310:239,1,99,10|0,2:0|2:0,2:0:0:0:
222,202,58774,1,0,1:2:0:0:
325,384,58922,2,0,P|364:356|367:308,1,99,10|0,2:0|2:0,2:0:0:0:
10,384,59218,5,0,1:2:0:0:
10,384,59292,1,0,2:0:0:0:
10,384,59366,2,0,P|97:255|320:244,1,382.5,10|0,2:0|2:0,2:0:0:0:
320,217,59809,5,8,2:0:0:0:
217,94,59957,1,0,1:2:0:0:
57,35,60104,1,0,1:2:0:0:
8,292,60252,1,10,2:0:0:0:
272,375,60548,5,2,2:0:0:0:
79,206,60696,1,2,1:2:0:0:
79,206,60770,1,0,2:0:0:0:
79,206,60843,2,0,P|82:260|142:279,1,99,10|0,2:0|2:0,2:0:0:0:
319,130,61139,6,0,P|288:144|252:155,1,67.5,10|0,2:0|2:0,2:0:0:0:
191,238,61435,1,10,2:0:0:0:
272,375,61582,1,0,1:2:0:0:
188,250,61730,2,0,P|253:273|303:312,1,108,10|0,2:0|2:0,2:0:0:0:
399,197,62026,6,0,P|481:164|471:47,1,198,10|0,2:0|1:2,2:0:0:0:
257,166,62395,1,0,2:0:0:0:
257,166,62469,2,0,P|338:174|370:293,1,198,10|0,2:0|1:2,2:0:0:0:
131,118,62912,2,0,P|84:138|71:197,1,99,10|0,2:0|2:0,2:0:0:0:
225,362,63208,5,2,2:0:0:0:
361,274,63356,1,10,2:0:0:0:
405,358,63504,5,2,1:2:0:0:
257,242,63651,1,2,2:0:0:0:
126,379,63799,2,0,P|143:328|150:271,1,99,10|0,2:0|2:0,2:0:0:0:
14,138,64095,6,0,P|35:103|82:92,1,81.0000000000001,2|0,2:0|1:2,2:0:0:0:
86,100,64316,1,0,2:0:0:0:
86,100,64390,1,2,2:0:0:0:
178,138,64538,1,0,1:2:0:0:
346,161,64686,2,0,P|366:153|389:149,1,40.5000000000001,10|0,2:0|2:0,2:0:0:0:
413,137,64981,5,10,2:0:0:0:
329,68,65129,1,0,1:2:0:0:
267,181,65277,1,10,2:0:0:0:
439,242,65425,1,2,1:2:0:0:
495,2,65572,6,0,P|454:23|387:45,1,99,10|0,2:0|2:0,2:0:0:0:
274,189,65868,1,2,1:2:0:0:
122,48,66016,1,8,2:0:0:0:
122,48,66090,1,0,2:0:0:0:
122,48,66164,2,0,P|101:119|33:137,1,148.5,2|0,2:0|2:0,2:0:0:0:
55,264,66459,6,0,P|213:275|358:400,1,337.5,10|0,2:0|2:0,2:0:0:0:
363,384,66903,1,2,1:2:0:0:
235,250,67050,2,0,P|272:234|301:214,1,67.5,10|0,2:0|2:0,2:0:0:0:
426,327,67346,6,0,P|490:303|511:232,1,135,10|0,2:0|2:0,2:0:0:0:
438,56,67641,1,2,1:2:0:0:
313,129,67789,1,2,1:2:0:0:
235,250,67937,1,2,2:0:0:0:
61,65,68085,1,2,1:2:0:0:
61,65,68159,1,0,2:0:0:0:
61,65,68233,2,0,P|84:112|102:166,1,99,10|0,2:0|2:0,2:0:0:0:
27,302,68528,5,10,2:0:0:0:
56,239,68627,1,2,2:0:0:0:
96,241,68725,1,2,2:0:0:0:
111,160,68824,5,10,2:0:0:0:
171,193,68922,1,2,2:0:0:0:
176,214,69021,1,2,2:0:0:0:
233,149,69119,6,0,P|289:130|345:98,1,108,14|0,2:0|2:0,2:0:0:0:
450,177,69415,1,2,1:2:0:0:
512,14,69563,1,8,2:0:0:0:
512,14,69637,1,0,2:0:0:0:
512,14,69710,1,2,2:0:0:0:
331,106,69858,6,0,P|349:135|359:169,1,54,0|0,1:2|2:0,2:0:0:0:
512,369,70006,2,0,P|343:246|237:235,1,288,10|0,2:0|1:2,2:0:0:0:
49,82,70449,6,0,P|63:104|97:118,1,54,10|0,2:0|2:0,2:0:0:0:
183,48,70597,2,0,P|131:70|109:126,1,108,2|0,1:2|2:0,2:0:0:0:
34,253,70819,5,0,2:0:0:0:
34,253,70893,2,0,B|22:239|0:229|0:229|38:243,1,67.5,10|0,2:0|2:0,2:0:0:0:
279,308,71188,6,0,P|255:282|259:243,1,67.5,2|0,1:2|2:0,2:0:0:0:
402,384,71336,2,0,P|471:360|485:294,1,135,10|0,2:0|2:0,2:0:0:0:
512,54,71632,1,2,1:2:0:0:
512,54,71705,1,0,2:0:0:0:
512,54,71779,2,0,P|464:79|402:97,1,108,10|0,2:0|1:2,2:0:0:0:
170,0,72075,5,10,2:0:0:0:
222,202,72223,1,0,1:2:0:0:
222,202,72297,1,0,2:0:0:0:
222,202,72371,1,10,2:0:0:0:
276,380,72518,1,0,2:0:0:0:
130,277,72666,6,0,P|64:293|4:323,1,135,10|0,2:0|2:0,2:0:0:0:
228,205,72962,1,0,1:2:0:0:
97,28,73109,1,10,2:0:0:0:
97,28,73183,1,0,2:0:0:0:
97,28,73257,1,2,2:0:0:0:
307,172,73405,6,0,P|331:153|370:142,1,54,0|0,1:2|2:0,2:0:0:0:
415,376,73553,2,0,P|385:229|243:193,1,306,10|0,2:0|1:2,2:0:0:0:
60,315,73996,5,10,2:0:0:0:
155,384,74144,1,0,1:2:0:0:
317,279,74292,1,2,2:0:0:0:
317,279,74366,1,0,2:0:0:0:
317,279,74439,2,0,P|303:337|232:356,1,108,8|0,2:0|2:0,2:0:0:0:
340,132,74735,6,0,P|369:126|394:114,1,54,2|0,2:0|2:0,2:0:0:0:
456,148,74883,1,8,2:0:0:0:
503,306,75031,1,2,1:2:0:0:
270,165,75178,5,8,2:0:0:0:
270,165,75252,1,0,2:0:0:0:
270,165,75326,1,10,2:0:0:0:
205,240,75474,1,0,2:0:0:0:
109,220,75622,1,0,1:2:0:0:
316,73,75770,5,10,2:0:0:0:
405,124,75917,2,0,P|411:148|424:173,1,54,2|2,2:0|2:0,2:0:0:0:
343,266,76065,2,0,P|315:270|290:279,1,54,2|0,1:2|2:0,2:0:0:0:
188,121,76213,6,0,P|139:98|96:68,1,99,10|0,2:0|2:0,2:0:0:0:
197,6,76508,1,2,1:2:0:0:
115,227,76656,1,8,2:0:0:0:
115,227,76730,1,0,2:0:0:0:
115,227,76804,2,0,P|170:243|195:298,1,99,2|0,2:0|1:2,2:0:0:0:
331,384,77100,6,0,P|338:351|362:312,1,72,10|0,2:0|2:0,2:0:0:0:
261,184,77395,1,10,2:0:0:0:
414,265,77543,1,0,1:2:0:0:
260,192,77691,1,2,1:2:0:0:
428,95,77838,2,0,P|399:109|370:132,1,49.5,8|0,2:0|2:0,2:0:0:0:
260,200,77986,2,0,P|147:188|90:318,1,252,10|0,2:0|1:2,2:0:0:0:
9,99,78430,5,2,1:2:0:0:
170,151,78577,1,10,2:0:0:0:
358,324,78725,1,2,1:2:0:0:
358,324,78799,1,0,2:0:0:0:
358,324,78873,2,0,P|381:238|419:166,1,135,10|0,2:0|2:0,2:0:0:0:
512,46,79169,5,10,2:0:0:0:
495,83,79242,1,2,2:0:0:0:
456,95,79316,1,2,1:2:0:0:
259,0,79464,5,10,2:0:0:0:
288,127,79612,1,0,2:0:0:0:
74,69,79760,2,0,P|149:80|189:149,1,148.5,10|0,2:0|2:0,2:0:0:0:
195,152,80055,5,2,1:2:0:0:
366,242,80203,1,8,2:0:0:0:
366,242,80277,1,0,2:0:0:0:
366,242,80351,1,2,2:0:0:0:
480,364,80499,1,0,1:2:0:0:
365,108,80646,6,0,P|383:57|393:-15,1,99,10|0,2:0|2:0,2:0:0:0:
195,152,80942,1,2,1:2:0:0:
64,55,81090,1,0,1:2:0:0:
64,55,81164,1,0,2:0:0:0:
64,55,81237,1,10,2:0:0:0:
137,217,81385,1,0,1:2:0:0:
271,0,81533,6,0,P|211:8|170:64,1,126,10|0,2:0|2:0,2:0:0:0:
291,197,81829,1,0,1:2:0:0:
108,335,81976,1,10,2:0:0:0:
108,335,82050,1,0,2:0:0:0:
108,335,82124,1,2,1:2:0:0:
145,209,82272,1,0,1:2:0:0:
321,351,82420,2,0,P|366:330|414:320,1,99,10|0,2:0|1:2,2:0:0:0:
481,225,82715,5,8,2:0:0:0:
286,93,82863,1,8,2:0:0:0:
286,93,82937,1,0,2:0:0:0:
286,93,83011,2,0,P|337:110|355:157,1,99,10|0,2:0|2:0,2:0:0:0:
103,329,83306,6,0,P|168:259|303:247,1,216,10|0,2:0|1:2,2:0:0:0:
76,159,83750,2,0,P|92:191|97:219,1,54,8|0,2:0|2:0,2:0:0:0:
38,268,83898,1,2,2:0:0:0:
172,384,84045,5,0,1:2:0:0:
172,384,84119,1,0,2:0:0:0:
172,384,84193,1,10,2:0:0:0:
280,333,84341,1,2,2:0:0:0:
388,207,84489,5,2,2:0:0:0:
230,118,84637,1,2,1:2:0:0:
431,48,84784,2,0,P|379:73|344:113,1,108,10|0,2:0|2:0,2:0:0:0:
423,287,85006,5,0,2:0:0:0:
409,292,85080,2,0,P|335:193|176:153,1,270,10|0,2:0|1:2,2:0:0:0:
44,273,85523,1,10,2:0:0:0:
195,60,85671,2,0,P|128:101|128:203,1,148.5,2|0,2:0|2:0,2:0:0:0:
184,245,85967,2,0,P|234:251|263:293,1,99,10|0,2:0|2:0,2:0:0:0:
108,384,86262,6,0,P|144:346|217:337,1,99,2|8,1:2|2:0,2:0:0:0:
286,239,86484,1,0,2:0:0:0:
286,239,86558,2,0,P|320:215|316:173,1,67.5,10|0,2:0|2:0,2:0:0:0:
183,247,86853,6,0,P|110:244|60:326,1,148.5,10|0,2:0|2:0,2:0:0:0:
47,302,87149,5,8,2:0:0:0:
120,194,87297,1,2,1:2:0:0:
270,128,87444,1,10,2:0:0:0:
26,19,87592,1,10,2:0:0:0:
26,19,87666,1,0,2:0:0:0:
26,19,87740,2,0,P|79:54|133:77,1,108,10|0,2:0|2:0,2:0:0:0:
423,19,88036,5,10,2:0:0:0:
260,129,88183,1,2,1:2:0:0:
485,213,88331,1,10,2:0:0:0:
303,18,88479,1,10,2:0:0:0:
512,129,88627,5,10,2:0:0:0:
219,235,88774,1,0,1:2:0:0:
86,199,88922,1,10,2:0:0:0:
403,375,89070,5,10,2:0:0:0:
295,10,89218,1,10,2:0:0:0:
398,384,89366,1,10,2:0:0:0:
86,199,89513,6,0,P|122:211|151:229,1,67.5,10|0,2:0|2:0,2:0:0:0:
148,348,89809,6,0,B|247:326|235:247|215:249|201:168|327:139|380:130,1,346.5,10|0,2:0|2:0,2:0:0:0:
495,112,90400,6,0,P|464:33|372:12,1,180,10|2,2:0|2:0,2:0:0:0:
338,179,90843,1,2,1:2:0:0:
249,84,90991,1,2,2:0:0:0:
83,31,91139,1,2,1:2:0:0:
148,222,91287,2,0,P|185:197|229:187,1,90,10|0,2:0|2:0,2:0:0:0:
12,313,91582,2,0,P|9:268|22:225,1,90,2|0,1:2|2:0,2:0:0:0:
322,227,91878,6,0,P|310:140|229:103,1,180,10|2,2:0|2:0,2:0:0:0:
156,222,92321,1,2,1:2:0:0:
221,94,92469,1,2,2:0:0:0:
367,52,92616,1,2,2:0:0:0:
172,4,92764,1,10,2:0:0:0:
172,4,92838,1,2,2:0:0:0:
172,4,92912,1,2,2:0:0:0:
234,188,93060,5,2,1:2:0:0:
322,143,93208,1,2,1:2:0:0:
378,217,93355,5,2,2:0:0:0:
164,145,93503,1,2,1:2:0:0:
367,52,93651,6,0,P|312:135|276:229,1,180,10|2,2:0|2:0,2:0:0:0:
223,102,94094,1,2,1:2:0:0:
266,211,94242,1,2,2:0:0:0:
117,142,94390,1,2,1:2:0:0:
11,293,94538,6,0,P|41:257|107:251,1,90,10|0,2:0|2:0,2:0:0:0:
256,355,94833,2,0,P|210:365|167:388,1,90,2|0,1:2|2:0,2:0:0:0:
11,293,95129,2,0,P|30:358|100:382,1,135,2|0,1:2|2:0,2:0:0:0:
187,192,95424,5,10,2:0:0:0:
335,343,95572,2,0,P|299:291|211:277,1,135,2|0,2:0|2:0,2:0:0:0:
179,189,95868,2,0,P|202:146|249:136,1,90,10|0,2:0|2:0,2:0:0:0:
337,352,96163,5,0,1:2:0:0:
499,214,96311,1,10,2:0:0:0:
499,214,96385,1,0,2:0:0:0:
499,214,96459,2,0,P|450:235|408:249,1,90,0|0,2:0|1:2,2:0:0:0:
270,377,96754,5,10,2:0:0:0:
80,246,96902,2,0,B|111:237|123:219|123:219|249:243,1,162,2|0,2:0|2:0,2:0:0:0:
372,140,97198,6,0,B|377:165|406:189|406:189|354:239|346:314,1,180,10|2,2:0|2:0,2:0:0:0:
240,228,97641,1,2,1:2:0:0:
346,306,97789,1,2,2:0:0:0:
199,374,97937,1,2,1:2:0:0:
142,190,98084,2,0,P|189:168|232:141,1,90,10|0,2:0|2:0,2:0:0:0:
25,51,98380,2,0,P|48:89|66:130,1,90,2|0,1:2|2:0,2:0:0:0:
240,228,98675,6,0,P|268:145|327:55,1,180,10|2,2:0|2:0,2:0:0:0:
468,126,99118,1,2,1:2:0:0:
351,177,99266,1,2,2:0:0:0:
269,306,99413,1,2,1:2:0:0:
441,384,99561,1,10,2:0:0:0:
441,384,99635,1,2,2:0:0:0:
441,384,99709,1,2,1:2:0:0:
261,321,99857,5,2,1:2:0:0:
341,269,100005,1,0,1:2:0:0:
231,161,100152,5,2,2:0:0:0:
264,331,100300,1,0,1:2:0:0:
89,251,100448,6,0,P|60:285|20:305,2,90,10|0|2,2:0|1:2|2:0,2:0:0:0:
188,366,100891,1,2,1:2:0:0:
176,366,101187,5,2,2:0:0:0:
3,219,101335,2,0,P|26:181|43:119,1,90,10|0,2:0|2:0,2:0:0:0:
44,331,101630,5,2,1:2:0:0:
216,253,101778,1,2,2:0:0:0:
56,138,101926,1,2,1:2:0:0:
103,242,102074,1,2,1:2:0:0:
321,200,102221,6,0,P|240:240|215:324,1,180,10|0,2:0|2:0,2:0:0:0:
369,383,102665,1,2,1:2:0:0:
220,344,102812,5,2,2:0:0:0:
157,172,102960,1,2,1:2:0:0:
379,269,103108,2,0,P|335:280|296:305,1,90,10|0,2:0|2:0,2:0:0:0:
201,384,103404,1,0,1:2:0:0:
321,200,103551,6,0,B|239:234|213:172|231:163|205:96|111:127,1,225,10|0,2:0|2:0,2:0:0:0:
126,132,103995,5,2,2:0:0:0:
260,37,104290,2,0,P|234:26|212:11,1,53.9999999999999,2|2,2:0|2:0,2:0:0:0:
357,129,104586,1,2,2:0:0:0:
416,59,104734,1,2,2:0:0:0:
512,40,104881,2,0,P|500:69|493:97,1,53.9999999999999,2|0,2:0|2:0,2:0:0:0:
420,185,105177,2,0,P|432:214|439:242,1,53.9999999999999,2|0,2:0|2:0,2:0:0:0:
331,326,105472,6,0,P|285:294|212:286,1,108,2|2,2:0|2:0,2:0:0:0:
141,344,105915,1,2,2:0:0:0:
99,261,106063,1,2,2:0:0:0:
0,216,106210,1,2,2:0:0:0:
101,166,106358,2,0,L|107:137,2,26.9999999999999,2|2|2,2:0|2:0|2:0,2:0:0:0:
176,321,106654,5,2,2:0:0:0:
92,261,106802,1,2,2:0:0:0:
65,332,106949,5,2,2:0:0:0:
157,227,107097,1,0,2:0:0:0:
255,331,107245,6,0,P|304:309|356:297,1,108,2|2,2:0|2:0,2:0:0:0:
409,199,107688,1,2,2:0:0:0:
495,225,107836,1,2,2:0:0:0:
442,113,107984,1,2,2:0:0:0:
330,217,108132,6,0,P|322:192|328:166,1,53.9999999999999,2|0,2:0|2:0,2:0:0:0:
250,100,108427,2,0,P|220:111|203:133,1,53.9999999999999,2|0,2:0|2:0,2:0:0:0:
362,64,108723,2,0,P|391:73|414:77,1,53.9999999999999,2|0,2:0|2:0,2:0:0:0:
237,0,109018,5,2,2:0:0:0:
196,157,109166,1,2,2:0:0:0:
3,58,109462,6,0,P|26:120|34:185,1,108,2|2,2:0|2:0,2:0:0:0:
128,204,109905,5,2,2:0:0:0:
200,156,110053,1,2,2:0:0:0:
131,211,110201,1,2,2:0:0:0:
93,306,110348,2,0,P|152:322|197:352,1,108,2|2,2:0|2:0,2:0:0:0:
304,181,110939,5,2,2:0:0:0:
272,365,111087,1,2,2:0:0:0:
460,260,111382,6,0,P|439:287|410:295,1,53.9999999999999,2|2,2:0|2:0,2:0:0:0:
335,212,111678,1,2,2:0:0:0:
248,183,111825,1,2,2:0:0:0:
226,288,111973,2,0,P|248:271|276:265,1,53.9999999999999,2|0,2:0|2:0,2:0:0:0:
344,384,112269,2,0,P|341:357|348:331,1,53.9999999999999,2|0,2:0|2:0,2:0:0:0:
460,260,112564,1,2,2:0:0:0:
241,182,112860,6,0,P|248:127|263:73,1,108,2|2,2:0|2:0,2:0:0:0:
171,6,113303,1,2,2:0:0:0:
260,66,113451,1,2,2:0:0:0:
164,164,113599,1,2,2:0:0:0:
302,133,113747,2,0,P|333:141|359:155,1,53.9999999999999,2|0,2:0|2:0,2:0:0:0:
438,3,114042,5,2,2:0:0:0:
417,76,114190,1,2,2:0:0:0:
333,38,114338,5,2,2:0:0:0:
433,163,114486,1,2,2:0:0:0:
336,286,114633,2,0,P|385:258|451:246,1,108,2|2,2:0|2:0,2:0:0:0:
240,384,115537,2,0,P|207:347|142:328,2,108,2|2|2,2:0|2:0|2:0,2:0:0:0:
304,176,116423,6,0,B|295:206|295:206|245:212|213:258,1,108,2|0,2:0|2:0,2:0:0:0:
152,329,116873,2,0,P|128:323|107:290,2,54.1799983520508,2|2|2,2:0|2:0|2:0,2:0:0:0:
87,211,117339,5,2,2:0:0:0:
208,241,117654,5,2,2:0:0:0:
291,111,118006,5,2,2:0:0:0:
490,147,118506,6,0,P|486:158|485:171,2,15,2|0|2,2:0|2:0|2:0,2:0:0:0:
256,192,118669,12,0,123071,2:0:0:0:
