osu file format v14

[General]
AudioFilename: audio.mp3
AudioLeadIn: 0
PreviewTime:53380
Countdown: 0
SampleSet: Soft
StackLeniency: 0.5
Mode: 0
LetterboxInBreaks: 0
WidescreenStoryboard: 1

[Editor]
Bookmarks:54937,90405,104000
DistanceSpacing: 1
BeatDivisor: 4
GridSize: 32
TimelineZoom: 1.3

[Metadata]
Title:Ikazuchi
TitleUnicode:雷
Artist:Miyo Takashiro
ArtistUnicode:高城みよ
Creator:Arushii09
Version:Aurorance's Normal
Source:DEEMO II
Tags:artcore ambient orchestral piano folk japanese vocal videogame video game Rayark Inc. DEEMO2 female vocalist vgm kennethbbg aurorance iredi syndicate_ nilou -_nilou_-
BeatmapID:4008861
BeatmapSetID:1938528

[Difficulty]
HPDrainRate:3
CircleSize:3
OverallDifficulty:5
ApproachRate:6
SliderMultiplier:0.899999999999999
SliderTickRate:1

[Events]
//Background and Video events
0,0,"bg.jpg",0,0
//Break Periods
//Storyboard Layer 0 (Background)
//Storyboard Layer 1 (Fail)
//Storyboard Layer 2 (Pass)
//Storyboard Layer 3 (Foreground)
//Storyboard Layer 4 (Overlay)
//Storyboard Sound Samples

[TimingPoints]
2029,295.566502463054,3,2,1,40,1,0
12964,295.566502463054,5,2,1,60,1,0
14441,295.566502463054,3,2,1,60,1,0
21238,295.566502463054,3,2,1,60,1,0
26558,-100,3,2,2,40,0,0
41040,-100,3,2,2,45,0,0
51385,-100,3,2,2,55,0,0
54932,-100,3,2,1,70,0,1
69119,-100,3,2,1,75,0,1
90400,-100,3,2,1,60,0,0
91878,295.566502463054,3,2,1,60,1,0
98675,295.566502463054,3,2,1,60,1,0
103995,-100,3,2,1,40,0,0
105472,295.566502463054,3,2,1,40,1,0
111087,295.566502463054,3,2,1,40,1,0
114633,301.507537688442,3,2,1,40,1,0
115537,295.566502463054,3,2,1,40,1,0
116423,300,3,2,1,40,1,0
117173,333.333333333333,3,2,1,40,1,0
117339,315.78947368421,3,2,1,40,1,0
117654,352.941176470588,3,2,1,40,1,0
118006,333.333333333333,3,2,1,40,1,0
118506,326.086956521739,3,2,1,40,1,0
123071,-100,3,2,1,5,0,0

[Colours]
Combo1 : 151,133,241
Combo2 : 115,32,253
Combo3 : 74,78,210
Combo4 : 164,100,240

[HitObjects]
31,135,12964,5,10,2:0:0:0:
92,69,13259,1,2,2:0:0:0:
92,69,13407,2,0,L|76:-1,2,44.99999999999996,2|2|2,1:2|2:0|1:2,2:0:0:0:
134,83,13850,2,0,P|172:62|227:71,1,89.99999999999991,10|2,2:0|1:2,2:0:0:0:
276,133,14441,1,10,2:0:0:0:
230,212,14736,1,2,2:0:0:0:
230,212,14884,2,0,L|170:200,2,44.99999999999996,2|2|2,1:2|2:0|2:0,2:0:0:0:
249,252,15327,2,0,L|362:233,2,89.99999999999991,10|2|2,2:0|1:2|2:0,2:0:0:0:
187,318,16214,5,10,2:0:0:0:
115,274,16509,1,2,2:0:0:0:
115,274,16657,2,0,L|106:217,2,44.99999999999996,2|2|2,1:2|2:0|1:2,2:0:0:0:
93,313,17101,2,0,P|53:322|13:286,1,89.99999999999991,10|2,2:0|1:2,2:0:0:0:
23,204,17692,1,2,1:2:0:0:
87,141,17987,6,0,L|63:48,1,89.99999999999991,10|0,2:0|1:2,2:0:0:0:
90,16,18431,1,10,2:0:0:0:
180,44,18726,1,0,1:2:0:0:
180,44,18874,2,0,P|223:53|263:35,1,89.99999999999991,10|0,2:0|1:2,2:0:0:0:
302,12,19317,2,0,L|393:26,1,89.99999999999991,10|0,2:0|2:0,2:0:0:0:
430,48,19761,5,10,2:0:0:0:
389,132,20056,1,2,2:0:0:0:
389,132,20204,2,0,L|340:141,2,44.99999999999996,2|2|2,1:2|2:0|1:2,2:0:0:0:
426,156,20647,2,0,P|441:191|427:247,1,89.99999999999991,10|2,2:0|1:2,2:0:0:0:
378,313,21238,1,10,2:0:0:0:
305,269,21533,1,2,2:0:0:0:
305,269,21681,2,0,L|313:201,2,44.99999999999996,2|2|2,1:2|2:0|1:2,2:0:0:0:
265,290,22124,2,0,L|289:387,2,89.99999999999991,10|2|2,2:0|1:2|2:0,2:0:0:0:
193,235,23011,5,10,2:0:0:0:
245,163,23306,1,2,2:0:0:0:
245,163,23454,2,0,L|259:66,1,89.99999999999991,2|2,1:2|2:0,2:0:0:0:
238,33,23898,1,10,2:0:0:0:
152,61,24193,2,0,L|104:54,1,44.99999999999996,2|2,1:2|2:0,2:0:0:0:
65,71,24489,2,0,L|58:119,1,44.99999999999996,2|2,1:2|1:2,2:0:0:0:
81,154,24784,5,10,2:0:0:0:
43,238,25080,1,0,2:0:0:0:
43,238,25228,2,0,L|-22:225,2,44.99999999999996,2|2|2,1:2|2:0|1:2,2:0:0:0:
76,268,25671,1,10,2:0:0:0:
152,218,25967,1,0,1:2:0:0:
152,218,26114,2,0,P|195:223|239:242,1,89.99999999999991,10|0,2:0|2:0,2:0:0:0:
278,262,26558,5,2,2:0:0:0:
432,364,27149,1,2,2:0:0:0:
484,291,27444,2,0,P|498:222|470:166,1,134.9999999999999,2|2,2:0|2:0,2:0:0:0:
438,133,28036,1,2,2:0:0:0:
362,182,28331,2,0,P|295:195|243:147,1,134.9999999999999,2|2,2:0|2:0,2:0:0:0:
222,117,28922,1,2,2:0:0:0:
141,156,29218,1,2,2:0:0:0:
190,329,29809,5,2,2:0:0:0:
107,365,30104,1,2,2:0:0:0:
21,335,30400,2,0,L|5:240,1,89.99999999999991,2|2,2:0|2:0,2:0:0:0:
41,163,30991,2,0,P|105:146|172:177,1,134.9999999999999,2|2,2:0|2:0,2:0:0:0:
201,199,31582,2,0,L|270:182,1,44.99999999999996,2|2,2:0|2:0,2:0:0:0:
282,212,31878,6,0,L|391:236,1,89.99999999999991,2|2,2:0|2:0,2:0:0:0:
451,193,32469,1,2,2:0:0:0:
394,123,32765,2,0,L|285:99,1,89.99999999999991,2|2,2:0|2:0,2:0:0:0:
275,78,33208,1,2,2:0:0:0:
275,78,33356,2,0,L|228:87,1,44.99999999999996,2|2,2:0|2:0,2:0:0:0:
195,113,33651,6,0,P|174:153|187:204,1,89.99999999999991,2|0,2:0|2:0,2:0:0:0:
232,269,34242,1,2,2:0:0:0:
171,335,34538,2,0,P|126:321|76:315,1,89.99999999999991,6|0,2:0|2:0,2:0:0:0:
56,287,34981,1,2,2:0:0:0:
56,287,35129,1,2,2:0:0:0:
97,207,35425,6,0,P|85:162|65:113,1,89.99999999999991,2|0,2:0|2:0,2:0:0:0:
86,82,35868,1,2,2:0:0:0:
86,82,36016,2,0,P|131:73|176:102,1,89.99999999999991,2|6,2:0|2:0,2:0:0:0:
232,156,36607,1,2,2:0:0:0:
297,94,36903,1,2,2:0:0:0:
358,160,37198,6,0,L|334:269,1,89.99999999999991,2|2,2:0|2:1,2:0:0:0:
377,329,37789,1,2,2:0:0:0:
448,274,38085,2,0,L|472:165,1,89.99999999999991,6|2,2:0|2:1,2:0:0:0:
500,155,38528,1,2,2:0:0:0:
500,155,38676,1,2,2:0:0:0:
449,79,38971,6,0,P|384:65|311:127,1,134.9999999999999,2|2,2:1|2:0,2:0:0:0:
302,136,39563,2,0,L|248:128,1,44.99999999999996,8|8,2:0|2:0,2:0:0:0:
222,100,39858,1,8,2:0:0:0:
222,100,40006,2,0,L|105:123,1,89.99999999999991,0|8,1:0|2:0,2:0:0:0:
52,91,40597,1,8,2:0:0:0:
52,91,40745,1,0,1:2:0:0:
6,168,41040,6,0,P|25:223|38:273,1,89.99999999999991,2|2,2:1|2:0,2:0:0:0:
100,313,41632,1,8,2:0:0:0:
177,266,41927,1,2,2:1:0:0:
244,326,42223,1,2,2:0:0:0:
320,279,42518,6,0,P|309:236|288:188,1,89.99999999999991,0|2,1:2|2:1,2:0:0:0:
254,178,42962,1,10,2:0:0:0:
254,178,43109,1,2,2:0:0:0:
267,88,43405,1,10,2:0:0:0:
345,44,43701,1,2,2:1:0:0:
432,67,43996,1,2,2:0:0:0:
475,145,44292,6,0,P|485:215|431:253,1,134.9999999999999,2|0,1:2|2:0,2:0:0:0:
359,222,45031,1,0,1:2:0:0:
359,222,45178,2,0,P|353:185|334:113,2,89.99999999999991,10|2|2,2:0|2:1|2:1,2:0:0:0:
334,261,45917,1,2,1:2:0:0:
334,261,46065,5,0,1:2:0:0:
255,228,46361,1,2,2:1:0:0:
255,228,46508,2,0,L|150:205,1,89.99999999999991,8|0,2:0|2:0,2:0:0:0:
127,230,46952,2,0,P|116:284|149:324,2,89.99999999999991,10|2|2,2:0|2:1|2:1,2:0:0:0:
106,142,47838,5,2,1:2:0:0:
183,95,48134,2,0,L|276:115,1,89.99999999999991,2|2,2:1|2:1,2:0:0:0:
336,175,48725,1,10,2:0:0:0:
425,160,49021,1,2,2:1:0:0:
464,79,49316,1,2,2:1:0:0:
402,13,49612,6,0,L|283:30,1,89.99999999999991,2|2,1:2|2:1,2:0:0:0:
279,54,50055,1,2,2:0:0:0:
279,54,50203,1,2,2:1:0:0:
200,11,50499,2,0,L|101:-2,1,89.99999999999991,10|2,2:0|2:1,2:0:0:0:
27,34,51090,1,2,2:1:0:0:
82,112,51385,5,10,2:0:0:0:
82,112,51533,2,0,P|56:181|39:275,1,134.9999999999999,0|2,1:2|1:2,2:0:0:0:
11,273,52124,1,0,1:2:0:0:
11,273,52272,1,10,2:0:0:0:
63,346,52568,1,2,1:2:0:0:
161,359,52863,1,10,2:0:0:0:
252,301,53159,5,14,2:0:0:0:
150,50,54045,1,10,2:0:0:0:
229,6,54341,2,0,P|269:18|325:26,1,89.99999999999991,14|14,2:0|2:0,2:0:0:0:
386,81,54932,6,0,P|389:128|355:170,1,89.99999999999991,14|2,2:0|1:2,2:0:0:0:
325,187,55375,1,8,2:0:0:0:
325,187,55523,2,0,L|269:176,1,44.99999999999996,2|0,2:0|2:0,2:0:0:0:
245,143,55819,2,0,L|150:156,1,89.99999999999991,10|10,1:2|2:0,2:0:0:0:
119,189,56262,1,2,1:2:0:0:
173,278,56558,1,0,2:0:0:0:
173,278,56705,6,0,L|280:261,1,89.99999999999991,10|0,2:0|1:2,2:0:0:0:
289,305,57149,2,0,P|328:329|392:313,1,89.99999999999991,10|0,2:0|1:2,2:0:0:0:
416,307,57592,1,10,2:0:0:0:
384,212,57888,2,0,L|395:148,1,44.99999999999996,2|2,2:0|1:2,2:0:0:0:
428,134,58183,2,0,L|421:77,1,44.99999999999996,10|2,2:0|1:2,2:0:0:0:
386,55,58479,6,0,P|339:50|296:82,1,89.99999999999991,10|0,2:0|1:2,2:0:0:0:
272,110,58922,1,10,2:0:0:0:
203,46,59218,1,0,1:2:0:0:
203,46,59366,2,0,L|114:27,1,89.99999999999991,10|0,2:0|1:2,2:0:0:0:
68,43,59809,2,0,P|53:85|81:140,1,89.99999999999991,8|0,2:0|1:2,2:0:0:0:
109,152,60252,5,10,2:0:0:0:
39,222,60548,2,0,L|48:282,1,44.99999999999996,2|2,2:0|1:2,2:0:0:0:
24,311,60843,2,0,L|33:371,1,44.99999999999996,10|0,2:0|2:0,2:0:0:0:
74,379,61139,1,10,2:0:0:0:
154,321,61435,1,10,2:0:0:0:
233,380,61730,1,10,2:0:0:0:
312,320,62026,6,0,P|317:275|284:222,1,89.99999999999991,10|0,2:0|1:2,2:0:0:0:
249,225,62469,2,0,P|230:184|235:140,1,89.99999999999991,10|0,2:0|1:2,2:0:0:0:
271,107,62912,1,10,2:0:0:0:
206,31,63208,2,0,L|151:36,1,44.99999999999996,2|10,2:0|2:0,2:0:0:0:
116,13,63504,2,0,L|61:18,1,44.99999999999996,2|2,1:2|2:0,2:0:0:0:
34,50,63799,5,10,2:0:0:0:
96,126,64095,2,0,L|89:177,1,44.99999999999996,2|0,2:0|1:2,2:0:0:0:
58,209,64390,1,2,2:0:0:0:
131,275,64686,1,10,2:0:0:0:
194,199,64981,2,0,L|181:138,2,44.99999999999996,10|0|10,2:0|1:2|2:0,2:0:0:0:
242,225,65425,1,2,1:2:0:0:
242,225,65572,6,0,P|282:202|334:204,1,89.99999999999991,10|2,2:0|1:2,2:0:0:0:
375,223,66016,1,8,2:0:0:0:
375,223,66164,1,2,2:0:0:0:
420,135,66459,2,0,L|405:36,1,89.99999999999991,10|0,2:0|1:2,2:0:0:0:
375,14,66903,1,2,1:2:0:0:
375,14,67050,1,10,2:0:0:0:
298,76,67346,5,10,2:0:0:0:
204,43,67641,2,0,L|196:-1,2,44.99999999999996,2|2|2,1:2|1:2|2:0,2:0:0:0:
173,83,68085,1,2,1:2:0:0:
173,83,68233,1,10,2:0:0:0:
249,145,68528,2,0,L|238:215,1,44.99999999999996,10|0,2:0|2:0,2:0:0:0:
207,225,68824,2,0,L|214:288,1,44.99999999999996,10|0,2:0|2:0,2:0:0:0:
249,301,69119,5,14,2:0:0:0:
175,367,69415,2,0,L|123:358,1,44.99999999999996,2|8,1:2|2:0,2:0:0:0:
83,374,69710,2,0,L|36:368,1,44.99999999999996,2|0,2:0|1:2,2:0:0:0:
3,333,70006,2,0,P|-8:298|9:247,1,89.99999999999991,10|0,2:0|1:2,2:0:0:0:
55,229,70449,1,10,2:0:0:0:
55,229,70597,1,2,1:2:0:0:
9,140,70893,6,0,L|-3:35,1,89.99999999999991,10|2,2:0|1:2,2:0:0:0:
31,13,71336,2,0,L|136:1,1,89.99999999999991,10|2,2:0|1:2,2:0:0:0:
160,32,71779,1,10,2:0:0:0:
108,116,72075,2,0,L|113:161,1,44.99999999999996,10|0,2:0|1:2,2:0:0:0:
150,194,72371,2,0,L|195:189,1,44.99999999999996,10|0,2:0|2:0,2:0:0:0:
227,151,72666,6,0,P|269:139|315:153,1,89.99999999999991,10|0,2:0|1:2,2:0:0:0:
350,183,73109,1,10,2:0:0:0:
288,261,73405,1,0,1:2:0:0:
288,261,73553,2,0,L|300:357,1,89.99999999999991,10|0,2:0|1:2,2:0:0:0:
343,373,73996,2,0,L|439:361,1,89.99999999999991,10|2,2:0|2:0,2:0:0:0:
467,326,74439,5,8,2:0:0:0:
425,235,74735,2,0,L|432:170,1,44.99999999999996,2|8,2:0|2:0,2:0:0:0:
467,157,75031,2,0,L|474:92,1,44.99999999999996,2|8,1:2|2:0,2:0:0:0:
445,70,75326,1,10,2:0:0:0:
362,121,75622,1,0,1:2:0:0:
362,121,75770,2,0,P|314:94|276:96,1,89.99999999999991,10|2,2:0|1:2,2:0:0:0:
246,131,76213,6,0,P|201:129|164:104,1,89.99999999999991,10|2,2:0|1:2,2:0:0:0:
114,18,76804,1,2,2:0:0:0:
34,76,77100,2,0,L|52:171,1,89.99999999999991,10|10,2:0|2:0,2:0:0:0:
89,203,77543,1,0,1:2:0:0:
89,203,77691,1,2,1:2:0:0:
19,272,77986,6,0,P|16:322|62:357,1,89.99999999999991,10|0,2:0|1:2,2:0:0:0:
92,369,78430,1,2,1:2:0:0:
92,369,78577,2,0,L|174:356,1,44.99999999999996,10|2,2:0|1:2,2:0:0:0:
170,325,78873,2,0,L|273:340,1,89.99999999999991,10|10,2:0|2:0,2:0:0:0:
346,290,79464,1,10,2:0:0:0:
274,221,79760,6,0,L|251:114,1,89.99999999999991,10|2,2:0|1:2,2:0:0:0:
221,105,80203,1,8,2:0:0:0:
221,105,80351,1,2,2:0:0:0:
271,19,80646,1,10,2:0:0:0:
352,74,80942,2,0,L|421:81,1,44.99999999999996,2|0,1:2|1:2,2:0:0:0:
442,59,81237,1,10,2:0:0:0:
506,134,81533,6,0,P|516:187|484:235,1,89.99999999999991,10|0,2:0|1:2,2:0:0:0:
463,247,81976,1,10,2:0:0:0:
463,247,82124,2,0,L|398:235,1,44.99999999999996,2|0,1:2|1:2,2:0:0:0:
377,210,82420,2,0,L|282:226,1,89.99999999999991,10|8,2:0|2:0,2:0:0:0:
214,290,83011,1,10,2:0:0:0:
151,213,83306,6,0,L|173:98,1,89.99999999999991,10|0,2:0|1:2,2:0:0:0:
211,98,83750,1,8,2:0:0:0:
211,98,83898,1,2,2:0:0:0:
146,23,84193,2,0,L|57:36,1,89.99999999999991,10|2,2:0|2:0,2:0:0:0:
1,117,84784,1,10,2:0:0:0:
88,164,85080,6,0,L|71:252,1,89.99999999999991,10|0,2:0|1:2,2:0:0:0:
35,286,85523,1,10,2:0:0:0:
35,286,85671,2,0,L|49:352,1,44.99999999999996,2|0,2:0|1:2,2:0:0:0:
85,357,85967,1,10,2:0:0:0:
160,293,86262,1,2,1:2:0:0:
247,340,86558,1,10,2:0:0:0:
325,280,86853,6,0,L|427:301,2,89.99999999999991,10|8|10,2:0|2:0|2:0,2:0:0:0:
273,195,87740,2,0,L|171:216,2,89.99999999999991,10|10|10,2:0|2:0|2:0,2:0:0:0:
334,117,88627,1,10,2:0:0:0:
267,44,88922,2,0,L|196:30,1,44.99999999999996,10|10,2:0|2:0,2:0:0:0:
175,57,89218,2,0,L|104:43,1,44.99999999999996,10|10,2:0|2:0,2:0:0:0:
91,15,89513,1,10,2:0:0:0:
6,74,89809,2,0,P|2:131|25:169,1,89.99999999999991,10|0,2:0|2:0,2:0:0:0:
104,217,90400,5,10,2:0:0:0:
181,169,90696,1,2,2:0:0:0:
181,169,90843,2,0,L|168:102,2,44.99999999999996,2|2|2,1:2|2:0|1:2,2:0:0:0:
221,190,91287,2,0,L|202:307,1,89.99999999999991,10|2,2:0|1:2,2:0:0:0:
256,353,91878,1,10,2:0:0:0:
331,304,92173,1,2,2:0:0:0:
331,304,92321,2,0,L|317:235,2,44.99999999999996,2|2|2,1:2|2:0|2:0,2:0:0:0:
369,327,92764,2,0,P|412:328|463:293,2,89.99999999999991,10|2|2,2:0|1:2|2:0,2:0:0:0:
298,384,93651,5,10,2:0:0:0:
231,332,93946,1,2,2:0:0:0:
231,332,94094,2,0,L|242:271,2,44.99999999999996,2|2|2,1:2|2:0|1:2,2:0:0:0:
196,361,94538,2,0,P|148:343|96:335,1,89.99999999999991,10|2,2:0|1:2,2:0:0:0:
31,380,95129,1,2,1:2:0:0:
5,299,95424,5,10,2:0:0:0:
5,299,95572,1,2,2:0:0:0:
82,252,95868,1,10,2:0:0:0:
35,181,96163,1,0,1:2:0:0:
35,181,96311,2,0,P|27:137|6:76,1,89.99999999999991,10|0,2:0|1:2,2:0:0:0:
39,56,96754,2,0,P|87:40|135:62,1,89.99999999999991,10|0,2:0|2:0,2:0:0:0:
160,76,97198,5,10,2:0:0:0:
204,160,97493,1,2,2:0:0:0:
204,160,97641,2,0,L|189:208,2,44.99999999999996,2|2|2,1:2|2:0|1:2,2:0:0:0:
243,136,98084,2,0,P|286:152|343:131,1,89.99999999999991,10|2,2:0|1:2,2:0:0:0:
405,97,98675,1,10,2:0:0:0:
460,174,98970,1,2,2:0:0:0:
460,174,99118,2,0,L|529:160,2,44.99999999999996,2|2|2,1:2|2:0|1:2,2:0:0:0:
436,212,99561,2,0,L|336:232,2,89.99999999999991,10|2|2,2:0|1:2|2:0,2:0:0:0:
509,264,100448,5,10,2:0:0:0:
464,344,100743,1,2,2:0:0:0:
464,344,100891,2,0,P|417:324|379:316,1,89.99999999999991,2|2,1:2|2:0,2:0:0:0:
337,334,101335,1,10,2:0:0:0:
269,274,101630,2,0,L|219:280,1,44.99999999999996,2|2,1:2|2:0,2:0:0:0:
200,318,101926,2,0,L|155:312,1,44.99999999999996,2|2,1:2|1:2,2:0:0:0:
120,283,102221,5,10,2:0:0:0:
48,336,102517,1,0,2:0:0:0:
48,336,102665,2,0,L|60:403,2,44.99999999999996,2|2|2,1:2|2:0|1:2,2:0:0:0:
7,316,103108,2,0,L|26:173,1,134.9999999999999,10|10,2:0|2:0,2:0:0:0:
9,98,103847,1,0,2:0:0:0:
9,98,103995,6,0,B|52:46|141:82|119:111|209:147|256:83,1,269.9999999999998,2|2,2:0|2:0,2:0:0:0:
313,16,105177,1,2,2:0:0:0:
395,50,105472,2,0,L|439:322,1,269.9999999999998,2|2,2:0|2:0,2:0:0:0:
368,374,106654,1,2,2:0:0:0:
300,314,106949,1,2,2:0:0:0:
230,372,107245,6,0,P|140:318|144:151,1,269.9999999999998,2|2,2:0|2:0,2:0:0:0:
213,122,108427,1,2,2:0:0:0:
260,198,108723,1,2,2:0:0:0:
341,156,109018,1,2,2:0:0:0:
341,156,109166,2,0,L|327:65,1,89.99999999999991,2|2,2:0|2:0,2:0:0:0:
408,26,109757,2,0,L|422:117,1,89.99999999999991,2|2,2:0|2:0,2:0:0:0:
490,172,110348,5,2,2:0:0:0:
457,255,110644,1,2,2:0:0:0:
372,245,110939,1,2,2:0:0:0:
372,245,111087,6,0,B|309:220|248:295|282:309|220:384|148:351,1,269.9999999999998,2|2,2:0|2:0,2:0:0:0:
75,301,112269,1,2,2:0:0:0:
119,222,112564,1,2,2:0:0:0:
44,172,112860,2,0,B|1:5|1:5|93:43,1,269.9999999999998,2|2,2:0|2:0,2:0:0:0:
171,84,114042,1,2,2:0:0:0:
229,15,114338,5,2,2:0:0:0:
313,59,114633,1,2,2:0:0:0:
399,33,114934,2,0,B|418:126|345:104|363:203,1,180,2|2,2:0|2:0,2:0:0:0:
317,280,115832,2,0,P|357:298|409:276,1,89.99999999999991,2|2,2:0|2:0,2:0:0:0:
450,210,116423,1,2,2:0:0:0:
253,28,117339,5,2,2:0:0:0:
256,192,118506,12,0,123071,2:0:0:0:
